#TITLE:lower world;
#SUBTITLE:;
#ARTIST:D.J.SETUP;
#TITLETRANSLIT:;
#SUBTITLETRANSLIT:;
#ARTISTTRANSLIT:;
#GENRE:;
#CREDIT:;
#MUSIC:lower world.ogg;
#BANNER:lower world-bn.png;
#BACKGROUND:lower world-bg.png;
#CDTITLE:;
#SAMPLESTART:97.984;
#SAMPLELENGTH:12.371;
#SELECTABLE:YES;
#OFFSET:1.113;
#BPMS:0.000=155.000;
#STOPS:164.000=8.903;
#BGCHANGES:0.000=lower world.mp4=1.000=0=0=1,
99999.000=-nosongbg-=1.000=0=0=0=StretchNoLoop====
;
#FGCHANGES:;

//--------------- dance-single - Pandemonium X ----------------
#NOTES:
     dance-single:
     Pandemonium X:
     Beginner:
     3:
     0.11593,0.229542,0.030915,0.015457,0,105,101,4,2,0,0,0.11593,0.229542,0.030915,0.015457,0,105,101,4,2,0,0:
0000
0000
0000
0000
,
0000
0000
0000
0000
,
0000
0000
0000
0000
,
0000
0000
0000
0000
,
0000
0000
0000
0000
,
0000
0000
0000
0000
,
0000
0000
0000
0000
,
0000
0000
0000
0000
,
0000
0000
0000
0000
,
0001
0000
0000
0000
,
1000
0000
0000
0000
,
0010
0000
0000
0000
,
1000
0000
0000
0100
,
1000
0000
0000
0000
,
0001
0000
0000
0000
,
0100
0000
0000
0000
,
0020
0000
0000
0030
,
1001
0000
0000
0000
,
0001
0000
0000
0000
,
1000
0000
0000
0000
,
0010
0000
0000
0100
,
0001
0000
0001
0000
,
1000
0000
1000
0000
,
0010
0000
0010
0000
,
0100
0000
0100
0000
,
1001
0000
0000
0000
,
0000
0000
0000
1000
,
0000
0000
0000
0000
,
0000
0000
0000
0001
,
0100
0000
0000
0010
,
0000
0000
0000
1000
,
0000
0000
0000
0100
,
0000
0000
0000
0010
,
0000
0001
0000
1000
,
0000
0001
0000
1000
,
0000
0010
0000
0100
,
0000
0010
0000
0100
,
0000
0001
0000
0100
,
0000
0010
0000
1000
,
0000
0001
0000
1000
,
0010
0010
0100
0100
,
1001
0000
0000
0000
,
0000
0000
0000
0000
,
0000
0000
0000
0000
,
0000
0000
0000
1000
,
0000
1000
0000
0001
,
0000
0001
0000
1000
,
0000
0001
0000
1000
,
0000
0001
0000
0001
,
0000
1000
0000
1000
,
0000
0010
0000
0000
,
0000
0100
0000
0000
,
0000
0001
0000
0010
,
0000
0001
0000
0010
,
0000
0100
0000
1000
,
0000
0001
0000
1000
,
0000
0010
0000
0000
,
0000
0000
0000
0000
,
0000
0100
0000
0010
,
0000
1000
0000
0001
,
0000
0010
0000
0001
,
0000
0010
0000
0100
,
0000
0010
0000
0100
,
0000
1000
0000
0001
,
0000
0100
0000
0010
,
0000
0100
0000
0001
,
0000
1000
0000
0001
,
0000
0010
0000
0100
,
0000
1000
0000
0100
,
0000
1000
0000
0010
,
0000
0100
0000
0010
,
0000
0100
0000
0001
,
0000
2000
0000
0000
,
0000
0000
0000
0000
,
3000
1001
0000
0000
;

//--------------- dance-single - Pandemonium X ----------------
#NOTES:
     dance-single:
     Pandemonium X:
     Easy:
     7:
     0.239589,0.401699,0.077287,0.216403,0,217,207,10,28,0,0,0.239589,0.401699,0.077287,0.216403,0,217,207,10,28,0,0:
0000
0000
0000
0000
,
0000
0000
0000
0000
,
0000
0000
0000
0000
,
0000
0000
0000
0000
,
0000
0000
0000
0000
,
0000
0000
0000
0000
,
0000
0000
0000
0000
,
0000
0000
0000
0000
,
0000
0000
0000
0000
,
0001
1000
0001
0010
,
0001
1000
0001
0100
,
0001
1000
0001
0010
,
0001
1000
0001
0011
,
0010
0100
1000
0100
,
1000
0010
1000
0010
,
0100
0001
0010
0001
,
2000
0000
0000
3000
,
0001
1000
0010
1000
,
0001
0010
0001
0100
,
0010
1000
0010
0100
,
0001
0000
1000
0000
0100
0000
0010
0001
,
0010
0001
0100
0001
,
1000
0000
0100
0000
0010
0000
0100
1000
,
0100
1000
0010
0100
,
0001
1000
0001
0000
,
1000
0000
0001
0000
,
0100
0000
0000
0000
0010
1000
1000
0000
,
0010
0000
0100
0000
,
0001
0000
0000
0000
0010
0001
0001
0000
,
0010
0000
0000
0000
0001
1000
1000
0000
,
0001
0000
0000
0000
1000
0001
0001
0000
,
1000
0000
0000
0000
0001
0100
0100
0000
,
0010
0000
1000
1001
,
0000
1000
1000
0000
0000
0001
0001
0000
,
0000
0100
0100
0000
0000
0010
0010
0000
,
0000
1000
1000
0000
0000
0100
0100
0000
,
0000
0010
0010
0000
0000
0001
0001
0000
,
0000
1000
1000
0000
0000
0001
0001
0000
,
0000
0100
0100
0000
0000
0010
0010
0000
,
0000
0100
0100
0000
0000
0010
0010
0000
,
1001
0110
1001
0110
,
1001
0000
0000
0000
,
0000
2000
0000
0000
,
0000
0000
0000
0000
,
0000
0000
0000
3002
,
0003
0020
0030
0200
,
0300
0020
0030
0200
,
0300
2000
3000
0200
,
0300
0020
0030
0002
,
0003
2000
3000
0020
,
0030
1000
0001
1000
,
0001
1000
0001
1000
,
0001
1000
0001
1000
,
0001
1000
0001
1000
,
0001
1000
0001
1000
,
0001
1000
0001
1000
,
0001
0220
0000
0000
,
0000
0000
0000
0000
,
0330
1000
0010
0100
,
0010
1000
0001
0010
,
0001
1000
0100
2000
,
3000
0200
0300
0020
,
0030
0200
0300
0020
,
0030
0002
0003
0200
,
0300
0020
0030
2000
,
3000
0002
0000
2000
,
0003
0000
3000
0001
0001
0000
0000
0100
,
0100
0000
0000
0010
0010
0000
0000
1000
,
1000
0000
0000
0100
0100
0000
0000
0010
,
0010
0000
0000
0001
0001
0000
0000
1000
,
0001
1000
0000
0001
0001
0000
0000
0100
,
0100
0000
0000
0010
0010
0000
0000
1000
,
1000
2002
0000
0000
,
0000
0000
0000
0000
,
3003
0110
0000
0000
;

//--------------- dance-single - Pandemonium X ----------------
#NOTES:
     dance-single:
     Pandemonium X:
     Medium:
     11:
     0.395267,0.545163,0.262776,0.231861,0.042508,358,324,34,30,0,0,0.395267,0.545163,0.262776,0.231861,0.042508,358,324,34,30,0,0:
0000
0000
0000
0000
,
0000
0000
0000
0000
,
0000
0000
0000
0000
,
0000
0000
0000
0000
,
0000
0000
0000
0000
,
0001
0000
1000
0000
,
0001
0000
1000
0000
,
0001
0000
1000
0000
,
0000
0000
0000
0000
,
0001
0000
0100
0000
0010
1000
0100
0100
,
0010
0000
0100
0000
0010
0001
1000
1000
,
0001
0000
1000
0000
0100
1000
0010
0010
,
0100
0000
0001
0000
1000
0100
2100
0000
,
3001
0000
0100
0000
0010
1000
0001
0001
,
0010
0000
0001
0000
0100
0010
0100
0100
,
0001
0000
0010
0000
0100
0000
1000
1000
,
0020
0000
0000
0000
0000
0000
0000
0100
,
0130
0000
0001
0000
0010
0001
1000
1000
,
0001
0000
0010
0000
0100
0000
1000
0001
,
0100
0000
0010
0000
1000
0001
0010
0010
,
0100
0000
0010
0000
0001
0000
1000
1001
,
0000
0001
0100
0001
0000
0100
0010
0100
,
0000
0010
1000
0010
0000
1000
0100
1000
,
0000
0100
0010
0100
0000
0010
0001
0010
,
0000
0001
0100
0001
0000
1000
1001
0000
,
0001
0000
0100
0000
0010
0000
0000
0100
0000
0000
0010
0000
1000
0000
0000
0010
,
0000
0000
0100
0000
0001
0000
0000
1000
0000
0000
0100
0000
1100
0000
0000
0100
,
0000
0000
1000
0000
0001
0000
0000
0010
0000
0000
0001
0000
0100
0000
0000
0010
,
0000
0000
1000
0000
0001
0000
0000
0010
0000
0000
0001
0000
0101
0000
0000
0000
,
0001
0000
1000
0000
0100
0000
0000
0010
0000
0000
0100
0000
1100
0000
0000
0000
,
0100
0000
1000
0000
0010
0000
0000
0100
0000
0000
0001
0000
0101
0000
0000
0000
,
0001
0000
1000
0000
0001
0000
0000
0010
0000
0000
0001
0000
0101
0000
0000
0000
,
1000
0000
0001
0000
1000
0000
0000
0100
0000
0000
1000
0000
1001
0000
0000
0000
,
0001
0100
0110
0000
0010
1000
1100
0000
,
0100
0010
0011
0000
0001
0100
0101
0000
,
0100
0010
0110
0000
0010
1000
1010
0000
,
1000
0100
1100
0000
0100
1000
1010
0000
,
0010
0100
0110
0000
0010
0100
0101
0000
,
0001
0010
0110
0000
0100
1000
1010
0000
,
0010
0100
0010
0100
0001
1000
0001
1000
,
0001
0001
1000
1000
0001
0100
0010
1000
,
1001
0000
0000
2000
,
0000
3001
0100
0001
,
1000
0200
0000
0310
,
0100
0010
0000
0002
,
0000
0023
0000
0032
,
0000
2003
0000
3200
,
0000
0320
0000
0032
,
0000
2003
0000
3002
,
0000
0203
0000
0302
,
0000
1003
0001
1000
,
0001
0100
0010
0100
,
0010
0100
0001
0100
,
0001
1000
0010
1000
,
0010
0100
0001
0010
,
0100
1000
0100
0010
,
0001
1000
0020
0000
0000
0000
0000
0000
,
0000
0000
0000
0000
,
0000
0000
0130
0000
0001
0000
0010
0100
,
1000
1000
0001
0000
1000
0000
0100
1000
,
0001
0100
0001
0000
0010
0000
0100
0010
,
0010
0001
0200
0000
0301
1000
0200
0000
,
1300
0001
2000
0000
3001
0100
0020
0000
,
0130
0001
2000
0000
3100
1000
0020
0000
,
1030
0001
2000
0000
3100
0010
0200
0000
,
0310
0001
0200
0000
0000
0000
0020
0000
,
0300
0000
1030
0001
0101
0000
0001
1000
,
1100
0000
1000
0001
0101
0000
0001
1000
,
1100
0000
0001
1000
1010
0000
1000
0001
,
0011
0000
0001
1000
1010
0000
0000
1000
,
0001
1001
1000
0100
1100
0000
1000
0010
,
0110
0000
0100
0001
0101
0000
0001
0010
,
0011
0002
0000
2003
,
0000
3002
0000
2000
,
0000
3003
0000
0000
;

//--------------- dance-single - Pandemonium X ----------------
#NOTES:
     dance-single:
     Pandemonium X:
     Hard:
     15:
     0.579652,0.764851,0.092744,0.270504,0.529415,525,513,12,35,0,0,0.579652,0.764851,0.092744,0.270504,0.529415,525,513,12,35,0,0:
0000
0000
0000
0000
,
0000
0000
0000
0000
,
0000
0000
0000
0000
,
0000
0000
0000
0000
,
0000
0000
0000
0000
,
0001
1000
0010
1000
,
0001
0100
0001
1000
,
0100
0000
0000
0000
1000
0000
0000
0000
0001
0000
0000
0000
0010
0000
0000
0010
,
0000
0000
0000
0000
,
1001
0001
0100
0010
0000
0100
0001
0001
,
0000
0000
0010
0100
0000
1000
0001
1000
0001
1000
0100
1000
0100
0000
0010
0000
,
0100
1000
0010
0100
0000
0010
1000
1000
,
0000
0000
0001
0010
0000
0100
0010
0001
1000
0001
0100
0000
1001
0000
0002
0000
,
2003
0001
0001
3001
0000
0010
0001
0001
,
0000
0010
0000
0100
1000
0010
1000
0010
0100
0010
1000
0000
0001
0000
1000
0000
,
0010
0100
0001
0001
0000
0010
0100
0100
,
0020
0000
0000
0000
0000
0000
0000
0031
,
1001
0000
1000
0000
0010
0000
0100
0000
0001
0000
0010
0100
1000
0000
1000
0000
,
0100
1000
0000
0100
0000
0100
1000
0010
0100
0010
0100
0001
1000
0000
0001
0000
,
0100
0010
0100
0000
0010
0000
1000
0000
0100
0010
0100
0000
0010
0000
0010
0000
,
0001
1000
0000
0100
1000
0100
1000
0001
1000
0000
0001
0010
0100
0000
1001
0000
,
0000
0001
0100
0101
0000
1000
0100
1100
,
0000
0000
0001
0000
0100
0000
0101
0000
0000
0000
1000
0000
0100
0010
0001
0000
,
1000
0001
0010
0011
0000
0001
1000
1010
,
0010
0100
0010
0000
0010
0100
0010
0000
1000
0100
0010
0001
1000
0001
0100
0001
,
1000
0000
0001
0000
1000
0100
0000
1000
0000
0000
0001
0000
0100
0001
0000
0010
,
0000
0000
0100
0000
1000
0010
0000
0100
0000
0000
0101
0000
1001
0000
0001
1000
,
0000
0000
0001
0000
1000
0100
0000
0010
0000
0000
0100
0000
0010
0001
0000
1000
,
0000
0010
0100
0000
0010
1000
0000
0001
0000
0000
1100
0000
0011
0000
0001
0010
,
0000
0000
0001
0000
0100
0010
0000
0100
0000
0000
1010
0000
0101
0000
0100
0001
,
0000
0010
0100
0000
0010
0001
0000
1000
0000
0000
1100
0000
0011
0000
0001
0010
,
0000
0010
0001
0000
0100
0010
0000
0100
0000
0000
0110
0000
0101
0000
0100
0010
,
0000
0100
0001
0000
1000
0001
0000
0010
0000
0001
1000
0000
1001
0000
0000
0000
,
0201
0001
0301
0000
1020
1000
1030
0000
,
1200
1000
1300
0000
0021
0001
0031
0000
,
0102
0100
1003
0000
2100
0100
3001
0000
,
0012
0010
1003
0000
2010
0010
3001
1001
,
1000
0000
0001
0100
0010
0000
0001
0000
0010
0000
0100
1000
0100
0001
1000
0000
,
0001
0000
1000
0100
0010
0000
1000
0000
0010
0000
0001
0010
1000
0010
0100
0000
,
1000
0000
0001
0100
0010
0000
0100
0010
1000
0000
0001
0100
0010
0000
0100
0010
,
1000
0000
1000
0000
0001
0000
0001
0000
0100
0010
0100
0010
0100
0010
0100
0000
,
1001
0000
0000
2000
,
0000
3001
0100
0001
,
0010
0200
0000
1300
,
0100
1000
0000
0002
,
0000
0203
0000
0320
,
0000
0032
0000
0023
,
0000
2030
0000
3200
,
0000
0302
0000
0203
,
0000
2300
0000
3002
,
0000
1003
0010
1000
,
0001
1000
0100
1000
,
0001
0100
0001
0020
,
0130
2000
3001
0200
,
0301
0000
0020
0000
0130
0000
0022
0003
,
0031
2000
3100
0020
,
0130
1000
0010
0000
0200
0000
0000
0000
0000
0000
0000
0000
0000
0000
0000
0000
,
0000
0000
0000
0000
,
0000
0000
0000
0000
0301
0000
1000
0010
1000
0000
0100
0000
0010
0001
0010
0001
,
0010
0000
0001
0000
1000
0000
0001
0100
0000
0100
0001
0100
0001
0100
0001
0100
,
0010
0000
0010
0000
0100
0010
1000
0000
0001
0000
0001
0000
2000
0000
0000
0000
,
3100
0010
0001
0000
0200
0000
0000
0000
0310
1000
0001
0000
0020
0000
0000
0000
,
0130
0000
1001
0000
2000
0000
0000
0000
3010
0100
0001
0000
0200
0000
0000
0000
,
0301
1000
0100
0000
0020
0000
0000
0000
0130
1000
0001
0000
0020
0000
0000
0000
,
0130
1000
0001
0000
2000
0000
0000
0000
3010
0100
0001
0000
0020
0000
0000
0000
,
0031
0100
0010
0000
2000
0000
0000
0000
0000
0000
0000
0000
0002
0000
0000
0000
,
3003
0000
0000
0000
1001
0000
0001
0100
0010
0000
1000
0000
0100
0000
0010
0100
,
1000
0000
0100
0000
0010
0000
0100
1000
0001
0000
0010
0000
0001
0000
1000
0001
,
0010
0000
0001
0000
1000
0000
0100
1000
0010
0000
0100
0000
0001
0000
1000
0100
,
0010
0000
0100
0000
1000
0000
0001
0010
0100
0000
0010
0000
0001
0000
1000
0001
,
0100
0000
1001
0000
0001
0000
1000
0010
0100
0000
0001
0000
1000
0000
0010
0100
,
0001
0100
1000
0000
0100
0000
0010
0100
0001
0000
1000
0000
0001
1000
0100
0010
,
1000
0010
0001
0000
1000
0000
0001
0100
0001
0000
1000
0000
0100
0000
1000
0100
,
1000
0000
0001
0000
1000
0000
0010
1000
0010
0000
1000
0000
0001
0000
0010
0000
,
0000
2002
0000
0000
,
0000
0000
0000
0000
,
0000
3003
0000
0000
0000
0000
0000
0000
;

//--------------- dance-double - Pandemonium X ----------------
#NOTES:
     dance-double:
     Pandemonium X:
     Easy:
     6:
     0,0,0,0,0:
00000000
00000000
00000000
00000000
,
00000000
00000000
00000000
00000000
,
00000000
00000000
00000000
00000000
,
00000000
00000000
00000000
00000000
,
00000000
00000000
00000000
00000000
,
00000000
00000000
00000000
00000000
,
00000000
00000000
00000000
00000000
,
00000000
00000000
00000000
00000000
,
00000000
00000000
00000000
00000000
,
00001000
00000000
00100000
00000000
,
00010000
01000000
00010000
00000000
,
01000000
00000000
00100000
00000000
,
10000000
00010000
10000000
10010000
,
00010000
00000000
00100000
00000000
,
00001000
00010000
00001000
00000000
,
00010000
00000000
00000100
00000000
,
00002000
00000000
00000000
00000000
00000000
00000000
00000000
00000010
,
00003010
00000000
00000100
00000000
,
00000001
00001000
00000001
00000000
,
00001000
00000000
00000100
00000000
,
00010000
00000000
00001000
00000000
00010000
00000000
00010000
00001000
,
00000000
00100000
00000000
00000000
00000000
01000000
00000000
00000000
,
00000000
10000000
00000000
00000000
00000000
00100000
00000000
00000000
,
00000000
01000000
00000000
00000000
00000000
00010000
00000000
00000000
,
10000000
01000000
00100000
00010000
,
00100000
00000000
00001000
00000000
,
00010000
00000000
00000100
00001000
,
00000010
00000000
00000100
00000000
,
00000001
00000000
00000000
00000000
00001000
00000000
00000100
00010000
,
00000100
00000000
00010000
00001000
,
00100000
00000000
00010000
10000000
,
01000000
00000000
10000000
00100000
,
01000000
00000000
00000000
10010000
,
00000000
00010000
00000000
00100000
,
00000000
00001000
00000000
00010000
,
00000000
00000010
00000000
00000100
,
00000000
00000000
00000001
00000000
00000000
00000000
00001000
00000100
,
00001000
00000000
00000000
00000000
00000010
00000000
00000100
00000001
,
00000100
00000000
00000000
00000000
00000010
00000000
00001000
00000100
,
00010000
00001000
00010000
00001000
,
00010000
00001000
00010000
00001000
00010000
00001000
00010000
00000000
,
00011000
00000000
00000000
00020000
,
00000000
00031000
00000000
00100000
,
00000000
00010000
00000000
01000000
,
00000000
00100000
00000000
10000000
,
00000000
01000000
00000000
00100000
,
00000000
00001000
00000000
00010000
,
00000000
00000100
00000000
00001000
,
00000000
00000010
00000000
00000100
,
00000000
00001000
00000000
00000100
,
00000000
00000001
00000000
00000100
,
00000000
00000010
00000000
00010000
,
00000000
00001000
00000000
01000000
,
00000000
00010000
00000000
00100000
,
00000000
01000000
00000000
10000000
,
00000000
00010000
00000000
00100000
,
00000000
00002000
00000000
00000000
,
00000000
00000000
00000000
00000000
,
00000000
00013000
00000000
00000100
,
00000000
00001000
00000010
00001000
,
00000000
00000010
00000000
00000100
,
00000000
00000001
00000000
00000010
,
00000000
00000100
00000000
00001000
,
00000000
00000100
00000000
00010000
,
00000000
00001000
00000000
01000000
,
00000000
00100000
00000000
10000000
,
00000000
00010000
00100000
00000000
,
01000000
00000000
10000000
00000000
,
00010000
00000000
01000000
00010000
,
00100000
00001000
00010000
00000100
,
00001000
00000010
00000100
00000000
00000010
00000000
00000100
00000000
,
00000001
00000010
00000100
00000000
00000010
00000000
00000001
00000000
,
00001000
00000100
00000020
00000000
00000000
00000000
00000001
00000000
,
00000000
00000001
00000000
00000130
,
00000000
00001001
00000000
00000000
;

//--------------- dance-double - Pandemonium X ----------------
#NOTES:
     dance-double:
     Pandemonium X:
     Medium:
     10:
     0,0,0,0,0:
00000000
00000000
00000000
00000000
,
00000000
00000000
00000000
00000000
,
00000000
00000000
00000000
00000000
,
00000000
00000000
00000000
00000000
,
00000000
00000000
00000000
00000000
,
00010000
00001000
00010000
00000000
,
00000100
00001000
00000100
00000000
,
00001000
00000000
00000000
00000000
00000010
00000000
00000000
00000000
00001000
00000000
00000000
00000000
00000100
00000000
00000000
00000100
,
00000000
00000000
00000000
00000000
,
00000010
00000000
00000001
00000000
00000100
00000001
00001000
00001000
,
00000100
00000000
00000010
00000000
00000001
00000010
00000100
00010000
,
00000100
00000000
00010000
00000000
00001000
00000000
00100000
00100000
,
01000000
00000000
10000000
00000000
00010000
01000000
01010000
00000000
,
20000000
01000000
00100000
30010000
,
00100000
00000000
00001000
00000000
00010000
00000100
00001000
00000010
,
00000100
00000001
00000010
00000100
,
00022000
00000000
00000000
00000000
00000000
00000000
00030000
00013000
,
00011000
00000000
00001000
00000000
01000000
00000000
00010000
00010000
,
00100000
00000000
01000000
00000000
00100000
00001000
00010000
00000010
,
00001000
00000000
00000010
00000000
00000100
00000000
00000001
00000001
,
00000010
00000000
00000001
00000000
00000100
00000010
00001000
00001100
,
00000000
00000100
00010000
00000100
00000000
00010000
00001000
00010000
,
00000000
00000000
00001000
00000000
01000000
00000000
00001000
00000000
00000000
00000000
00010000
00000000
00001000
00010000
00001000
00000000
,
00000000
00010000
00000100
00010000
00000000
00001000
00010000
00001000
,
00000000
01000000
00001000
01000000
00001000
01000000
00001000
01000000
,
00001000
00000000
00000000
00000000
00010000
00000000
00000000
00000100
00000000
00000000
00001000
00000000
00000010
00000000
00000000
00000100
,
00000000
00000000
00000001
00000000
00000010
00000000
00000000
00000100
00000000
00000000
00001000
00000000
00001000
00000000
00000000
00000100
,
00000000
00000000
00010000
00000000
00001000
00000000
00000000
00010000
00000000
00000000
00001000
00000000
01000000
00000000
00000000
00010000
,
00000000
00000000
00100000
00000000
01000000
00000000
00000000
10000000
00000000
00000000
00010000
00000000
00010000
00000000
10010000
00000000
,
10000000
00000000
00100000
00000000
01000000
00000000
00000000
00010000
00000000
00000000
00100000
00000000
00100000
00000000
00000000
00001000
,
00000000
00000000
00010000
00000000
00000010
00000000
00000000
00001000
00000000
00000000
00000010
00000000
00000010
00000000
00000000
00000100
,
00000000
00000000
00000001
00000000
00000010
00000000
00000000
00000100
00000000
00000000
00001000
00000000
00001000
00000000
00000000
00000100
,
00000000
00000000
00010000
00000000
00001000
00000000
00000000
01000000
00000000
00000000
00010000
00000000
10010000
00000000
00000000
00000000
,
00000000
10000000
01000000
00000000
00000000
01000000
00100000
00000000
,
00000000
00100000
00010000
00000000
00000000
00010000
00001000
00000000
,
00000000
00001000
00000100
00000000
00000000
00000100
00000010
00000000
,
00000000
00000010
00000001
00000000
00000000
00000001
00000100
00000000
,
00000010
00000100
00000001
00000000
00000000
00001000
00000100
00000000
,
00010000
00001000
01000000
00000000
00000000
00010000
10000000
00000000
,
10000000
01000000
00100000
00000000
01000000
00100000
00010000
00000000
,
00100000
00000000
00001000
00000000
00100000
00000000
00001000
00000000
00010000
00001000
00010000
00001000
00010000
00000000
00001000
00000000
,
00011000
00000000
00000000
00000000
,
00000000
00010000
00000100
00010000
,
00001000
00200000
00000000
00310000
,
01000000
00020000
00000000
02030000
,
00000000
03020000
00000000
00230000
,
00000000
00302000
00000000
00023000
,
00000000
00030020
00000000
00020030
,
00000000
00030200
00000000
00002300
,
00000000
00003020
00000000
00000230
,
00000000
00000301
00001000
00000001
,
00001000
00000100
00001000
00000100
,
00001000
00000100
00010000
00000100
,
00010000
00001000
00010000
00001000
,
00010000
00001000
01000000
00001000
,
01000000
00100000
01000000
00100000
,
01000000
00001000
00020000
00000000
00000000
00000000
00000000
00000000
,
00000000
00000000
00000000
00000000
,
00030000
00000000
00000100
00001000
00000010
00000100
00000000
00000100
,
00000001
00001000
00000000
00000100
00010000
00001000
01000000
00001000
,
00010000
00000010
00000100
00000001
00001000
00000100
00000000
00010000
,
00001000
01000000
00000000
00100000
10000000
00010000
00100000
01000000
,
10000000
10010000
00000000
00010000
01000000
00100000
00000000
00100000
,
10000000
01000000
00000000
10000000
01000000
00100000
00010000
01000000
,
00001000
00010000
00000000
00000100
00001000
00000010
00000000
00000100
,
00000010
00010000
00002000
00000000
00000000
00000000
00023000
00000000
,
00000000
00000000
00030100
00001000
00000010
00000000
00000100
00000001
,
00000010
00000000
00000100
00010000
00001000
00000000
00010000
00001000
,
01000000
00000000
00010000
00100000
01000000
00000000
00100000
00010000
,
10000000
00000000
01000000
00100000
00010000
00000000
00100000
00001000
,
00010000
00010100
00000100
00001000
00000010
00000000
00000100
00000001
,
00001000
00000100
00001000
00000000
00000100
00000000
00010000
00000000
00001000
00000000
00000000
00000000
00010000
00000000
00001000
00000000
,
01000000
01001000
00012000
00000000
00000000
00000000
00010000
00000000
,
00000000
00100000
00000000
01003000
,
00000000
10010000
00000000
00000000
;

//--------------- dance-double - Pandemonium X ----------------
#NOTES:
     dance-double:
     Pandemonium X:
     Hard:
     15:
     0,0,0,0,0:
00000000
00000000
00000000
00000000
,
00000000
00000000
00000000
00000000
,
00000000
00000000
00000000
00000000
,
00000000
00000000
00000000
00000000
,
00000000
00000000
00000000
00000000
,
00010000
00000100
00000000
00000000
00001000
00000000
00000000
00000000
00000010
00000000
00000000
00000000
00000100
00000000
00000000
00000000
,
00000001
00000100
00000000
00000000
00000010
00000000
00000000
00000000
00001000
00000000
00000000
00000000
00000100
00000000
00000000
00000000
,
00010000
00000100
00000000
00000000
00010000
00000000
00000000
00000000
00001000
00000000
00000000
00000000
00010000
00000000
00000000
00010000
,
00000000
00000000
00000000
00000000
,
00001000
01000000
00100000
00010000
00000000
00100000
01000000
00010000
,
00000000
00000000
00000000
10000000
00000000
01000000
00100000
01000000
10000000
00010000
10000000
00100000
01000000
00000000
00010000
00000000
,
00100000
00001000
00100000
00001000
00000000
00010000
00000100
00001000
,
00000000
00000000
00000000
00001000
00000000
00000010
00000100
00000001
00000010
00000100
00000010
00000000
00000021
00000000
00000100
00000000
,
00000031
00000100
00000010
00001000
00000000
00001000
00000100
00000010
,
00000000
00000000
00000000
00000100
00000000
00001000
00000100
00010000
00000100
00001000
00000010
00000000
00000100
00000000
00000001
00000000
,
00001000
00000100
00010000
00001000
00000000
00010000
00001000
01000000
,
00020000
00000000
00000000
00000000
00000000
00000000
00000000
00130000
,
00011000
00001000
00010000
00000100
00000000
00010000
00001000
01000000
,
00000000
00000000
00000000
00100000
00000000
01000000
00100000
10000000
00010000
00100000
00010000
00000000
00100000
00000000
00001000
00000000
,
00010000
00001000
00010000
00000010
00000000
00010000
00001000
00100000
,
00000000
00000000
00000000
00010000
00000000
00100000
00010000
00100000
00001000
00010000
00000010
00000000
00000100
00000000
00001001
00000000
,
00000001
00000000
00001000
00000100
00000010
00000000
00000001
00000000
00000000
00000000
00000001
00000010
00000100
00000000
00010000
00000000
,
00000000
00000000
00001000
00010000
00000100
00000000
00010000
00000000
00000000
00000000
00010000
00001000
01000000
00010000
00100000
00000000
,
00000000
00000000
00100000
01000000
10000000
00000000
00010000
00000000
00000000
00000000
00100000
01000000
00010000
00000000
10000000
00000000
,
01000000
10000000
01000000
10000000
01000000
00100000
01000000
00100000
00010000
00100000
00010000
00100000
00002000
00000000
00000000
00000000
,
00013000
00000000
00000100
00000000
00001000
00000010
00000000
00000100
00000000
00000000
00000001
00000000
00000010
00000100
00000010
00000001
,
00000000
00000000
00001000
00000000
00000001
00000100
00000000
00000010
00000000
00000000
00002000
00003200
00000320
00000000
00000130
00001000
,
00000000
00000000
00000100
00000000
00010000
00001000
00000000
00100000
00000000
00000000
00010000
00000000
10000000
00100000
00000000
01000000
,
00000000
00100000
01000000
00000000
00100000
10000000
00000000
01000000
00000000
00000000
00200000
00320000
02030000
00000000
10000000
00000000
,
03010000
00000000
00100000
00000000
00001000
00010000
00000000
00000100
00000000
00000000
00002000
00003020
00000230
00000000
00000301
00001000
,
00000000
00000100
00000010
00000000
00000001
00000100
00000000
00000001
00000000
00000000
00002000
00003200
00020300
00000000
00031000
01000000
,
00000000
00100000
10000000
00000000
00010000
00100000
00000000
01000000
00000000
00100000
00002000
02003000
03020000
00000000
00130000
01000000
,
00000000
01000000
00100000
00000000
00001000
00010000
00000000
00000100
00000000
00001000
00000010
00000000
00011000
00000000
00000000
00000000
,
01001000
00000000
00001000
01000000
00100000
00000000
10000000
00000000
01000000
00000000
00100000
00001000
00010000
00000000
00001000
00000000
,
00100000
00000000
00001000
00010000
00000100
00000000
00001000
00000000
00000010
00000000
00000100
00000001
00000010
00000000
00000100
00000000
,
00000010
00000000
00000001
00001000
00000100
00000000
00000010
00000000
00000100
00000000
00000010
00000001
00001000
00000000
00000100
00000000
,
00010000
00000000
00001000
01000000
00010000
00000000
00001000
00000000
00010000
00000000
00000100
00001000
00000010
00000000
00001001
00000000
,
00000001
00000000
00000100
00000010
00001000
00000000
00000100
00010000
00001000
01000000
00010000
00100000
01000000
00000000
11000000
00000000
,
01000000
00000000
10000000
00100000
01000000
00000000
00100000
00000000
01000000
00010000
00100000
00001000
00010000
00000000
00010100
00000000
,
00001100
00000000
00001000
00000100
00000010
00000000
00000010
00000001
00000100
00000000
00000100
00000010
00001000
00000000
00000010
00000000
,
00010010
00000000
00011000
00000000
00101000
00000000
00011000
00000000
00010000
00001000
00010000
00001000
00010000
00001000
00010000
00000000
,
00100010
00000000
00000000
00020000
,
00000000
00031000
01000000
00100000
,
00010000
00200000
00000000
01300000
,
00010000
20000000
30000000
20000000
,
00000000
32000000
00000000
03200000
,
00000000
00302000
00000000
00023000
,
00000000
00030200
00000000
00002300
,
00000000
00023000
00000000
02030000
,
00000000
03020000
00000000
20030000
,
00000000
00000000
31000000
00000000
10000000
00000000
00100000
01000000
,
00010000
01000000
00010000
01000000
00010000
01000000
00010000
01000000
,
00100000
10000000
00010000
00200000
,
00301000
00020000
00030010
00000200
,
00001300
00000200
00000310
00020010
,
00031000
00020000
00030100
00020000
,
00031000
01000000
00100000
00000000
02000000
00000000
00000000
00000000
00000000
00000000
00000000
00000000
03200000
00000000
00000000
00000000
,
00000000
20300000
00000000
00020000
,
00000000
30030000
00100000
00001000
00010000
00010100
00000000
00001000
,
00100000
00000000
00110000
00000000
00000000
00000000
00000000
10000000
01000000
10000000
01000000
10000000
01000000
10000000
00100000
00000000
,
01000000
01010000
01000000
00010000
00100000
00101000
00000000
00100000
,
00001000
00000000
00011000
00000000
00000000
00000000
00000000
00000100
00000000
00001000
00000100
00001000
00000010
00001000
00000010
00000000
,
00001000
00001001
00000001
00000010
00000100
00001100
00000000
00001000
,
00000010
00000000
00000101
00000000
00000000
00000000
00000000
00000100
00000000
00000010
00001000
00000001
00001000
00000001
00001000
00000000
,
00000001
00001000
00000100
00010000
00001000
01001000
00000000
00010000
,
00100000
01100000
02000000
00000000
00000000
00000000
00200000
00000000
,
03300000
00000000
00000000
00000000
10010000
00000000
10000000
01000000
00100000
00000000
00010000
00000000
00100000
00000000
00001000
00010000
,
00000010
00000000
00000100
00000000
00000010
00000000
00010000
00001000
00100000
00000000
00001000
00000000
00010000
00000000
00100000
01000000
,
00010000
00000000
01000000
00000000
00001000
00000000
00010000
00000010
00000100
00000000
00000001
00000000
00001000
00000000
00000100
00000010
,
00000001
00000000
00000100
00000000
00000010
00000000
00010000
00001000
00010000
00000000
00001000
00000000
01000000
00000000
00100000
01000000
,
00010000
00000000
00011000
00000000
00001000
00000000
00010000
00000010
00000100
00000000
00000010
00001000
00000001
00000010
00000100
00001000
,
00000100
00010000
00001000
00000000
00010000
00000000
00001000
01000000
00100000
00000000
01000000
00010000
00100000
01000000
10000000
00100000
,
10000000
00010000
00100000
00000000
00202000
00000000
00000000
00000000
00300000
00000000
00000000
00000000
00020000
00000000
00000000
00000000
,
00030000
00200000
00300000
02000000
,
03000000
00020000
00000000
00000000
,
00000000
00000000
00000000
00000000
,
00000000
00033000
00000000
00000000
00000000
00000000
00000000
00000000
;

//--------------- pump-single - S17 ----------------
#NOTES:
     pump-single:
     S17:
     Hard:
     16:
     0.582964,0.803398,0.595109,0.64921,0.394163,528,448,77,84,0,36,0.582964,0.803398,0.595109,0.64921,0.394163,528,448,77,84,0,36:
00000
00000
00000
00000
,
00000
00000
00000
00000
,
00000
00000
00000
00000
,
00000
00000
00000
00000
,
00000
00000
00000
00000
,
00010
00000
00000
00000
00000
00000
00000
00000
00000
00000
00000
00000
00000
00000
00000
00000
00000
00000
00000
00000
00000
00000
00000
00000
00000
00000
00000
00000
00000
00000
00000
00000
00000
00000
00000
00000
00000
00000
00000
00000
00000
00000
00000
00000
00000
00000
00000
00000
01000
00000
00000
00000
00000
00000
00000
00000
00000
00000
00000
00000
00000
00000
00000
00000
00000
00000
00000
00000
00000
00000
00000
00000
00000
00000
00000
00000
00000
00000
00000
00000
00000
00000
00000
00000
00000
00000
00000
00000
00000
00000
00000
00000
00000
00000
00000
00000
00010
00000
00000
00000
00000
00000
00000
00000
00000
00000
00000
00000
00000
00000
00000
00000
00000
00000
00000
00000
00000
00000
00000
00000
00000
00000
00000
00000
00000
00000
00000
00000
00000
00000
00000
00000
00000
00000
00000
00000
00000
00000
00000
00000
00000
00000
00000
00000
00100
00000
00000
00000
00000
00000
00000
00000
00000
00000
00000
00000
00000
00000
00000
00000
00000
00000
00000
00000
00000
00000
00000
00000
00000
00000
00000
00000
00000
00000
00000
00000
00000
00000
00000
00000
00000
00000
00000
00000
00000
00000
00000
00000
00000
00000
00000
00010
,
00000
01000
00010
00100
,
00010
00000
00000
01000
00000
00000
00010
00000
00000
00100
00000
00100
,
00000
00000
00000
00000
,
00010
01000
00010
00100
00000
00010
01000
00001
,
00000
00000
00000
01000
00000
00100
01000
00010
01000
00100
00010
00000
10000
00000
10010
00000
,
10000
00001
10000
00100
01000
00010
01000
00001
,
00000
00000
10000
00001
00000
10000
00100
10000
00001
00100
00010
00000
10020
00000
10000
00000
,
20030
00001
00001
30001
00000
10000
00001
01000
,
00000
00000
00000
00010
00000
01000
00100
01000
00010
10000
00010
00000
00100
00000
00100
00000
,
00010
10000
00100
00000
01000
00000
00010
00000
01000
00001
00100
00000
00010
00000
01000
00000
,
01210
00000
00000
00000
00000
00000
00000
10300
,
10100
10000
10010
10010
10000
00100
01001
01001
,
00010
01000
00000
00100
01000
00010
10000
00010
00100
00000
01000
00000
00001
00000
01000
00000
,
00100
10000
01000
10000
00100
01000
00001
00010
,
00001
00100
00000
00100
00010
01000
00010
00100
00001
01000
00100
00000
00010
00000
10010
00000
,
01010
00000
01000
00010
00100
00000
01010
00000
00000
00000
00010
01000
00100
00000
01010
00000
,
00000
00000
01000
00010
00100
00000
01010
00000
00000
00000
00010
01000
00200
20300
00002
30003
,
00000
00000
00100
00001
10000
00000
10001
00000
00000
00000
00100
10000
00001
00000
10001
00000
,
00001
00100
00020
00000
01030
00100
20000
00000
30010
01000
00200
00000
01300
00010
01000
00010
,
00100
00000
00010
00000
01000
00100
00000
01000
00000
00000
00010
00000
00100
00001
00000
00010
,
00000
00000
00001
00000
01000
00010
00000
01000
00000
00000
01100
00000
01010
00000
01000
00100
,
00000
00000
01000
00000
00010
10000
00000
00100
00000
00000
10000
00000
00100
01000
00000
00010
,
00000
00100
00001
00000
00100
00010
00000
01000
00000
00000
00110
00000
20002
30003
02020
03030
,
00110
00000
00010
00000
01000
00100
00000
01000
00000
00000
01010
00000
02001
00000
00000
03001
,
00000
00000
01000
00000
00010
00100
00000
00010
00000
00000
01100
00000
01020
00000
10030
00100
,
00000
01000
00010
00000
00100
00001
00000
00010
00000
00001
00100
00000
00120
00000
00130
00001
,
00000
01000
00001
00000
01000
00010
00000
00100
00000
00010
01000
00000
00200
00000
00000
00000
,
02300
00010
00220
00330
03002
00100
20200
30300
,
02003
00010
00220
00330
03002
00100
20200
30303
,
00002
10000
20200
30300
02003
00100
00220
00330
,
03002
10000
20200
30300
02003
00100
00220
03330
,
01010
00000
00001
10000
00010
00000
01000
00010
10000
00000
00010
01000
00010
01000
01010
00000
,
00100
00000
01000
00010
10000
00000
00001
10000
00010
00000
10000
00001
10000
00000
10010
00000
,
10001
00000
00001
10000
00001
00000
01000
00010
01000
00000
00001
10000
00001
00000
01000
00010
,
00100
00000
00100
00000
00100
00000
00100
00000
00010
01000
00001
10000
00010
01000
00100
00000
,
10201
00300
00000
00000
00000
00000
00000
00000
00000
00000
00000
00000
02000
00000
00000
00000
,
00000
03002
00203
00302
,
00023
00032
00000
00023
,
00032
02003
00000
03020
,
00000
02030
00000
03002
,
00000
00203
00000
00320
,
00000
02030
00000
03200
,
00000
20300
00000
30002
,
00000
02003
00000
03020
,
00000
00130
00010
00100
,
00010
01000
00100
01000
,
00100
10000
00100
10000
,
00100
10000
00010
10000
,
00010
00000
00100
00000
00010
00200
00010
00000
,
00310
00100
00001
00100
,
00001
10000
00010
00000
00200
00000
00000
00000
00000
00000
00000
00000
00000
00000
00000
00000
,
00000
00000
00000
00000
,
00000
00000
00310
10000
10100
11000
00000
10000
,
00110
00000
00110
00000
00000
00000
00010
01000
00000
01000
00010
00100
00001
10000
00010
00000
,
00110
00101
00100
00010
00110
00101
00000
00010
,
10100
00000
10100
00000
00000
00000
10000
00001
00000
00001
10000
00100
01000
00010
10000
00000
,
10100
10200
01300
00010
00110
01010
00000
01000
,
01100
00000
01100
00000
00000
00000
00010
10000
00000
01000
00010
00100
00001
01000
00001
00000
,
01000
01010
00200
00000
00310
01000
00200
00000
,
01300
00010
00200
00000
00000
00000
00002
00000
,
00303
00000
00002
01100
01100
00000
20003
00110
,
00110
00000
30002
00110
00110
00000
20003
00110
,
00110
00000
00000
30000
00020
00000
10100
00000
10100
00000
00000
00000
20030
00000
00110
00000
,
00110
00000
30002
10100
10100
00000
02003
00110
,
03110
00000
10001
00000
00101
00000
00001
10000
00100
00000
00100
00000
10001
00000
10000
00000
,
00001
10000
00200
00000
10300
00000
00001
00000
01000
00000
00010
10000
00001
00000
00100
00000
,
00001
10000
00200
00000
02320
00000
00000
00000
00030
00000
00000
00000
00002
00000
00000
00000
,
00003
00200
00300
00020
,
03030
10101
00000
00000
;
