#TITLE:Zenius -I- vanisher;
#SUBTITLE:;
#ARTIST:Tatsh;
#MUSIC:Zenius -I- vanisher.ogg;
#BANNER:;
#BACKGROUND:Zenius -I- vanisher-bg.png;
#LYRICSPATH:;
#CDTITLE:;
#SAMPLESTART:84.397;
#SAMPLELENGTH:11.992;
#OFFSET:-0.397;
#BPMS:0.000000=160.000000;
#STOPS:;
#TIMESIGNATURES:;
#BGCHANGES:;
#FGCHANGES:;
#ATTACKS:;
#SPEEDS:;
#SCROLLS:;

//---------------dance-single - Pandemonium X---------------
#NOTES:
     dance-single:
     Pandemonium X:
     Beginner:
     3:
     0,0,0,0,0:
// measure 0
0000
0000
0000
0000
,  // measure 1
0000
0000
0000
0000
,  // measure 2
0001
0000
0000
0000
,  // measure 3
0000
0000
0000
0000
,  // measure 4
1000
0000
0000
0000
,  // measure 5
0000
0000
0000
0000
,  // measure 6
0010
0000
0000
0000
,  // measure 7
0000
0000
0000
0000
,  // measure 8
1000
0000
0000
0000
,  // measure 9
0000
0000
0000
0000
,  // measure 10
0000
0000
0000
0000
,  // measure 11
0001
1000
0010
0000
,  // measure 12
0000
0000
0000
0000
,  // measure 13
0000
0000
1000
0000
,  // measure 14
0000
0000
0001
0000
,  // measure 15
0000
0000
0010
0000
,  // measure 16
0000
0000
0100
0000
,  // measure 17
0000
0000
1000
0000
,  // measure 18
0000
0000
0001
0000
,  // measure 19
0000
0000
0100
0000
,  // measure 20
0000
0000
0010
0000
,  // measure 21
0000
0000
0000
0100
,  // measure 22
0000
0100
0000
0100
,  // measure 23
0000
0100
0000
0010
,  // measure 24
0000
0010
0000
0010
,  // measure 25
0000
0010
0000
1000
,  // measure 26
0000
1000
0000
1000
,  // measure 27
0000
1000
0000
0001
,  // measure 28
0000
0001
0001
0000
,  // measure 29
1000
0000
0110
0000
,  // measure 30
0000
0000
0001
0000
,  // measure 31
0000
0000
1000
0000
,  // measure 32
0000
0000
0100
0000
,  // measure 33
0000
0000
1000
0000
,  // measure 34
0000
0000
0010
0000
,  // measure 35
0100
0000
0010
0000
,  // measure 36
0000
0000
0100
0000
,  // measure 37
0001
0000
1001
0000
,  // measure 38
2000
0000
3000
0000
,  // measure 39
0002
0000
0003
0020
,  // measure 40
0000
0000
0030
0000
,  // measure 41
0100
0000
0010
0200
,  // measure 42
0000
0000
0300
0000
,  // measure 43
1000
0000
0001
0000
,  // measure 44
1000
0000
0010
0000
,  // measure 45
0100
0000
0001
0000
,  // measure 46
0000
0000
1000
0000
,  // measure 47
0000
0000
0100
0000
,  // measure 48
0000
0000
0010
0000
,  // measure 49
0000
0000
0001
0000
,  // measure 50
0000
0000
1000
0000
,  // measure 51
0000
0000
0010
0000
,  // measure 52
0000
0000
0100
0000
,  // measure 53
0000
0000
0001
0000
,  // measure 54
1000
0000
0001
0000
,  // measure 55
1000
0000
0000
0000
,  // measure 56
0110
0000
0000
0000
,  // measure 57
0000
0000
0001
0000
,  // measure 58
1000
0000
0000
0000
0001
0000
0000
0001
,  // measure 59
0000
0000
0000
0000
,  // measure 60
1001
0000
0000
0000
,  // measure 61
1000
0000
0010
0000
,  // measure 62
0010
0000
0100
0000
,  // measure 63
0100
0000
0001
0000
,  // measure 64
2000
0000
0000
3000
0000
0000
0000
0000
,  // measure 65
0000
0000
0001
1000
,  // measure 66
0002
0000
0000
0003
0000
0000
0000
0000
,  // measure 67
0000
0000
1000
0001
,  // measure 68
1000
0000
0000
0000
,  // measure 69
0010
0000
0100
0000
,  // measure 70
0010
0000
0000
0100
,  // measure 71
0100
0000
0001
0000
,  // measure 72
1001
0000
0000
0000
,  // measure 73
1000
0000
0000
0000
,  // measure 74
0001
0000
0000
0000
,  // measure 75
0100
0000
0000
0000
,  // measure 76
0010
0000
0000
0000
,  // measure 77
0100
0000
0000
0000
,  // measure 78
0001
0000
0000
0000
,  // measure 79
1000
0000
0000
0000
,  // measure 80
0001
0000
0000
0000
,  // measure 81
0000
0000
0000
0000
,  // measure 82
0110
0000
0000
0000
;

//---------------dance-single - Pandemonium X---------------
#NOTES:
     dance-single:
     Pandemonium X:
     Easy:
     6:
     0,0,0,0,0:
// measure 0
0000
0000
0000
0000
,  // measure 1
0000
0000
0000
0000
,  // measure 2
0001
0000
0000
0000
,  // measure 3
0000
0000
0000
0000
,  // measure 4
1000
0000
0000
0000
,  // measure 5
0000
0000
0000
0000
,  // measure 6
0010
0000
0000
0000
,  // measure 7
0000
0000
0000
0000
,  // measure 8
1000
0000
0000
0000
,  // measure 9
0000
0000
0000
0000
,  // measure 10
0000
0000
0000
0000
,  // measure 11
0001
1000
0010
0000
,  // measure 12
0000
0000
0000
0000
,  // measure 13
0000
0000
0100
0001
,  // measure 14
0100
0000
0010
1000
,  // measure 15
0010
0000
1000
0100
,  // measure 16
1000
0000
0001
0010
,  // measure 17
0001
0000
1000
0001
,  // measure 18
0100
0000
0010
1000
,  // measure 19
0100
0000
0010
0001
,  // measure 20
0100
0000
0010
0100
,  // measure 21
0001
0000
0000
1000
,  // measure 22
0000
0001
0000
0100
,  // measure 23
0000
0010
0000
1000
,  // measure 24
0000
0001
0000
0010
,  // measure 25
0000
0100
0000
0010
,  // measure 26
0000
0001
0000
1000
,  // measure 27
0000
0010
0000
0100
,  // measure 28
0000
0010
0100
0100
,  // measure 29
0001
0100
0010
1000
0001
0000
1000
0000
,  // measure 30
0100
0000
0000
0000
1000
0000
0000
0010
,  // measure 31
0000
0100
0010
0000
,  // measure 32
0100
0000
0000
0000
0001
0000
0000
0010
,  // measure 33
0000
0001
1000
0000
,  // measure 34
0000
0001
0000
0000
0100
0000
0000
0000
,  // measure 35
0010
0100
0001
0000
,  // measure 36
1000
0100
0010
0100
,  // measure 37
1000
0001
1001
0000
,  // measure 38
0001
0100
0101
0000
,  // measure 39
1000
0100
1100
0000
,  // measure 40
1000
0001
0011
0000
,  // measure 41
0010
0010
0011
0001
,  // measure 42
1000
0010
1010
0000
,  // measure 43
1000
0001
0100
0000
,  // measure 44
0010
0100
0001
0000
,  // measure 45
1001
0000
1000
0000
,  // measure 46
0001
0000
1000
0001
,  // measure 47
0100
0001
0010
0000
,  // measure 48
0100
0000
1000
0100
,  // measure 49
1000
0001
0100
0000
,  // measure 50
0001
0000
0010
0001
,  // measure 51
0100
0010
1000
1000
,  // measure 52
1000
0000
0001
0001
,  // measure 53
0001
0000
0110
0000
,  // measure 54
1001
0000
0100
0001
,  // measure 55
1000
0000
0010
0000
1001
0000
0000
0001
,  // measure 56
0001
1000
0100
0010
,  // measure 57
0000
0000
0100
1000
,  // measure 58
0010
0000
0000
0000
0100
0000
0000
0001
,  // measure 59
0000
0000
1000
0001
,  // measure 60
0100
0000
0000
0001
,  // measure 61
0010
0000
0100
1000
,  // measure 62
0001
0000
1000
0000
,  // measure 63
0010
0000
0100
0000
,  // measure 64
0001
0100
0010
1000
0000
0000
0000
0000
,  // measure 65
0000
0000
0001
1000
,  // measure 66
0001
0100
0010
1000
0000
0000
0000
0000
,  // measure 67
0000
0000
0001
1000
,  // measure 68
0001
0000
0000
1000
0000
1000
0000
0000
,  // measure 69
0100
0000
0010
0000
,  // measure 70
0100
0000
0000
0010
,  // measure 71
0001
0000
1000
0000
,  // measure 72
1001
0000
0001
0000
,  // measure 73
0200
0300
0010
0000
,  // measure 74
1000
0000
0001
0000
,  // measure 75
1000
0000
0100
0010
,  // measure 76
0001
0000
0010
0000
,  // measure 77
0001
1000
0001
0000
,  // measure 78
1000
0000
0001
0000
,  // measure 79
0110
0000
0001
0000
,  // measure 80
2001
0000
0000
0000
,  // measure 81
0000
0000
0000
0000
,  // measure 82
3010
0000
0000
0000
;

//---------------dance-single - Pandemonium X---------------
#NOTES:
     dance-single:
     Pandemonium X:
     Medium:
     11:
     0,0,0,0,0:
// measure 0
0000
0000
0000
0000
,  // measure 1
0000
0000
0000
0000
,  // measure 2
0001
0000
0000
0000
,  // measure 3
0000
0000
0000
0000
,  // measure 4
1000
0000
0000
0000
,  // measure 5
0000
0000
0000
0000
,  // measure 6
0010
0000
0000
0000
,  // measure 7
0000
0000
0000
0000
,  // measure 8
1000
0000
0000
0000
,  // measure 9
0000
0000
0000
0000
,  // measure 10
0000
0000
0000
0000
,  // measure 11
0001
1000
0010
0000
,  // measure 12
0110
0000
0000
0000
,  // measure 13
0000
0000
1000
0001
,  // measure 14
0001
0100
0000
0000
0010
0000
1000
0000
,  // measure 15
1000
0010
0000
0000
0100
0000
0001
0000
,  // measure 16
0001
0010
0000
0000
0100
0000
1000
0000
,  // measure 17
1000
0001
1000
0000
0001
0000
0100
0000
,  // measure 18
0001
0010
0100
0010
,  // measure 19
0001
1000
0010
0100
,  // measure 20
0010
1000
0001
0010
,  // measure 21
0001
0100
0010
1010
,  // measure 22
1000
1100
0100
0110
,  // measure 23
0010
0011
0001
0101
,  // measure 24
0100
0110
0010
1010
,  // measure 25
1000
1001
0001
0011
,  // measure 26
0010
0110
0100
1100
,  // measure 27
1000
0000
0000
0000
1010
0000
0000
0000
0010
0000
0100
0000
0000
0100
0000
0000
,  // measure 28
0010
0000
0000
0010
0000
0000
0100
0000
0001
0000
0000
0001
0000
0000
0001
0000
,  // measure 29
1000
0100
0010
0001
1000
0010
1000
0001
,  // measure 30
0010
0100
0000
0100
0010
0000
0010
0001
,  // measure 31
0000
0001
1000
0010
0000
0000
0100
0010
,  // measure 32
1000
0001
0000
0001
1000
0000
1000
0100
,  // measure 33
0000
0100
0010
0001
0010
0000
0100
0000
,  // measure 34
1000
0001
0010
0100
1000
0000
0000
0100
,  // measure 35
0100
0000
0000
1000
0000
0000
0010
0000
0100
0000
0000
0000
0010
0000
0100
0000
,  // measure 36
0001
1000
0100
0010
0011
0000
0001
0010
,  // measure 37
0100
0000
1000
0000
0010
1000
0010
1000
0001
0000
0000
0000
0000
0000
1000
0000
,  // measure 38
0100
0010
0000
0010
0001
0000
1000
0000
0010
0000
0000
0000
0000
0000
0100
0010
,  // measure 39
0100
0000
0001
0000
0010
0000
0100
0000
1000
0000
0000
0000
0000
0000
0010
0100
,  // measure 40
0010
0100
0001
1000
0100
0000
0000
0100
,  // measure 41
1000
0000
0000
1000
0000
0000
1000
0000
0001
0000
0000
0000
1000
0010
1000
0010
,  // measure 42
1000
0100
0010
0001
0010
0000
0100
0010
,  // measure 43
0001
0000
0000
1000
0000
0000
0001
0000
0100
0000
0000
0000
0100
0000
0010
0000
,  // measure 44
1000
0100
0010
0001
1000
0000
0000
0000
,  // measure 45
0110
0000
0000
0000
0001
0100
0001
0000
,  // measure 46
1000
0010
1000
0000
0001
0100
0001
1000
,  // measure 47
0010
1000
0001
0001
1000
0100
1000
0000
,  // measure 48
0001
0010
0001
0000
1000
0100
1000
0001
,  // measure 49
0010
0100
0010
0010
0001
0100
0010
0000
,  // measure 50
0100
0001
1000
0000
0001
0010
0100
0010
,  // measure 51
0001
0100
0001
0001
1000
0100
0001
0100
,  // measure 52
1000
0001
1000
0000
0001
0100
1000
0100
,  // measure 53
0001
1000
0001
0000
0001
0100
1000
0000
,  // measure 54
1000
0100
0001
0000
0001
0010
1000
0010
,  // measure 55
0001
0000
0010
0000
0100
0000
1000
0000
1100
0000
0000
0000
0000
0000
0001
1000
,  // measure 56
0001
0000
1000
0100
0100
1000
0010
0100
,  // measure 57
0000
0000
0000
0000
0000
0000
0010
0000
0100
0000
0000
0100
0000
0000
0001
0000
,  // measure 58
0010
0000
0100
0010
0011
0000
0001
0101
,  // measure 59
0000
0000
0000
0000
0000
0000
0000
0000
0100
0000
0000
0100
0000
0000
0100
0000
,  // measure 60
0101
0000
0000
0000
0000
0100
0010
1000
,  // measure 61
0100
0000
0000
0000
0000
0000
0000
0000
0010
0000
0000
0001
0000
0000
0100
0000
,  // measure 62
0100
0000
0000
0000
0010
0100
0000
0100
,  // measure 63
0002
0000
2003
0000
,  // measure 64
3001
0100
0010
1010
0000
0000
0000
0000
,  // measure 65
0000
0000
0000
1000
0010
0010
1000
0010
,  // measure 66
1000
0010
0100
0101
0000
0000
0000
0000
,  // measure 67
0000
0000
0000
0001
0100
0100
0010
1000
,  // measure 68
1010
0000
1000
0100
0000
0011
0000
0001
,  // measure 69
1001
0000
0000
0000
0000
0000
0000
0000
0110
0000
0000
1001
0000
0000
0001
1000
,  // measure 70
0001
0000
1000
0100
0010
0001
0010
0100
,  // measure 71
1100
0000
0011
0000
,  // measure 72
1001
0000
0000
0000
0001
1000
0000
0010
,  // measure 73
0000
0100
0000
0001
0010
0001
1000
0010
,  // measure 74
0100
0000
0000
0010
0100
0001
0000
0010
,  // measure 75
0100
0000
0010
0000
0001
0000
1000
0100
,  // measure 76
0010
0000
0100
1000
0000
1000
0010
0000
,  // measure 77
0100
1000
0100
0001
1000
0000
0000
0000
,  // measure 78
0001
0000
0000
0001
1000
0100
0000
0010
,  // measure 79
0001
0000
0000
1000
1001
0000
0000
0001
,  // measure 80
1001
1000
1000
1000
,  // measure 81
1000
0000
1000
0000
1000
0000
1000
1000
,  // measure 82
1001
0000
0000
0000
;

//---------------dance-single - Pandemonium X---------------
#NOTES:
     dance-single:
     Pandemonium X:
     Hard:
     14:
     0,0,0,0,0:
// measure 0
0000
0000
0000
0000
,  // measure 1
0000
0000
0000
0000
,  // measure 2
0001
0000
0000
0001
0000
0000
0001
0000
,  // measure 3
0000
0000
0000
0000
,  // measure 4
1000
0000
0000
1000
0000
0000
1000
0000
,  // measure 5
0000
0000
0000
0000
,  // measure 6
0010
0000
0000
0010
0000
0000
0010
0000
,  // measure 7
0000
0000
0000
0000
,  // measure 8
1000
0000
0000
1000
0000
0000
1000
0000
,  // measure 9
0000
0000
0000
0000
,  // measure 10
0000
0000
0000
0000
,  // measure 11
0001
1000
0220
0000
,  // measure 12
0330
0000
0000
0000
,  // measure 13
0000
0000
0000
0000
0000
0000
0000
0000
1000
0000
0000
0000
0001
0000
0000
0001
,  // measure 14
1000
0000
0001
0000
0000
0000
0100
0000
0001
0000
0000
0000
1000
0000
0000
0001
,  // measure 15
1000
0000
0001
0000
0000
0000
0010
0000
0001
0000
0000
0000
1000
0000
0000
0001
,  // measure 16
1000
0000
0001
0000
0000
0000
0100
0000
0001
0000
0000
0000
1000
0000
0000
0001
,  // measure 17
1000
0001
0100
0000
0010
1000
0100
0000
,  // measure 18
0010
0100
1000
0000
0001
0010
0100
0000
,  // measure 19
0010
0001
0100
0000
0010
0100
0001
0000
,  // measure 20
1000
0100
0010
0000
0100
1000
0010
0000
,  // measure 21
0100
0000
1001
0000
0001
0100
0101
0000
,  // measure 22
1000
0100
1100
0000
0001
0100
0101
0000
,  // measure 23
1000
0100
1100
0000
1000
0010
1010
0000
,  // measure 24
0001
0010
0011
0000
1000
0010
1010
0000
,  // measure 25
0001
0010
0011
0000
0001
0100
0110
0000
,  // measure 26
0010
1000
1100
0000
0100
0010
0110
0000
,  // measure 27
0010
0000
0001
0000
0101
0000
0000
0000
0000
0000
0001
0000
0000
0001
0000
0000
,  // measure 28
1000
0000
0000
1000
0000
0000
0010
0000
0001
0000
0000
0010
0000
0000
0100
0000
,  // measure 29
0001
0010
1000
0010
0001
0010
0100
0010
,  // measure 30
0001
0000
0000
0000
0001
0000
0000
0000
0000
0000
0000
0000
1000
0000
0000
0000
0020
0030
0000
0000
0000
0000
0000
0000
0020
0030
0000
0000
0001
0000
0000
0000
,  // measure 31
0000
1000
0001
1000
0100
0100
0010
0100
,  // measure 32
1000
0000
0000
0000
0001
0000
0000
0000
0000
0000
0000
0000
1000
0000
0000
0000
0200
0300
0000
0000
0000
0000
0000
0000
0200
0300
0000
0000
0001
0000
0000
0000
,  // measure 33
0000
0000
0000
0000
0001
0000
0000
0000
1000
0000
0000
0000
0001
0000
0000
0000
0101
0000
0000
0000
0000
0000
0000
0000
0001
0000
0000
0000
0020
0030
0000
0000
,  // measure 34
0000
0000
0000
0000
0020
0030
0000
0000
1000
0000
0000
0000
0001
0000
0000
0000
1001
0000
0000
0000
0000
0000
0000
0000
0000
0000
0000
0000
1000
0000
0000
0000
,  // measure 35
0001
0000
0000
0001
0000
0000
1000
0000
1100
0000
0100
0000
1000
0000
0100
0000
,  // measure 36
0010
0000
0001
0000
1000
0000
0001
0000
1001
0000
0000
0000
0001
0100
0001
1000
,  // measure 37
0100
1000
0001
0100
0001
1000
0001
1000
0001
0000
0000
0000
0000
0100
0010
1000
,  // measure 38
0001
0010
0000
0100
1000
0000
1000
0001
0010
0000
0000
0000
0100
0010
0001
1000
,  // measure 39
0010
0000
1000
0000
0001
0000
0010
0000
0100
0000
0000
0000
0010
0001
0100
0010
,  // measure 40
0100
0001
1000
0100
0010
0000
0000
0100
,  // measure 41
0010
0000
0000
0010
0000
0000
0100
0000
1000
0000
0000
0000
0100
0010
0001
0100
,  // measure 42
0010
0100
0001
1000
0100
0000
0010
0100
,  // measure 43
1000
0000
0000
0001
0000
0000
1000
0000
0010
0000
0000
0000
1000
0000
0010
0000
,  // measure 44
0100
0000
0000
0000
0001
0000
0000
0000
0010
0000
0000
0000
0100
0000
0000
0000
1100
0000
0000
0000
0000
0000
0000
0000
0000
0000
0000
0000
0000
0000
0000
0001
,  // measure 45
1000
0000
0000
0000
0001
1000
0100
0000
,  // measure 46
0010
0001
0100
0000
0010
1000
0001
1000
,  // measure 47
0100
1000
0100
0000
0010
0000
0001
0000
1000
0000
0001
0000
0100
0000
0000
0000
,  // measure 48
0010
1000
0100
0000
0010
0100
1000
0001
,  // measure 49
0100
0001
0100
0000
0001
0000
0001
0000
1000
0100
1000
0000
0010
0000
0000
0000
,  // measure 50
0100
0001
0100
0000
0010
0000
0000
0000
0100
0010
0100
0000
0001
0000
0010
0000
,  // measure 51
0100
0010
0100
0000
1000
0000
0001
0000
1000
0010
1000
0000
0010
0000
0100
0000
,  // measure 52
0001
0010
0001
0000
0010
0000
0100
0000
1000
0001
1000
0000
0001
0000
0100
0000
,  // measure 53
0010
1000
0010
0000
0100
0000
0001
0000
1000
0100
1000
0100
1000
0100
1000
0000
,  // measure 54
0001
0100
0001
0100
0001
0100
0001
0000
1000
0010
1000
0010
1000
0010
1000
0010
,  // measure 55
0100
0010
0100
0001
0010
0001
1000
0010
0200
0000
0000
0000
0000
0000
0310
0000
,  // measure 56
1001
0000
1000
0100
1000
1000
0010
1000
,  // measure 57
0000
0000
0010
0000
0100
0000
0001
0000
0010
0000
0000
0100
0000
0000
0010
0000
,  // measure 58
0001
0000
0010
0100
1100
0000
1000
1010
,  // measure 59
0000
0000
1000
0000
0001
0000
0010
0000
0100
0000
0000
0100
0000
0000
1000
0000
,  // measure 60
1001
0000
0001
0100
0000
0100
0001
1000
,  // measure 61
1100
0000
0000
0000
1000
0000
0000
0000
0010
0000
0000
0010
0000
0000
0100
0000
,  // measure 62
0110
0000
0010
0100
0001
1000
0000
1000
,  // measure 63
0100
0000
0100
0000
0010
0000
0010
0000
0001
0000
1000
0001
1000
0000
0001
1000
,  // measure 64
0001
0000
0000
0000
0020
0030
0000
0000
0020
0030
0000
0000
1000
0000
0000
0000
0001
0000
0000
0000
0000
0000
0000
0000
1000
0000
0000
0000
0000
0000
0000
0000
,  // measure 65
1001
0000
0000
0001
1000
1000
0001
1000
,  // measure 66
0001
0000
0000
0000
0200
0300
0000
0000
0200
0300
0000
0000
1000
0000
0000
0000
0001
0000
0000
0000
0000
0000
0000
0000
1000
0000
0000
0000
0000
0000
0000
0000
,  // measure 67
1001
0000
0000
0000
0000
0000
0000
0000
0000
0000
0000
0000
1000
0000
0000
0000
0020
0030
0000
0000
0020
0030
0000
0000
0001
0000
0000
0000
1000
0000
0000
0000
,  // measure 68
0001
0000
0000
0000
0100
0000
0101
0000
0000
0000
0011
0000
0000
0000
1000
0001
,  // measure 69
1000
0000
0000
0000
0000
0000
0000
0000
1100
0000
0000
1001
0000
0000
0110
0000
,  // measure 70
0110
0000
0000
0000
0000
0001
0010
0100
,  // measure 71
1100
0000
0101
0000
,  // measure 72
1001
0000
0000
0000
0001
0100
0000
0010
,  // measure 73
0200
0001
0300
1000
0100
0010
0100
1000
,  // measure 74
0001
0000
0000
1000
0010
0100
0000
0010
,  // measure 75
1000
0000
0001
0000
1000
0000
0100
0010
,  // measure 76
0100
0000
0000
0010
0000
0000
0001
0000
,  // measure 77
0100
0001
1000
0000
0001
0000
0000
0000
,  // measure 78
0010
0000
0000
0000
0000
0000
0100
0000
1000
0000
0100
0000
0000
0000
0000
1000
,  // measure 79
0010
0000
0000
0100
0100
0000
0000
0000
,  // measure 80
1002
1000
1000
1000
,  // measure 81
1000
1000
1000
1003
,  // measure 82
1001
0000
0000
0000
;
