#TITLE:Wicked Plastik;
#SUBTITLE:;
#ARTIST:nc ft. Electric Touch;
#MUSIC:Wicked Plastik.ogg;
#BANNER:;
#BACKGROUND:;
#LYRICSPATH:;
#CDTITLE:;
#SAMPLESTART:70.077;
#SAMPLELENGTH:13.905;
#OFFSET:1.095;
#BPMS:0.000000=145.000000;
#STOPS:;
#TIMESIGNATURES:;
#BGCHANGES:;
#FGCHANGES:;
#ATTACKS:;
#SPEEDS:;
#SCROLLS:;

//---------------dance-single - Pandemonium X---------------
#NOTES:
     dance-single:
     Pandemonium X:
     Beginner:
     5:
     0,0,0,0,0:
// measure 0
0000
0000
0000
0000
,  // measure 1
0000
0000
0000
0000
,  // measure 2
0000
0000
0000
0000
,  // measure 3
0001
0000
0001
0000
,  // measure 4
0001
0000
0001
0000
,  // measure 5
1000
0000
1000
0000
,  // measure 6
1000
0000
1000
0000
,  // measure 7
0010
0000
0010
0000
,  // measure 8
0010
0000
0010
0000
,  // measure 9
0100
0000
0100
0000
,  // measure 10
0000
0000
0000
0000
,  // measure 11
0001
1000
0000
0100
,  // measure 12
0000
0010
0000
0001
,  // measure 13
0000
0100
0000
0010
,  // measure 14
0000
1000
0000
0001
,  // measure 15
1000
0100
0000
1000
,  // measure 16
0000
0010
0000
0100
,  // measure 17
0000
0001
0000
0010
,  // measure 18
0000
0100
0000
0010
,  // measure 19
0001
0100
0001
0000
,  // measure 20
1000
0010
1000
0000
,  // measure 21
0100
0010
0100
0000
,  // measure 22
1000
0001
1000
0000
,  // measure 23
0001
0010
0001
0000
,  // measure 24
0010
0100
0010
0000
,  // measure 25
0100
1000
0100
0000
,  // measure 26
1000
0010
1000
0000
,  // measure 27
0101
0000
0000
0000
0000
0000
0000
0001
,  // measure 28
0000
0000
0000
0000
,  // measure 29
0000
0000
0000
0000
0000
0000
0000
1000
,  // measure 30
0000
0000
0000
0000
,  // measure 31
0000
0000
0000
0000
0000
0000
0000
0010
,  // measure 32
0000
0000
0000
0000
,  // measure 33
0000
0000
0000
0000
0000
0000
0000
0100
,  // measure 34
0000
0000
0000
0000
,  // measure 35
1001
0000
0000
0000
,  // measure 36
1001
0000
0000
0000
,  // measure 37
1001
0000
0000
0000
,  // measure 38
1001
0000
0000
0000
,  // measure 39
1001
0000
1001
0000
,  // measure 40
1001
0000
1001
0000
,  // measure 41
1001
1001
1001
1001
,  // measure 42
0000
0000
0000
0000
,  // measure 43
1000
0000
0001
0000
,  // measure 44
0010
0000
0100
0000
,  // measure 45
1000
0000
0100
0000
,  // measure 46
1000
0000
0010
0100
,  // measure 47
0010
0000
0100
0000
,  // measure 48
0001
0000
0010
0000
,  // measure 49
0001
0000
1000
0000
,  // measure 50
0100
0000
0000
0000
,  // measure 51
0010
0000
0100
0000
,  // measure 52
1000
0000
0001
0100
,  // measure 53
0001
0000
0100
0000
,  // measure 54
0010
0000
1000
0001
,  // measure 55
0010
0000
0100
0000
,  // measure 56
0010
0000
0001
0000
,  // measure 57
1000
0000
0010
0000
,  // measure 58
0100
0000
0000
0110
,  // measure 59
1000
0001
0010
0000
,  // measure 60
0001
1000
0010
0000
,  // measure 61
1000
0001
0100
0000
,  // measure 62
0001
1000
0100
0000
,  // measure 63
0010
0100
1000
0000
,  // measure 64
0100
0010
0001
0000
,  // measure 65
1000
0001
0100
0000
,  // measure 66
0010
1000
0001
0000
,  // measure 67
0110
0000
0000
0000
;

//---------------dance-single - Pandemonium X---------------
#NOTES:
     dance-single:
     Pandemonium X:
     Easy:
     7:
     0,0,0,0,0:
// measure 0
0000
0000
0000
0000
,  // measure 1
0000
0000
0000
0000
,  // measure 2
0000
0000
0000
0000
,  // measure 3
0001
1000
0001
0001
,  // measure 4
1000
0001
1000
1000
,  // measure 5
0010
0100
0010
0010
,  // measure 6
0100
0010
0100
0100
,  // measure 7
0001
0010
0100
0100
,  // measure 8
0010
0001
1000
1000
,  // measure 9
0100
0010
0100
0100
,  // measure 10
0000
0000
0000
0000
0000
0000
0000
2000
,  // measure 11
3010
0100
0001
0010
,  // measure 12
0001
0000
1000
0200
0310
0000
0001
0000
,  // measure 13
0100
0002
1003
0000
0100
0000
1000
0000
,  // measure 14
0001
0000
0100
0000
0001
0000
0010
0200
,  // measure 15
1300
0010
0100
0001
,  // measure 16
0010
0000
0001
2000
3010
0000
0100
0000
,  // measure 17
0001
0020
0031
0000
1000
0000
0001
0000
,  // measure 18
0100
0000
0001
0000
0010
0000
0200
2300
,  // measure 19
3010
0100
1000
0100
,  // measure 20
0001
0010
1000
0010
,  // measure 21
0100
0001
0100
1000
,  // measure 22
0010
0000
0001
0000
0010
0000
0100
0001
,  // measure 23
1000
0100
0001
0100
,  // measure 24
1000
0010
0100
1000
,  // measure 25
0100
0001
0010
0001
,  // measure 26
1000
0100
0010
0001
,  // measure 27
1001
0000
0000
0000
0000
0000
0000
0020
,  // measure 28
0000
0000
0030
0000
,  // measure 29
0000
0000
0000
0000
0000
0000
0000
0200
,  // measure 30
0000
0000
0300
0000
,  // measure 31
1001
0000
0000
0000
1000
0000
0000
0200
,  // measure 32
0000
0000
0310
0000
,  // measure 33
0001
0000
0000
0000
1000
0000
0000
0020
,  // measure 34
0000
0000
0030
0101
,  // measure 35
1001
0000
0000
0000
,  // measure 36
0110
0000
0000
0000
,  // measure 37
1001
0000
0000
0000
,  // measure 38
0110
0000
0000
0000
,  // measure 39
1001
0000
0110
0000
,  // measure 40
1001
0000
0110
0000
,  // measure 41
1001
1001
0110
0110
,  // measure 42
2002
0000
0000
3003
,  // measure 43
0101
0001
0010
0001
,  // measure 44
1000
0000
0100
0000
0010
0000
0100
1000
,  // measure 45
0001
0100
0001
0010
,  // measure 46
0001
0000
1000
0000
0100
0000
0010
0100
,  // measure 47
1000
0001
0100
0010
,  // measure 48
1000
0000
0001
0000
0010
0000
0100
0010
,  // measure 49
0001
0010
0001
0100
,  // measure 50
0020
0000
0030
0000
0000
0000
1000
0001
,  // measure 51
0010
0100
1000
0100
,  // measure 52
1000
0000
0001
0000
0100
0000
0010
1000
,  // measure 53
0100
0010
0100
1000
,  // measure 54
0001
0000
0010
0000
0001
0000
0100
0001
,  // measure 55
1000
0100
0010
0100
,  // measure 56
1000
0000
0001
0000
0100
0000
0010
0100
,  // measure 57
0001
0000
0000
0000
1000
0000
0000
0000
0100
0000
0000
0000
0010
0000
0000
0100
,  // measure 58
0000
0000
0100
0000
0000
0100
0000
0000
0100
0000
0000
0000
0020
0000
0000
0000
,  // measure 59
0031
0100
0010
1000
,  // measure 60
0100
0000
0010
0000
0100
0000
1000
0001
,  // measure 61
0100
1000
0100
0001
,  // measure 62
0010
1000
0010
0000
,  // measure 63
0001
0010
1000
0010
,  // measure 64
0100
0000
0010
0000
0001
0000
0100
0001
,  // measure 65
1000
0000
0100
0000
0010
0000
0001
0010
,  // measure 66
0100
0000
0010
0000
0001
0000
1000
0010
,  // measure 67
0200
0000
0000
0300
0000
0000
0000
0000
;

//---------------dance-single - Pandemonium X---------------
#NOTES:
     dance-single:
     Pandemonium X:
     Medium:
     11:
     0,0,0,0,0:
// measure 0
0000
0000
0000
0000
,  // measure 1
0000
0000
0000
0000
,  // measure 2
0000
0000
0000
0000
,  // measure 3
0001
0001
1000
1000
,  // measure 4
0010
0000
0010
0000
0100
0000
0100
0010
,  // measure 5
1000
1000
0001
0001
,  // measure 6
0010
0000
0010
0000
0100
0000
0100
1000
,  // measure 7
0001
1000
0001
0100
,  // measure 8
0001
0000
0010
0000
0100
0000
0010
0001
,  // measure 9
1000
0010
1000
0001
,  // measure 10
0200
0000
0000
0000
0000
0000
0000
0000
0000
0000
0000
0000
0000
0300
0001
1000
,  // measure 11
0100
0010
0001
0000
0010
0000
0001
0000
,  // measure 12
1000
0010
1000
0002
0013
0100
1000
0000
,  // measure 13
1000
0020
1030
0000
0001
0000
0010
0000
,  // measure 14
0100
0000
0000
0000
1000
0000
0000
0000
0100
0000
0010
0000
0100
0000
0010
0001
,  // measure 15
0100
0010
0100
0000
0010
0000
0100
0000
,  // measure 16
0010
0100
0001
2000
3100
0010
0001
0000
,  // measure 17
0010
0200
1300
0000
0010
0000
0100
0000
,  // measure 18
0010
0000
0100
0000
0001
0000
2000
3002
,  // measure 19
1003
0100
0001
0100
,  // measure 20
1000
0000
0100
0000
0001
0000
0010
1000
,  // measure 21
0010
0000
0001
0000
0010
0000
0100
1000
,  // measure 22
0100
0000
0000
0000
1000
0000
0000
0000
0010
0000
0000
0000
0100
0000
0001
0010
,  // measure 23
0100
1000
0001
0000
1000
0001
0100
0000
,  // measure 24
0001
1000
0010
0000
1000
0100
0010
0000
,  // measure 25
0100
1000
0001
0000
0100
0001
0010
0100
,  // measure 26
1000
0000
0000
0000
0100
0000
0000
0000
0010
0000
0000
0000
0001
1000
0001
1000
,  // measure 27
0001
0000
0000
0000
0000
0000
0000
0100
,  // measure 28
0000
0100
0000
0000
0100
0000
0000
0000
0000
0000
0000
0000
0000
0000
0000
0000
,  // measure 29
0000
0000
0000
0000
0000
0000
0000
0010
,  // measure 30
0000
0010
0000
0000
0010
0000
0000
0000
0000
0000
0000
0000
0000
0000
0000
0000
,  // measure 31
0000
0000
0000
0000
0000
0000
0000
1000
,  // measure 32
0000
1000
0000
0000
1000
0000
0000
0000
0000
0000
0000
0000
0000
0000
0000
0000
,  // measure 33
0000
0000
0000
0000
0000
0000
0000
0001
,  // measure 34
0000
0001
0000
0000
0001
0000
0000
0000
0000
0000
0000
0000
0000
0000
0000
0000
,  // measure 35
0001
0000
1000
0000
0001
0000
0000
0100
0000
0000
0001
0000
1000
0000
0000
0000
,  // measure 36
0001
0000
1000
0000
0001
0000
0000
0100
0000
0000
0001
0000
1000
0000
0000
0000
,  // measure 37
0001
0000
1000
0000
0001
0000
0000
0100
0000
0000
0001
0000
1000
0000
0000
0000
,  // measure 38
0001
0000
1000
0000
0001
0000
0000
0100
0000
0000
0001
0000
1000
0000
0000
0000
,  // measure 39
0001
0100
0020
0000
1030
0100
0020
0000
,  // measure 40
0031
0100
0020
0000
1030
0100
0020
0000
,  // measure 41
0031
0100
0010
1000
0001
0100
0010
2000
,  // measure 42
0000
0000
0000
3000
,  // measure 43
0001
0000
0010
0000
0001
0000
0000
0100
0000
0000
0001
0000
1000
0000
0000
0100
,  // measure 44
0000
0000
1000
0000
0010
0000
0100
0000
1000
0000
0100
0000
0001
0000
0000
1000
,  // measure 45
0000
0000
0001
0000
0010
0000
0100
0000
1000
0000
0100
0000
0010
0000
0000
0001
,  // measure 46
0000
0000
0010
0000
1000
0000
0010
0000
0001
0000
0100
0000
0010
0000
0000
1000
,  // measure 47
0000
0000
0001
0000
1000
0000
0000
0100
0000
0000
1000
0000
0001
0000
0000
0100
,  // measure 48
0000
0000
0001
0000
0010
0000
0100
0000
0001
0000
0100
0000
1000
0000
0000
0001
,  // measure 49
0000
1000
0010
0100
0001
0100
0010
0000
,  // measure 50
2002
0000
0000
0000
0000
0000
0000
3000
0000
0000
0003
0000
1000
0100
1000
0100
,  // measure 51
1000
0000
0010
0000
0100
0000
0000
0010
0000
0000
0100
0000
0001
0000
0000
0010
,  // measure 52
0000
0000
0001
0000
1000
0000
0100
0000
1000
0000
0001
0000
0100
0000
0000
0001
,  // measure 53
0000
0000
0010
0000
0100
0000
0010
0000
0001
0000
0100
0000
0010
0000
0000
1000
,  // measure 54
0000
0000
0100
0000
0010
0000
0100
0000
1000
0000
0001
0000
0100
0000
0000
0001
,  // measure 55
0000
0000
0010
0000
0100
0000
0000
0010
0000
0000
0001
0000
1000
0000
0000
0010
,  // measure 56
0000
0000
1000
0000
0100
0000
0010
0000
0100
0000
1000
0000
0001
0000
0000
1000
,  // measure 57
0000
0000
0100
0000
1000
0000
0010
0000
1000
0000
0001
0000
0010
0000
0000
0110
,  // measure 58
0000
0000
0110
0000
0000
0110
0000
0000
0110
0000
0000
0000
1000
0001
1000
0001
,  // measure 59
1000
0000
0001
0000
1000
0000
0010
1000
0000
0000
0100
0000
1000
0000
0010
0100
,  // measure 60
0000
0000
0010
0000
0100
0000
0001
0000
0010
0000
0100
0000
0010
0000
0001
0100
,  // measure 61
0000
0000
0010
0000
1000
0000
0100
0000
0010
0000
0001
0000
0010
0000
0001
0100
,  // measure 62
0000
0010
0100
0001
1000
0100
0001
0000
,  // measure 63
0100
0000
1000
0000
0010
0000
0100
1000
0000
0000
0100
0000
0001
0000
1000
0100
,  // measure 64
0000
0000
0001
0000
0100
0000
1000
0000
0010
0000
0100
0000
1000
0000
0100
0001
,  // measure 65
0000
0000
1000
0000
0010
0000
0100
0000
0001
0000
0010
0000
0100
0000
0010
0001
,  // measure 66
0000
0000
0010
0000
0001
0000
0100
0000
0010
0000
1000
0000
0001
0010
0100
1000
,  // measure 67
0020
0000
0000
0030
0000
0000
0000
0000
;

//---------------dance-single - Pandy as "W!cked S!ck"---------------
#NOTES:
     dance-single:
     Pandy as "W!cked S!ck":
     Hard:
     16:
     0,0,0,0,0:
// measure 0
0000
0000
0000
0000
,  // measure 1
0000
0000
0000
0000
,  // measure 2
0000
0000
0000
0000
,  // measure 3
0001
0000
1000
0000
0100
0000
0010
0001
0000
0001
0010
0000
0100
1000
0000
1000
,  // measure 4
0000
1000
0100
0000
0010
0000
0001
0100
0000
0100
0010
0000
1000
0010
0000
0010
,  // measure 5
0100
0001
0100
0000
0010
0000
1000
0001
0000
0001
0010
0000
0100
0000
0010
0001
,  // measure 6
0000
0001
0100
0000
0010
0000
1000
0100
0000
0100
0010
0000
0001
0100
0000
0001
,  // measure 7
1000
0000
0010
0000
0100
0000
0001
0100
0000
0100
0010
0000
1000
0100
1000
0100
,  // measure 8
0000
0010
0001
0000
1000
0000
0001
0100
0000
0100
0010
0000
0100
0001
0000
0001
,  // measure 9
0000
0001
1000
0000
0100
0000
0010
0100
0000
0100
1000
0000
0010
0100
0000
0100
,  // measure 10
0002
0000
0000
2000
0000
0000
0000
0000
0003
0000
0000
0000
3000
0000
0002
0023
,  // measure 11
0130
0010
0011
0000
0001
0100
0110
0000
,  // measure 12
1000
0010
1010
0020
0130
0001
0011
0000
,  // measure 13
0100
2000
3010
0000
0100
0001
1001
0000
,  // measure 14
0001
0000
0100
0000
0110
0000
0000
0000
0100
0000
0001
0000
0011
0000
0002
0023
,  // measure 15
0130
1000
1010
0000
0010
0100
0101
0000
,  // measure 16
0001
1000
1100
0200
0310
0001
0011
0000
,  // measure 17
0100
0002
0013
0000
0001
0010
0110
0000
,  // measure 18
1000
0001
1001
0000
0001
0100
2000
3200
,  // measure 19
0301
0000
0010
0000
0100
0000
0010
0000
0001
0000
0100
0000
0010
0000
1000
0100
,  // measure 20
0000
0100
1000
0000
1000
0100
0000
0000
0010
0000
0001
0000
0100
0001
1000
0100
,  // measure 21
0000
0000
0020
0032
0103
0000
0010
0000
1000
0000
0001
0000
0010
0100
0010
0001
,  // measure 22
0000
0010
0001
0000
0010
0001
0200
0000
0310
0000
1000
0000
0010
0100
0002
2003
,  // measure 23
3100
0000
0010
0000
0100
0000
1000
0001
0000
0000
0100
0000
0001
0000
0010
0100
,  // measure 24
0000
0010
0100
0000
0010
0100
0000
0000
0010
0000
0001
0000
0100
0010
1000
0010
,  // measure 25
0000
0100
0020
0000
1030
0000
0100
0000
0010
0000
0001
0000
0010
0100
1000
0001
,  // measure 26
0000
1000
0001
0000
1000
0001
0000
0000
1000
0000
0010
0000
0200
0320
2030
3002
,  // measure 27
0013
0000
0000
0000
0000
0000
0000
0000
0000
0000
0000
0000
0000
0000
0100
0010
,  // measure 28
0000
0100
0010
0000
0100
0010
0000
0000
0000
0000
0000
0000
0000
0000
0000
0000
,  // measure 29
0000
0000
0000
0000
0000
0000
0000
0000
0000
0000
0000
0000
0000
0000
0001
1000
,  // measure 30
0000
0001
1000
0000
0001
1000
0000
0000
0000
0000
0000
0000
0000
0000
0000
0000
,  // measure 31
0001
0000
0000
0000
0100
0000
0000
0000
0010
0000
0000
0000
1000
0000
0010
0100
,  // measure 32
0000
0010
0100
0000
0010
0100
0002
0000
0013
0000
0000
0000
0100
0000
0000
0000
,  // measure 33
0010
0000
0000
0000
0001
0000
0000
0000
1000
0000
0000
0000
0010
0000
1000
0001
,  // measure 34
0000
1000
0001
0000
1000
0001
0000
0000
1000
0000
0000
0000
0100
0000
0010
0000
,  // measure 35
0001
0000
0100
0000
0010
0000
1000
0010
0000
0100
0001
0010
0100
0010
0100
0010
,  // measure 36
0100
0000
1000
0000
0001
0000
0100
0010
0000
1000
0001
0010
0001
0010
0001
0010
,  // measure 37
0100
0000
0010
0000
0001
0000
0100
0010
0000
1000
0100
0010
0001
0010
0001
0010
,  // measure 38
0100
0000
0010
0000
0001
0000
0100
0010
0000
0100
0001
1000
0100
1000
0100
1000
,  // measure 39
0001
0000
1000
0000
0010
0000
0100
0010
0100
0000
0001
0000
0010
0000
0100
0010
,  // measure 40
0100
0000
1000
0000
0010
0000
0100
0010
0100
0000
0001
0000
0010
0000
0100
0010
,  // measure 41
0100
1000
0010
0100
0000
0001
0010
0100
0000
0010
0001
0100
0000
0010
1000
0001
,  // measure 42
0000
0000
0010
0000
0100
0000
1000
0000
0010
0000
0100
0000
0002
0023
0230
2300
,  // measure 43
3001
0000
1000
0000
0010
0000
0010
1000
0000
0100
0010
0100
0010
0001
1000
0001
,  // measure 44
0000
1000
0010
0000
0010
0100
0010
0100
0001
0000
0010
0000
0100
1000
0020
0230
,  // measure 45
0300
1000
0100
0000
0001
0000
0010
0000
0100
0000
0001
0000
0100
0010
0001
1000
,  // measure 46
0000
1000
0001
0000
0010
0000
0100
0000
0001
0000
0100
0000
0010
0001
2000
3020
,  // measure 47
0030
0010
0100
0000
1000
0000
0100
0001
0000
0010
0001
0010
0100
0010
0001
1000
,  // measure 48
0000
0100
0001
0000
0100
0010
0001
0100
0001
0000
0100
0000
0010
1000
0002
2003
,  // measure 49
3000
1000
0100
0000
1000
0000
0010
0000
0100
0000
1000
0000
0100
0001
1000
0100
,  // measure 50
0020
0000
0000
0000
0130
0010
0001
2000
0200
0000
3000
0000
0310
0001
2000
3002
,  // measure 51
0103
0000
1000
0000
0100
0000
0001
1000
0000
1000
0100
1000
0100
0010
0100
1000
,  // measure 52
0000
0100
0001
0000
0100
0010
0001
1000
0001
0000
1000
0000
0100
0010
0002
0203
,  // measure 53
0300
0100
0010
0000
1000
0000
0001
0000
0100
0000
1000
0000
0100
0010
1000
0100
,  // measure 54
0000
0010
0100
0000
0010
0000
1000
0000
0010
0000
0001
0000
0100
1000
0200
0320
,  // measure 55
0030
0010
1000
0000
0100
0000
0010
0100
0000
0010
0001
0100
0010
0100
0001
1000
,  // measure 56
0000
1000
0010
0000
0010
0001
0010
1000
0001
0000
0010
0000
1000
0020
0032
1003
,  // measure 57
0000
0001
0010
0000
1000
0000
0010
0000
0001
0000
1000
0000
0010
1000
0001
1001
,  // measure 58
0000
0000
0000
0000
0000
0000
1010
0000
0000
0000
0000
0000
0000
0000
0000
0101
0000
0000
0000
0000
0000
0000
0000
0000
0011
0000
0000
0000
0000
0000
0000
0000
0000
0000
0000
0000
0100
0000
1000
0000
0100
0000
1000
0000
0100
0000
1000
0000
,  // measure 59
0100
0000
0010
0000
0001
0000
0100
0010
0000
0010
0001
0010
1000
0100
0010
0001
,  // measure 60
0000
0010
0100
0000
0100
0001
0100
1000
0010
0000
0001
0000
0010
0100
0002
0023
,  // measure 61
0030
0010
0100
0000
1000
0000
0100
0000
0001
0000
0100
0000
0010
0001
1000
0100
,  // measure 62
0000
0100
1000
0000
0100
0000
0001
0000
0100
0000
1000
0000
1001
0000
0000
0000
,  // measure 63
0001
0100
0001
0000
0100
0000
0010
1000
0000
1000
0100
0010
0001
0010
1000
0010
,  // measure 64
0000
0100
0010
0000
0001
0100
0010
0001
0010
0000
1000
0000
0100
0010
0200
2300
,  // measure 65
3000
0100
0010
0000
0001
0000
0100
0000
0010
0000
0001
0000
0010
0100
0001
1000
,  // measure 66
0000
0100
0010
0000
0100
0000
1000
0000
0001
0000
0100
0000
0010
1000
0001
1000
,  // measure 67
0001
0000
1000
0000
0001
0010
0000
0000
0000
0000
0000
0000
0000
0000
0000
0000
;
