#TITLE:忘れられたピアノの記憶;
#SUBTITLE:;
#ARTIST:下村陽子 ;
#TITLETRANSLIT:Wasurerareta piano no kioku;
#SUBTITLETRANSLIT:;
#ARTISTTRANSLIT:Yoko Shimomura;
#GENRE:;
#CREDIT:;
#MUSIC:Wasurerareta piano no kioku.ogg;
#BANNER:Wasurerareta piano no kioku-bn.png;
#BACKGROUND:Wasurerareta piano no kioku-bg.png;
#CDTITLE:;
#SAMPLESTART:79.142;
#SAMPLELENGTH:11.898;
#SELECTABLE:YES;
#OFFSET:-0.118;
#BPMS:0.000=164.000
,136.000=82.000
,176.000=164.000
,240.000=82.000
,260.000=164.000
;
#STOPS:;
#BGCHANGES:;
#FGCHANGES:;

//--------------- dance-single - Pandemonium X ----------------
#NOTES:
     dance-single:
     Pandemonium X:
     Beginner:
     5:
     0,0,0,0,0:
0000
0000
0000
0000
,
0000
0000
0000
0000
,
0000
0000
0000
0000
,
0000
0000
0000
0000
,
0000
0000
0000
0000
,
0000
0000
0000
0000
,
0001
0000
0000
0001
0000
0000
0000
0000
,
1000
0000
0000
1000
0000
0000
1000
0000
,
0010
0000
0000
0010
0000
0000
0000
0000
,
0100
0010
0010
0010
,
1000
0000
0000
1000
0000
0000
0000
0000
,
0001
0000
0000
0001
0000
0000
0010
0000
,
0001
0000
0000
0001
0000
0000
0000
0000
,
1000
0010
0100
0010
,
0100
0000
0000
0001
0000
0000
0000
0000
,
0010
0000
0000
0100
0000
0000
1000
0000
,
0001
0000
0000
1000
0000
0000
0000
0000
,
0010
0100
0100
0010
,
2000
0000
0000
3000
,
0002
0000
0000
0003
,
0020
0000
0000
0030
,
0200
0000
0000
0300
,
2000
0000
0000
3000
,
0020
0000
0000
0030
,
0200
0000
0000
0300
,
0002
0000
0000
0003
,
1000
0000
0000
1000
0000
0000
1000
0000
,
0001
0000
0000
0001
0000
0000
0001
0000
,
0100
0000
0000
0100
0000
0000
0100
0000
,
0010
0000
0000
0010
0000
0000
0010
0000
,
1000
0000
0000
0001
0000
0000
1000
0000
,
0010
0000
0000
0100
0000
0000
0010
0000
,
1000
0000
0000
0010
0000
0000
1000
0000
,
0001
0000
0000
0100
0000
0000
0001
0000
,
1000
0000
0000
0000
,
0001
0000
0000
0000
,
0010
0000
0000
0000
,
0100
0000
0010
0000
,
0001
0000
0000
0000
,
1000
0000
0000
0000
,
0001
0000
1000
0000
,
0100
0000
0000
0000
,
0020
0000
0000
0000
,
0030
0000
0000
0000
0000
0000
0000
0000
0000
0001
0000
0000
0000
1000
0000
0000
,
0010
0000
0000
0010
0000
0000
0010
0000
,
0100
0000
0000
0100
0000
0000
0100
0000
,
0001
0000
0000
0001
0000
0000
0001
0000
,
1000
0000
0000
1000
0000
0000
1000
0000
,
1001
0000
0000
0000
,
0110
0000
0000
0000
,
1001
0000
0000
0000
,
0001
0001
1000
1000
,
0010
0000
0000
1000
0000
0000
0100
0000
,
0010
0000
0000
0001
0000
0000
0100
0000
,
0010
0000
0000
1000
0000
0000
0001
0000
,
0010
0000
0000
0001
0000
0000
1000
0000
,
1001
0000
0000
0000
,
0110
0000
0000
0000
,
1001
0000
0000
0000
,
1000
1000
0001
0001
,
0100
0000
0010
0000
,
1000
0000
0001
0000
,
0010
0000
0100
0000
,
1000
0000
0001
0000
,
0000
1000
0001
0100
,
0010
0000
1000
0000
,
0100
0000
0010
0000
,
0001
0000
0010
0000
,
0100
0000
1000
0000
,
0002
0003
2000
3000
,
0020
0030
0200
0300
,
0002
0003
2000
3000
,
0200
0300
0020
0000
,
0000
0030
0000
0000
0000
0000
0000
0000
;

//--------------- dance-single - Pandemonium X ----------------
#NOTES:
     dance-single:
     Pandemonium X:
     Easy:
     7:
     0,0,0,0,0:
0000
0000
0000
0000
,
0000
0000
0000
0000
,
0000
0000
0000
0000
,
0201
0000
0000
0000
,
0000
0000
0000
0000
,
0000
0300
0000
0000
0000
0000
0000
0000
,
0001
0000
0000
1000
0000
0000
0100
0000
,
0010
0000
0000
0001
0000
0100
0001
0000
,
0010
0000
0000
0001
0000
0000
1000
0000
,
0100
0020
0230
2300
,
3001
0000
0000
0010
0000
0000
0001
0000
,
1000
0000
0000
0010
0000
0100
0001
0000
,
0010
0000
0000
0100
0000
0000
0010
0000
,
0001
0020
0230
2300
,
3100
0000
0000
1000
0000
0000
0010
0000
,
0100
0000
0000
0010
0000
1000
0001
0000
,
0010
0000
0000
0001
0000
0000
0100
0000
,
0010
2000
3002
0023
,
0230
0000
0000
1000
0000
0000
1300
0000
,
2000
0000
0000
0010
0000
0000
3010
0000
,
0200
0000
0000
0001
0000
0000
0001
0000
,
0310
1001
0110
1001
,
0002
0000
0000
0010
0000
0000
0013
0000
,
0200
0000
0000
1000
0000
0000
1300
0000
,
0020
0000
0000
0100
0000
0000
0130
0000
,
2002
0000
0000
3003
,
0001
0000
0000
1000
0000
0000
1100
0000
,
1000
0000
0000
0001
0000
0000
0101
0000
,
0001
0000
0000
1000
0000
0000
1100
0000
,
1000
0000
0000
0001
0000
0100
0100
0100
,
0001
0000
0000
1000
0000
0000
1010
0000
,
1000
0000
0000
0001
0000
0000
0011
0000
,
0001
0000
0000
1000
0000
0000
1010
0000
,
1000
0000
0000
0001
0000
0010
0010
0010
,
0100
0000
0000
0000
,
1000
0000
0000
0000
,
0010
0000
0000
0000
,
0100
0000
0001
0000
,
1000
0000
0000
0000
,
0100
0000
0000
0000
,
0010
0000
0001
0000
,
1000
0000
0010
0000
,
0220
0000
0000
0000
,
0330
0000
0000
0000
0000
0000
0000
0000
0000
0001
0000
0010
0000
0100
0000
1000
,
0001
0000
0000
0100
0000
0000
1010
0000
,
1000
0000
0000
0100
0000
0000
0011
0000
,
0001
0000
0000
1000
0000
0000
0101
0000
,
0001
0000
0000
1000
0000
0000
1100
0000
,
0100
0000
0000
0100
0000
0000
0100
0000
0000
0000
0000
0000
0000
0000
0010
0000
,
0100
0000
0000
0000
0000
0000
0000
0100
,
0010
0000
0000
0000
0000
0000
0000
0010
,
0100
0000
0100
0000
0100
0010
0010
0010
,
0001
0000
0000
0100
0000
0000
1010
0000
,
1000
0000
0000
0100
0000
0000
0110
0000
,
0010
0000
0000
0001
0000
0000
1001
0000
,
1000
0000
0000
0001
0000
0000
0101
0000
,
0001
0000
0000
0001
0000
0000
0001
0000
0000
0000
0000
0000
0000
0000
1000
0000
,
0001
0000
0000
0000
0000
0000
0000
0001
,
1000
0000
0000
0000
0000
0000
0000
1000
,
0001
0000
0100
0000
0010
1000
1000
1000
,
0100
0000
1000
0100
1000
0010
0100
0001
,
0000
0010
0001
0100
0010
1000
0001
1000
,
0000
0001
0010
0001
1000
0010
1000
0001
,
0000
1000
0001
0100
0001
1000
0001
0100
,
0000
0020
2030
3002
,
1003
0100
0010
0001
,
0010
0100
0010
0001
,
0001
0010
0100
1000
,
0100
0010
0100
1000
,
1002
0000
0203
0000
,
0320
0000
2030
0000
,
3002
0000
2003
0000
,
3200
0000
0000
0000
,
0000
0300
0000
0000
0000
0000
0000
0000
;

//--------------- dance-single - Pandemonium X ----------------
#NOTES:
     dance-single:
     Pandemonium X:
     Medium:
     13:
     0,0,0,0,0:
0000
0000
0000
0000
,
0000
0000
0000
0000
,
0000
0000
0000
0000
,
1000
0100
0010
0100
1000
0010
0100
0001
0010
0001
0100
0010
,
1000
0010
0100
0001
1000
0100
0010
0001
0010
0100
0010
0001
,
1000
0010
0000
0000
0000
0000
0000
0000
0000
0000
0000
0000
,
0100
0001
0010
0001
0100
0001
0010
0100
,
1000
0000
0100
0000
1000
0000
0010
0000
0100
0000
0001
1000
0002
0000
0000
0000
,
0013
0001
0100
0001
0010
0100
1000
0100
,
1000
0010
0110
0000
1010
0000
0110
0000
,
1001
1000
0010
0100
0010
1000
0001
1000
,
0001
0000
0010
0000
0100
0000
0010
0000
0001
0000
1000
0001
2000
0000
0000
0000
,
3100
1000
0010
0100
0010
1000
0001
0010
,
0001
0000
0100
0000
0001
0000
0010
0000
0100
0000
1000
0001
1000
0001
1000
0000
,
0001
1000
0100
1000
0010
0100
0010
1000
,
0001
0000
0010
0000
0001
0000
0100
0000
0010
0000
1000
0001
0200
0000
0000
0000
,
0310
1000
0100
0010
0100
1000
0001
0100
,
0001
0010
0110
0000
1100
0000
1010
0000
,
0102
0000
0100
0100
0000
1000
1003
0000
,
2001
0000
0001
0001
0000
0010
3010
0000
,
0201
0000
0010
0010
0000
0001
0301
0000
,
1000
1100
0011
1100
,
1020
0000
0100
0100
0000
1000
1030
0000
,
0201
0000
0010
0010
0000
0001
0301
0000
,
2001
0000
0100
0100
0000
0001
3001
0000
,
0010
1001
0110
1001
,
0101
0000
0001
0011
0000
0010
0110
0000
,
1100
0000
0100
0110
0000
0010
0011
0000
,
1001
0000
0001
0101
0000
0100
0110
0000
,
1010
0000
0000
0000
1000
0000
1100
0000
0000
0000
0100
0010
0100
0010
0100
0000
,
0110
0000
0100
1100
0000
1000
1010
0000
,
0110
0000
0100
0101
0000
0001
0011
0000
,
0110
0000
0100
1100
0000
1000
1010
0000
,
0010
0000
0100
0000
0001
0000
0010
0000
0100
0000
1000
0001
1000
0001
1000
0000
,
0001
1000
0001
0010
0001
0100
0001
0010
,
0011
0010
0100
1000
0100
0010
0100
1000
,
1100
1000
0010
0100
0010
1000
0010
0100
,
0101
0000
0001
0000
0010
0100
0000
0100
1000
0000
0100
0000
0010
0001
0000
0001
,
1000
0100
0010
0000
0100
0000
1000
0000
0010
0000
0100
0000
0001
0000
0010
0000
,
0100
0010
0001
0000
0010
0000
0100
0000
0010
0000
0001
0000
0100
0000
0010
0000
,
1000
0100
0010
0000
0100
0000
1000
0000
0001
0010
0100
0000
0010
0000
0001
0000
,
1000
0100
0010
0000
0100
0000
1000
0000
0001
0000
0010
0000
0100
0000
0010
0000
,
2002
0000
0000
0000
,
3003
0000
0000
0000
0000
0000
0000
0000
0000
0001
0010
0100
1000
0100
0010
0100
,
1100
0000
1000
0010
0000
0100
0110
0000
,
0100
0000
0001
0010
0000
0100
0110
0000
,
0010
0000
0001
0010
0000
0100
1100
0000
,
1000
0000
0010
0100
0000
0001
0101
0000
,
2001
0000
0000
0001
0000
0000
3001
0000
0000
0000
0000
0000
0000
0000
0001
1000
,
0002
0000
0000
1000
0000
0000
1003
0000
0000
0000
0000
0000
0000
0000
1000
0000
,
2001
0000
0000
0000
0000
0000
0001
0000
0000
0000
0000
0000
3001
0000
0010
0001
,
0010
0000
0100
0000
1000
0000
0100
0000
0010
0000
0001
0100
0001
0100
0001
0000
,
0011
0000
0001
0100
0000
0010
1010
0000
,
0010
0000
1000
0100
0000
0010
0011
0000
,
0001
0000
1000
0100
0000
0010
1001
0000
,
0001
0000
0100
0010
0000
1000
1001
0000
,
0102
0000
0000
0100
0000
0000
1003
0000
0000
0000
0000
0000
0000
0000
1000
0001
,
2000
0000
0000
0100
0000
0000
3001
0000
0000
0000
0000
0000
0000
0000
0001
0000
,
1002
0000
0000
0000
0000
0000
0010
0000
0000
0000
0000
0000
1003
0000
0100
1000
,
0100
0000
0010
0000
0001
0000
0010
0000
0100
0000
1000
0010
1000
0010
1000
0000
,
0001
0100
0001
0010
0100
0010
0001
1000
,
0001
0010
0100
0010
0001
1000
0100
1000
,
0001
0010
0100
0010
0001
1000
0100
0010
,
0100
1000
0010
0100
0001
0010
0001
1000
,
0000
0002
2003
3002
,
1003
0010
0100
0001
0010
0100
0010
0001
,
0100
0010
1000
0001
0010
0100
0010
0001
,
1000
1000
0100
0100
0010
0010
0001
0001
,
0010
0010
0100
0100
1000
1000
0001
0001
,
1001
0000
0000
0001
0100
0010
1000
0000
0000
0100
1000
0010
,
0100
0000
0000
0010
1000
0001
0010
0000
0000
0100
0000
0000
,
1000
0100
0010
0100
1000
0001
0010
0100
0010
0001
0100
0010
,
1000
0001
0010
0100
1000
0100
1000
0001
0100
0001
1000
0001
,
0010
0000
0000
0100
0000
0000
0000
0000
0000
0000
0000
0000
0000
0000
0000
0000
0000
0000
0000
0000
0000
0000
0000
0000
0000
0000
0000
0000
0000
0000
0000
0000
;

//--------------- dance-single - Pandemonium X ----------------
#NOTES:
     dance-single:
     Pandemonium X:
     Hard:
     17:
     0,0,0,0,0:
0000
0000
0000
0000
,
0000
0000
0000
0000
,
0000
0000
0000
0000
,
1200
0000
0000
0000
1300
0001
0010
0100
0010
0100
1000
0010
0100
0001
1000
0100
,
1000
0000
0000
0001
0000
0000
0100
0000
0000
0001
0000
0000
0010
0000
0000
0100
0000
0000
0010
0000
0000
0001
0000
0000
1000
0000
0000
0001
0000
0000
1000
0000
0000
0100
0000
0000
0010
0000
0000
0001
0000
0000
0010
0000
0000
0000
0100
0000
,
0000
1000
0000
0000
0000
0000
0000
0000
0000
0000
0000
0000
0000
0000
0000
0000
0000
0000
0000
0000
0000
0000
0000
0000
,
0001
1000
0001
0000
1000
0000
0001
0010
0001
0000
1000
0000
0001
0000
0010
0000
,
0100
1000
0100
0000
0010
0000
0001
0010
0001
0000
0010
0001
0200
0000
0000
0000
,
0301
1000
0001
0000
1000
0000
0001
0010
0001
0000
1000
0000
0100
0000
1000
0000
,
0010
1000
0010
0000
1010
0000
0000
0000
0101
0000
0000
0000
0021
0000
0000
0000
,
0031
1000
0100
0000
0010
0000
0100
0010
0001
0000
0100
0000
0001
0000
1000
0000
,
0001
0010
0100
0000
0010
0000
0001
0100
0010
0000
1000
0100
2000
0000
0000
0000
,
3001
0100
0001
0000
1000
0000
0100
1000
0010
0000
0100
0000
0001
0000
0010
0000
,
0100
0010
0001
0000
1000
0000
0001
1000
0001
0000
1000
0100
0010
0100
0001
0000
,
0100
1000
0001
0000
1000
0000
0010
0100
0001
0000
0010
0000
0001
0000
0100
0000
,
0010
1000
0100
0000
0010
0000
0100
1000
0001
0000
0100
0010
2000
0000
0000
0000
,
3100
0010
0001
0000
0010
0000
0001
1000
0010
0000
0100
0000
0001
0000
0010
0000
,
0100
0010
0001
0000
0011
0000
0000
0000
0101
0000
0000
0000
1010
0000
0000
0000
,
0002
0000
0000
1003
0100
0000
0010
0000
0100
0000
0000
0010
0001
0000
0100
0000
,
0002
0000
0000
1003
0100
0000
0010
0000
0100
0000
1000
0000
0010
0000
0100
0001
,
2000
0000
0000
3100
0010
0000
0100
0000
1000
0000
0000
0010
0100
0000
0001
0000
,
0020
0100
0001
0130
,
0002
0000
0000
1003
0010
0000
1000
0000
0001
0000
0000
0100
0001
0000
0010
0000
,
0200
0000
0000
0310
0001
0000
1000
0000
0010
0000
1000
0000
0100
0000
0010
0001
,
2000
0000
0000
3001
0100
0000
0010
0000
1000
0000
0000
0100
0010
0000
0001
0000
,
0200
0010
0001
0310
,
0101
0001
1000
1100
1000
0001
0101
0000
,
0011
0001
1000
1010
1000
0001
0011
0000
,
1001
0001
0100
0110
0010
1000
1100
0000
,
1001
0000
1000
0010
0100
0001
0010
0100
0010
0001
1000
0010
0100
0010
0001
0000
,
0110
0100
0010
1010
0010
1000
1100
0000
,
1001
1000
0010
1010
0010
0100
0101
0000
,
1001
0001
0100
0101
0100
0010
1010
0000
,
1001
0000
0001
0100
0010
0100
0001
1000
0001
0010
0100
0001
0100
1000
0001
0000
,
1001
1000
0010
0100
0010
1000
0100
0010
0100
1000
0010
0100
0010
1000
0100
0010
,
0001
0010
0100
0010
0001
0100
0010
0100
0001
0010
0100
0010
0001
0100
0010
1000
,
0001
0010
0001
1000
0100
1000
0001
1000
0001
0100
0001
1000
0010
1000
0001
1000
,
0100
0010
0100
1000
0010
0100
0000
0100
0001
1000
0100
0010
0100
1000
0000
1000
,
0001
0100
0010
1000
0100
0010
0100
1000
0010
0100
0010
1000
0010
0100
0001
1000
,
0001
1000
0001
0010
0100
1000
0100
0010
0100
1000
0010
0100
0001
0010
0100
1000
,
0100
0010
0100
1000
0001
0100
0000
0100
0001
0010
0100
1000
0001
0010
0000
0010
,
0100
0010
0001
0100
0010
1000
0001
0100
0010
1000
0001
0100
0010
1000
0001
1000
,
1100
0000
0000
0000
0000
0000
0000
0000
0000
0000
0000
0000
0000
0000
0000
0000
1000
0000
0000
0000
0000
0000
0000
0000
0001
0000
0000
0000
0000
0000
0000
0000
0100
0000
0000
0000
0000
0000
0000
0000
0001
0000
0000
0000
0000
0000
0000
0000
0010
0000
0000
0000
0000
0000
0000
0000
0100
0000
0000
0000
0000
0000
0000
0000
1000
0000
0000
0000
0000
0000
0000
0000
0100
0000
0000
0000
0000
0000
0000
0000
0000
1000
0000
0000
0000
0000
0000
0000
0000
0000
0001
0000
0000
0000
0000
0000
0000
0000
0000
1000
0000
0000
0000
0000
0000
0000
0000
0000
0001
0000
0000
0000
0000
0000
0000
0000
1000
0000
0000
0000
0000
0000
0000
0000
0000
0100
0000
0000
0000
0000
0000
0000
0000
0000
1000
0000
0000
0000
0000
0000
0000
0000
0000
0000
0001
0000
0000
0000
0000
0000
0000
0000
0000
0000
1000
0000
0000
0000
0000
0000
0000
0000
0000
0010
0000
0000
0000
0000
0000
0000
0000
0000
0000
0000
0100
0000
0000
0000
0000
0000
0000
0000
0000
0000
0000
0000
0000
0000
0000
0000
0000
0000
,
1001
0000
0000
0000
0000
0000
0000
0000
0000
1000
0100
0010
0001
0010
0100
1000
,
1001
0000
0001
0100
0001
0000
0101
0000
0010
1000
0010
0000
1001
0000
0000
0000
,
1100
0000
1000
0010
1000
0000
0110
0000
0100
0001
0100
0000
1001
0000
0000
0000
,
0011
0000
0010
0100
0010
0000
1100
0000
1000
0100
1000
0000
1001
0000
0000
0000
,
0101
0000
0001
0100
0001
0000
0011
0000
0100
0010
0100
0000
1001
0000
0000
0000
,
1100
0000
0000
1010
0000
0000
1001
0000
0000
0000
1000
0000
0010
0000
0100
0001
,
1000
0000
0010
0100
0000
0001
1000
1010
,
1100
0000
0000
0000
1000
0000
0001
0000
0000
0000
0001
0000
1000
0000
0001
1000
,
0001
0100
0001
1000
0100
1000
0001
0100
0001
1000
0010
0001
0010
1000
0001
0000
,
1001
0000
1000
0100
0010
0000
1001
0000
0001
0100
0010
0000
1010
0000
0000
0000
,
1100
0000
0100
1000
0001
0000
0011
0000
0010
0001
1000
0000
1010
0000
0000
0000
,
1001
0000
0001
1000
0100
0000
0011
0000
0010
0100
1000
0000
1001
0000
0000
0000
,
0101
0000
0001
0100
0010
0000
1100
0000
1000
0100
0010
0000
1001
0000
0000
0000
,
0011
0000
0000
0110
0000
0000
1001
0000
0000
0000
0001
0000
1000
0000
0010
1000
,
0001
0000
1000
0010
0000
0100
0001
0011
,
0101
0000
0000
0000
0001
0000
1000
0000
0000
0000
1000
0000
0001
0000
1000
0001
,
1000
0001
0100
0001
1000
0100
1000
0001
1000
0001
1000
0100
0001
0100
1000
0000
,
1002
0000
0000
0000
1003
0100
0010
0000
0100
1000
0010
0000
0001
0000
0010
0000
,
0100
0001
1000
0000
0001
0000
0010
0000
0100
1000
0010
0000
0001
0000
0010
0000
,
0100
0001
1000
0000
0010
0000
0001
0000
0010
0100
0001
0000
0010
0000
0100
0000
,
0010
0100
1000
0000
0100
0000
0001
0000
0100
1000
0001
0000
0001
1000
0100
0000
,
0000
2000
3002
2003
,
3010
0100
0010
0100
0001
0100
0001
0010
0001
1000
0100
1000
0001
0100
0001
0100
,
0010
0100
0010
1000
0010
1000
0100
1000
0100
0010
0100
0010
0001
0010
0001
1000
,
0001
1000
0001
0100
0001
0100
0010
0100
0010
1000
0010
1000
0001
1000
0001
0010
,
0001
0010
0100
0010
0100
1000
0100
1000
0001
1000
0100
1000
0100
0010
0100
0010
,
0002
0000
0000
0000
1003
0100
1000
0001
0100
0001
0010
0100
1000
0100
0010
0100
,
0001
0100
1000
0010
0100
1000
0100
0010
0100
0001
1000
0010
1000
0001
0010
0001
,
1000
0100
0001
0100
1000
0010
1000
0001
0010
1000
0010
0001
1000
0001
0010
0100
,
1000
0000
0000
0000
0001
0000
0000
0000
0010
0000
0000
0000
0100
0000
0000
0000
0010
0000
0000
0000
0001
0000
0000
0000
1000
0000
0000
0010
0000
0000
0100
0000
0000
0001
0000
0000
1000
0000
0000
0000
0001
0000
0000
0000
1000
0000
0000
0000
,
0000
0000
0000
0100
0000
0000
0000
0000
0000
0000
0000
0000
0000
0000
0000
0000
0000
0000
0000
0000
0000
0000
0000
0000
0000
0000
0000
0000
0000
0000
0000
0000
;

//--------------- dance-double - Pandemonium X ----------------
#NOTES:
     dance-double:
     Pandemonium X:
     Easy:
     7:
     0,0,0,0,0:
00000000
00000000
00000000
00000000
,
00000000
00000000
00000000
00000000
,
00000000
00000000
00000000
00000000
,
00022000
00000000
00000000
00000000
,
00000000
00000000
00000000
00000000
,
00000000
00033000
00000000
00000000
00000000
00000000
00000000
00000000
,
00001000
01000000
00010000
00100000
,
01000000
10000000
00010000
02000000
,
03001000
00010000
00000100
00001000
,
00000010
00000110
00001001
00000110
,
00000001
00001000
00000100
00010000
,
00001000
00010000
00000010
00002000
,
00003001
00000100
00000010
00001000
,
00000100
00001100
00010100
00001100
,
00010000
00001000
01000000
00010000
,
00100000
01000000
00100000
00020000
,
10030000
01000000
10000000
00100000
,
01000000
10010000
01100000
10010000
,
20000000
00000000
00000000
30000000
,
00020000
00000000
00000000
00030000
,
00200000
00000000
00000000
00300000
,
00002000
00000000
00023000
00000000
,
00030200
00000000
00000000
00000300
,
00002000
00000000
00000000
00003000
,
00020000
00000000
00000000
00030000
,
02200000
00000000
00000000
03300000
,
10010000
00000000
00000000
00010000
00000000
00000000
00010000
00000000
,
00100000
00000000
00000000
00100000
00000000
00000000
00100000
00000000
,
00001000
00000000
00000000
00001000
00000000
00000000
00001000
00000000
,
00010000
00000000
00000000
00010000
00000000
00000000
00100000
00000000
,
00001000
00000000
00000000
00001000
00000000
00000000
00001000
00000000
,
00010000
00000000
00000000
00010000
00000000
00000000
00010000
00000000
,
00000100
00000000
00000000
00000100
00000000
00000000
00000100
00000000
,
00000010
00000000
00000000
00000010
00000000
00000000
00000010
00000000
,
00000011
00000000
00000000
00000000
,
00000001
00000000
00000000
00000000
,
00000100
00000000
00000000
00000000
,
00000010
00000000
00001000
00000000
,
00000100
00000000
00000000
00000000
,
00010000
00000000
00000000
00000000
,
00001000
00000000
01000000
00000000
,
00100000
00000000
00000000
00000000
,
00022000
00000000
00000000
00000000
,
00033000
00000000
00000000
00000000
00000000
00000000
00000000
00000000
00000000
00010000
00000000
00001000
00000000
00000100
00000000
00000010
,
00000001
00000000
00000000
00000010
00000000
00000000
00000001
00000000
,
00000100
00000000
00000000
00000010
00000000
00000000
00001000
00000000
,
00000100
00000000
00000000
00010000
00000000
00000000
00001000
00000000
,
01000000
00000000
00000000
00100000
00000000
00000000
10000000
00000000
,
01000000
00000000
00000000
01000000
00000000
00000000
01000000
00000000
00000000
00000000
00000000
00000000
00000000
00000000
00100000
00000000
,
00100000
00000000
00000000
00000000
00000000
00000000
00000000
00001000
,
00010000
00000000
00000000
00000000
00000000
00000000
00000000
00000100
,
00000100
00001000
00000010
00000100
,
00000001
00000000
00000000
00001000
00000000
00000000
00000100
00000000
,
00010000
00000000
00000000
00001000
00000000
00000000
01000000
00000000
,
00010000
00000000
00000000
00100000
00000000
00000000
00001000
00000000
,
00010000
00000000
00000000
00000010
00000000
00000000
00010000
00000000
,
00001000
00000000
00000000
00001000
00000000
00000000
00001000
00000000
00000000
00000000
00000000
00000000
00000000
00000000
00100000
00000000
,
00100000
00000000
00000000
00000000
00000000
00000000
00000000
01000000
,
10000000
00000000
00000000
00000000
00000000
00000000
00000000
01000000
,
10000000
00100000
01000000
00001000
,
00011000
00000000
00000100
00000000
,
00001000
00000000
00000010
00000000
,
00000100
00000000
00000001
00000000
,
00001000
00000000
00000100
00010000
,
00000000
00002000
02003000
03020000
,
00130000
01000000
10000000
00100000
,
01000000
00010000
00100000
01000000
,
00100000
00010000
00001000
00000100
,
00000010
00000001
00000100
00001000
,
00012000
00000000
02003000
00000000
,
03200000
00000000
20300000
00000000
,
30020000
00000000
00230000
00000000
,
00302000
00000000
00020000
00000000
,
00000000
00033000
00000000
00000000
00000000
00000000
00000000
00000000
;

//--------------- dance-double - Pandemonium X ----------------
#NOTES:
     dance-double:
     Pandemonium X:
     Medium:
     13:
     0,0,0,0,0:
00000000
00000000
00000000
00000000
,
00000000
00000000
00000000
00000000
,
00000000
00000000
00000000
00000000
,
00022000
00000000
00000000
00000000
,
00000000
00000000
00000000
00000000
,
00000000
00033000
00000000
00000000
00000000
00000000
00000000
00000000
,
00001000
00010000
00000100
00001000
00000010
00000100
00000001
00000010
,
00000100
00000000
00000010
00000000
00000001
00000000
00001000
00000000
00000100
00000000
00010000
00001000
00020000
00000000
00000000
00000000
,
00031000
01000000
00010000
00100000
01000000
00100000
00010000
01000000
,
00100000
10000000
10100000
00000000
11000000
00000000
10100000
00000000
,
10000000
00010000
00100000
00001000
00010000
00000100
00001000
00000010
,
00000100
00000000
00000001
00000000
00000010
00000000
00000100
00000000
00001000
00000000
00000100
00010000
00000200
00000000
00000000
00000000
,
00001300
00000010
00000100
00000010
00010000
00001000
00100000
00010000
,
01000000
00100000
01100000
00000000
01010000
00000000
01100000
00000000
,
01000000
00010000
00100000
00001000
00010000
00000100
00001000
00000010
,
00000100
00000001
00000010
00000100
00001000
00000100
00010000
00001000
,
01000000
00010000
00100000
01000000
10000000
00010000
01000000
00010000
,
00100000
00001000
00011000
00000000
00001100
00000000
00011000
00000000
,
02001000
00000000
03100000
10000000
01000000
00000000
00100000
00001000
,
00020000
00000000
00030010
00001000
00000010
00000100
00000001
00000010
,
00000200
00000000
00001300
00000100
00010000
00000000
00001000
00100000
,
02000000
00100000
10000000
03100000
,
10010000
00000000
10000000
00010000
00100000
00000000
00010000
01000000
,
00002000
00000000
00103000
00001000
00010000
00001000
00100000
01000000
,
20000000
00000000
30010000
00100000
00001000
00000000
00010000
00000100
,
00001200
00010000
00001000
00010300
,
00011000
00000000
00000000
00110000
00000000
00000000
11000000
00000000
,
10100000
00000000
00000000
01010000
00000000
00000000
00110000
00000000
,
00101000
00000000
00000000
00011000
00000000
00000000
00010100
00000000
,
00001100
00000000
00000000
00000000
00000000
00000000
00001010
00000000
00000000
00000000
00000001
00000100
00000001
00000100
00000001
00000000
,
00001001
00000000
00000000
00001100
00000000
00000000
00010100
00000000
,
00011000
00000000
00000000
01001000
00000000
00000000
01100000
00000000
,
10010000
00000000
00000000
00110000
00000000
00000000
01100000
00000000
,
11000000
00000000
00000000
00000000
00000000
00000000
10100000
00000000
00000000
00000000
10000000
01000000
10000000
01000000
10000000
00000000
,
00010000
01000000
00100000
10000000
00010000
00100000
00010000
10000000
,
11000000
01000000
00100000
00010000
00100000
01000000
00100000
00010000
,
00011000
00010000
00000100
00001000
00000010
00001000
00000100
00001000
,
00001001
00000000
00000001
00000000
00000100
00000001
00000000
00000001
00000010
00000000
00000100
00000000
00001000
00000100
00000000
00000100
,
00010000
00001000
01000000
00010000
00100000
00010000
01000000
00010000
,
00110000
00100000
00001000
00010000
00000100
00010000
00001000
01000000
,
00110000
00000000
00100000
00000000
00001000
00010000
00000000
00010000
00000100
00000000
00001000
00000000
00000010
00000100
00000000
00000100
,
00000001
00000010
00000100
00001000
00000100
00010000
00001000
01000000
,
10010000
00000000
00000000
00000000
00000000
00000000
00000000
00000000
00000000
00000000
00000000
00000000
00000000
00000000
00000000
00000000
00000000
00000000
00000000
00000000
00000000
00000000
00000000
00000000
00000000
00000000
00000000
00000000
00000000
00000000
00000000
00000000
00000000
00000000
00000000
00000000
00000000
00000000
00000000
00000000
00000000
00000000
00000000
00000000
00000000
00000000
00000000
00000000
10000000
00000000
00000000
00000000
00000000
00000000
00000000
00000000
01000000
00000000
00000000
00000000
00000000
00000000
00000000
00000000
00100000
00000000
00000000
00000000
00000000
00000000
00000000
00000000
00010000
00000000
00000000
00000000
00000000
00000000
00000000
00000000
00100000
00000000
00000000
00000000
00000000
00000000
00000000
00000000
00001000
00000000
00000000
00000000
00000000
00000000
00000000
00000000
00010000
00000000
00000000
00000000
00000000
00000000
00000000
00000000
00000100
00000000
00000000
00000000
00000000
00000000
00000000
00000000
00001000
00000000
00000000
00000000
00000000
00000000
00000000
00000000
00000010
00000000
00000000
00000000
00000000
00000000
00000000
00000000
00000100
00000000
00000000
00000000
00000000
00000000
00000000
00000000
00000001
00000000
00000000
00000000
00000000
00000000
00000000
00000000
00000010
00000000
00000000
00000000
00000000
00000000
00000000
00000000
00000000
00000000
00000100
00000000
00000000
00000000
00000000
00000000
00000000
00000000
00000000
00010000
00000000
00000000
00000000
00000000
00000000
00000000
00000000
00000000
00000000
00001000
00000000
00000000
00000000
00000000
00000000
00000000
00000000
00000000
00000000
00000000
00000000
00000000
00000000
00000000
00000000
00000000
00000000
00000000
,
00011000
00000000
00000000
00000000
00000000
00000000
00000000
00000000
00000000
00001000
01000000
00100000
00010000
00100000
10000000
01000000
,
10010000
00000000
00000000
01010000
00000000
00000000
00110000
00000000
,
00101000
00000000
00000000
00011000
00000000
00000000
00010100
00000000
,
00001100
00000000
00000000
00001010
00000000
00000000
00000101
00000000
,
00000011
00000000
00000000
00000110
00000000
00000000
00001100
00000000
,
00012000
00000000
00000000
00010000
00000000
00000000
00013000
00000000
00000000
00000000
00000000
00000000
00000000
00000000
00001000
00010000
,
00001000
00000000
00000000
00000000
00000000
00000000
00000000
00010000
,
00011000
00000000
00000000
00000000
00000000
00000000
00000000
00001000
,
01000000
00000000
01000000
00000000
00100000
00000000
00100000
00000000
10000000
00000000
00010000
01000000
00010000
01000000
00010000
00000000
,
00110000
00000000
00000000
11000000
00000000
00000000
10100000
00000000
,
01010000
00000000
00000000
00110000
00000000
00000000
00101000
00000000
,
00011000
00000000
00000000
00001100
00000000
00000000
00001010
00000000
,
00000101
00000000
00000000
00001100
00000000
00000000
00001100
00000000
,
00012000
00000000
00000000
00010000
00000000
00000000
00013000
00000000
00000000
00000000
00000000
00000000
00000000
00000000
00001000
00010000
,
00001000
00000000
00000000
00000000
00000000
00000000
00000000
00010000
,
00011000
00000000
00000000
00000000
00000000
00000000
00000000
00010000
,
00000100
00000000
00001000
00000000
00000010
00000000
00000100
00000000
00000001
00000000
00001000
00000100
00001000
00000100
00001000
00000000
,
00000100
00010000
00001000
01000000
00010000
00100000
01000000
10000000
,
01000000
10000000
00100000
01000000
00010000
00100000
00001000
00010000
,
00000000
00001000
00010000
00000100
00001000
00000010
00000100
00000001
,
00000000
00001000
00000100
00010000
00001000
01000000
00010000
00100000
,
00000000
00002000
00023000
00032000
,
01003000
00010000
00100000
01000000
10000000
01000000
00100000
00010000
,
00001000
00000100
00000010
00000001
00000010
00000001
00000100
00000010
,
00000100
00000100
00000010
00000010
00010000
00010000
00001000
00001000
,
01000000
01000000
00100000
00100000
10000000
10000000
00010000
00010000
,
10010000
00000000
20000000
32000000
,
03200000
00320000
00032000
00003200
,
00000320
00000032
00000203
00002300
,
00023000
00000000
00000000
00230000
00000000
00000000
00000000
20300000
00000000
00000000
00000000
00000000
,
00000000
30010000
00000000
00000000
00000000
00000000
00000000
00000000
00000000
00000000
00000000
00000000
;

//--------------- dance-double - Pandemonium X ----------------
#NOTES:
     dance-double:
     Pandemonium X:
     Hard:
     15:
     0,0,0,0,0:
00000000
00000000
00000000
00000000
,
00000000
00000000
00000000
00000000
,
00000000
00000000
00000000
00000000
,
00010000
00001000
00010000
00000100
00001000
00000010
00000100
00000001
00000010
00000100
00001000
00000100
,
00010000
00000000
00000000
00000000
00001000
00000000
00000000
00000000
01000000
00000000
00000000
00000000
00010000
00000000
00000000
00000000
00100000
00000000
00000000
00000000
01000000
00000000
00000000
00000000
10000000
00000000
00000000
00000000
01000000
00000000
00000000
00000000
00100000
00000000
00000000
00000000
00010000
00000000
00000000
01000000
00000000
00000000
00010000
00000000
00000000
00100000
00000000
00000000
,
00001000
00000000
00000000
00000000
00000000
00000000
00000000
00000000
00000000
00000000
00000000
00000000
00000000
00000000
00000000
00000000
00000000
00000000
00000000
00010000
00000000
00000000
00000000
00000000
00000000
00000000
00000000
00000000
00000000
00000000
00000000
00000000
00000000
00000000
00000000
00000000
00000000
00000000
00000000
00000000
00000000
00000000
00000000
00000000
00000000
00000000
00000000
00000000
00000000
00000000
00000000
00000000
00000000
00000000
00000000
00000000
00000000
00000000
00000000
00000000
00000000
00000000
00000000
00000000
00000000
00000000
00000000
00000000
00000000
00000000
00000000
00000000
00000000
00000000
00000000
00000000
00000000
00000000
00000000
00000000
00000000
00000000
00000000
00000000
00000000
00000000
00000000
00000000
00000000
00000000
00000000
00000000
00000000
00000000
00000000
00000000
00000000
00000000
00000000
00000000
00000000
00000000
00000000
00000000
00000000
00000000
00000000
00000000
00000000
00000000
00000000
00000000
00000000
00000000
00000000
00000000
00000000
00000000
00000000
00000000
00000000
00000000
00000000
00000000
00000000
00000000
00000000
00000000
00000000
00000000
00000000
00000000
00000000
00000000
00000000
00000000
00000000
00000000
00000000
00000000
00000000
00000000
00000000
00000000
00000000
00000000
00000000
00000000
00000000
00000000
00000000
00000000
00000000
00000000
00000000
00000000
00000000
00000000
00000000
00000000
00000000
00000000
00000000
00000000
00000000
00000000
00000000
00000000
00000000
00000000
00000000
00000000
00000000
00000000
00000000
00000000
00000000
00000000
00000000
00000000
00000000
00000000
00000000
00000000
00000000
00000000
00000000
00000000
00000000
00000000
00000000
00000000
,
00000100
00010000
00001000
01000000
00010000
00100000
01000000
10000000
,
00010000
00000000
01000000
00000000
00001000
00000000
00010000
00000000
00000100
00000000
00001000
00000001
00000020
00000000
00000000
00000000
,
00000130
00001000
00000100
00010000
00001000
01000000
00010000
00100000
,
01000000
00100000
00110000
00000000
00011000
00000000
00001010
00000000
,
00000101
00000001
00000010
00000100
00001000
00000100
00010000
00001000
,
01000000
00000000
00010000
00000000
00100000
00000000
01000000
00000000
10000000
00000000
00010000
01000000
00200000
00000000
00000000
00000000
,
10300000
01000000
00100000
00010000
00100000
00001000
00010000
00000100
,
00001000
00000000
00000100
00000000
00000010
00000000
00000001
00000000
00000100
00000000
00000010
00001000
00000100
00001000
00000001
00000000
,
00001000
00000100
00010000
00001000
01000000
00010000
00100000
01000000
,
00100000
00000000
00001000
00000000
00010000
00000000
00000010
00000000
00001000
00000000
00000010
00001000
00000200
00000000
00000000
00000000
,
00001300
00000010
00000001
00000010
00000100
00000001
00001000
00000100
,
00010000
00001000
01000000
00100000
00010000
00100000
10000000
01000000
,
00200000
00000000
00301000
00010000
00000200
00000000
00001300
00000010
,
00002000
00000000
00003010
00000100
00001000
00010000
00100000
01000000
,
00020000
00000000
00130000
01000000
20000000
00000000
31000000
00100000
,
00020000
01030000
00110000
00101000
,
00020000
00000000
00030100
00001000
00000020
00000000
00000130
00000001
,
00002000
00000000
00003100
00000001
00000100
00001000
00000010
00010000
,
00002000
00000000
00013000
00100000
02000000
00000000
13000000
00100000
,
02010000
00001000
00010000
03001000
,
00011000
00000000
00000000
10010000
00000000
00000000
01100000
00000000
,
10010000
00000000
00000000
00011000
00000000
00000000
00001001
00000000
,
00011000
00000000
00000000
10010000
00000000
00000000
10010000
00000000
,
00011000
00000000
00000000
00000000
00000000
00000000
00011000
00000000
00000000
00000000
00010000
00001000
00010000
00001000
00010000
00000000
,
00011000
00000000
00000000
00001001
00000000
00000000
00000110
00000000
,
00001001
00000000
00000000
00011000
00000000
00000000
10010000
00000000
,
00011000
00000000
00000000
00001001
00000000
00000000
00000110
00000000
,
00001001
00000000
00000000
00011000
00000000
00000000
10010000
00000000
,
10000000
01000000
00100000
00000000
01000000
00000000
10000000
00000000
00010000
00000000
01000000
00000000
00010000
00000000
00100000
00000000
,
00001000
00010000
00000010
00000000
00000100
00000000
00000001
00000000
00000010
00000000
00000100
00000000
00001000
00000000
00000100
00000000
,
00010000
00001000
00100000
00000000
00001000
00000000
00010000
00000000
00001000
00000000
01000000
00000000
00010000
00000000
00100000
00000000
,
00010000
01000000
00001000
00000000
00010000
00000000
00000100
00000000
00001000
00000010
00000100
00000000
00000001
00000000
00000010
00000000
,
00000100
00000010
00000001
00000000
00000010
00000000
00000001
00000000
00000100
00000000
00000010
00000000
00001000
00000000
00000100
00000000
,
00010000
00000100
00001000
00000000
00000100
00000000
00010000
00000000
00001000
00000000
01000000
00000000
00010000
00000000
00100000
00000000
,
00001000
00010000
00000100
00000000
00001000
00000000
00000010
00000000
00000100
00000001
00000010
00000000
00000100
00000000
00001000
00000000
,
00000100
00010000
00001000
00000000
01000000
00000000
00010000
00000000
00100000
00000000
01000000
00000000
10000000
00000000
00010000
00000000
,
10010000
00000000
00000000
00000000
00000000
00000000
00000000
00000000
10000000
00000000
00000000
00000000
00000000
00000000
00000000
00000000
01000000
00000000
00000000
00000000
00000000
00000000
00000000
00000000
00100000
00000000
00000000
00000000
00000000
00000000
00000000
00000000
00010000
00000000
00000000
00000000
00000000
00000000
00000000
00000000
00100000
00000000
00000000
00000000
00000000
00000000
00000000
00000000
01000000
00000000
00000000
00000000
00000000
00000000
00000000
00000000
10000000
00000000
00000000
00000000
00000000
00000000
00000000
00000000
00100000
00000000
00000000
00000000
00000000
00000000
00000000
00000000
01000000
00000000
00000000
00000000
00000000
00000000
00000000
00000000
00010000
00000000
00000000
00000000
00000000
00000000
00000000
00000000
00100000
00000000
00000000
00000000
00000000
00000000
00000000
00000000
00001000
00000000
00000000
00000000
00000000
00000000
00000000
00000000
00010000
00000000
00000000
00000000
00000000
00000000
00000000
00000000
00000100
00000000
00000000
00000000
00000000
00000000
00000000
00000000
00001000
00000000
00000000
00000000
00000000
00000000
00000000
00000000
00000010
00000000
00000000
00000000
00000000
00000000
00000000
00000000
00000100
00000000
00000000
00000000
00000000
00000000
00000000
00000000
00000001
00000000
00000000
00000000
00000000
00000000
00000000
00000000
00000010
00000000
00000000
00000000
00000000
00000000
00000000
00000000
00000000
00000000
00000000
00000100
00000000
00000000
00000000
00000000
00000000
00000000
00000000
00000000
00000000
00010000
00000000
00000000
00000000
00000000
00000000
00000000
00000000
00000000
00000000
00000000
00000000
00000000
00000000
00000000
00000000
00000000
00000000
00000000
,
00011000
00000000
00000000
00000000
00000000
00000000
00000000
00000000
00000000
00000000
00000000
00000000
00000000
00000000
00000000
00000000
00000000
00000000
00000010
00000000
00000100
00000000
00001000
00000000
00010000
00000000
00100000
00000000
01000000
00000000
10000000
00100000
,
10000000
01000000
00100000
00110000
00000000
00000000
00101000
00000000
,
00001000
00010000
00000100
00000010
00000000
00000000
00000101
00000000
,
00000001
00000100
00000010
00010000
00000000
00000000
00010100
00000000
,
00001000
00100000
00010000
10000000
00000000
00000000
01010000
00000000
,
00210000
00000000
00000000
00001000
00000000
00000000
00310000
00000000
00000000
00000000
00000000
00000000
00000000
00000000
00001000
00010000
,
00001000
00000000
00000000
00000000
00000000
00000000
00000000
00000100
,
00011000
00000000
00000000
00000000
00000000
00000000
00000000
00000000
00000000
00000000
00000000
00000000
00000000
00000000
00010000
00001000
,
00010000
00001000
00010000
00000100
00010000
00000100
00001000
00000100
00001000
00000010
00001000
00000010
00000100
00000001
00000100
00000001
,
00001000
00000100
00000010
00000011
00000000
00000000
00001010
00000000
,
00000010
00010000
00001000
00010000
00000000
00000000
01010000
00000000
,
00100000
10000000
00010000
00100000
00000000
00000000
00011000
00000000
,
00010000
00000100
00001000
00000010
00000000
00000000
00000101
00000000
,
00010200
00000000
00000000
00001000
00000000
00000000
00010300
00000000
00000000
00000000
00000000
00000000
00000000
00000000
00001000
01000000
,
00100000
00000000
00000000
00000000
00000000
00000000
00000000
01000000
,
10010000
00000000
00000000
00000000
00000000
00000000
00000000
00000000
00000000
00000000
00000000
00000000
00000000
00000000
00010000
00100000
,
00010000
01000000
00010000
01000000
00010000
00100000
00010000
00100000
00001000
00100000
00001000
00010000
00001000
00010000
00000100
00010000
,
00001000
00010000
00000100
00000000
00001000
00000000
00000010
00000000
00000100
00000001
00000010
00000000
00000100
00000000
00001000
00000000
,
00000100
00010000
00001000
00000000
01000000
00000000
00010000
00000000
00100000
01000000
10000000
00000000
01000000
00000000
10000000
00000000
,
00100000
01000000
00001000
00000000
00010000
00000000
00000100
00000000
00001000
00000010
00000100
00000000
00000001
00000000
00000010
00000000
,
00000100
00001000
00000010
00000000
00001000
00000000
00000001
00000000
00001000
00000000
00000100
00000000
00010000
00000000
00001000
00000000
,
00000000
00200000
00302000
00023000
,
00030100
00000100
00001000
00001000
00000010
00000010
00010000
00010000
,
00001000
00001000
01000000
01000000
00100000
00100000
10000000
10000000
,
00010000
00100000
00010000
00100000
01000000
10000000
01000000
10000000
00100000
10000000
00100000
10000000
00010000
01000000
00010000
01000000
,
00010000
00100000
00010000
00100000
00001000
00100000
00001000
00100000
00001000
00010000
00001000
00010000
00000100
00010000
00000100
00010000
,
00001000
00000000
00000000
01000000
00010000
00100000
00001000
00000000
00000000
00010000
00000100
00001000
,
00000010
00000000
00000000
00000100
00000001
00000010
00000100
00001000
00000100
00010000
00001000
01000000
,
00010000
00100000
01000000
10000000
00010000
00000000
10000000
00000000
00100000
01000000
00010000
00100000
00001000
00000000
00010000
00000000
,
00000100
00000000
00000000
00000000
00000000
00000000
00000000
00000000
00000000
00000000
00000000
00000000
00001000
00000000
00000000
00000000
00000000
00000000
00000000
00000000
00000000
00000000
00000000
00000000
00000010
00000000
00000000
00000000
00000000
00000000
00000000
00000000
00000000
00000000
00000000
00000000
00000100
00000000
00000000
00000000
00000000
00000000
00000000
00000000
00000000
00000000
00000000
00000000
00000001
00000000
00000000
00000000
00000000
00000000
00000000
00000000
00000000
00000000
00000000
00000000
00000010
00000000
00000000
00000000
00000000
00000000
00000000
00000000
00000000
00000000
00000000
00000000
00000100
00000000
00000000
00000000
00000000
00000000
00000000
00000000
00000000
00000000
00000000
00000000
00010000
00000000
00000000
00000000
00000000
00000000
00000000
00000000
00000000
00000000
00000000
00000000
00001000
00000000
00000000
00000000
00000000
00000000
00000000
00000000
00000000
00000000
00000000
00000000
00010000
00000000
00000000
00000000
00000000
00000000
00000000
00000000
00000000
00000000
00000000
00000000
00000000
00000000
00000000
00000000
00000000
00000100
00000000
00000000
00000000
00000000
00000000
00000000
00000000
00000000
00000000
00000000
00000000
00000000
00000000
00000000
00000000
00000000
00000000
00000000
00010000
00000000
00000000
00000000
00000000
00000000
00000000
00000000
00000000
00000000
00000000
00000000
00000000
00000000
00000000
00000000
00000000
00000000
00000000
00000000
00000000
00000000
00000000
00000000
00000000
00000000
00000000
00000000
00000000
00000000
00000000
00000000
00001000
00000000
00000000
00000000
00000000
00000000
00000000
00000000
00000000
00000000
00000000
00000000
00000000
00000000
00000000
00000000
,
00000000
00000000
00000000
00000000
00000000
00000000
00000000
00000000
00000000
00000000
00000000
00000000
00000000
00000000
00000000
00000000
00000000
00000000
00000000
00010000
00000000
00000000
00000000
00000000
00000000
00000000
00000000
00000000
00000000
00000000
00000000
00000000
00000000
00000000
00000000
00000000
00000000
00000000
00000000
00000000
00000000
00000000
00000000
00000000
00000000
00000000
00000000
00000000
00000000
00000000
00000000
00000000
00000000
00000000
00000000
00000000
00000000
00000000
00000000
00000000
00000000
00000000
00000000
00000000
00000000
00000000
00000000
00000000
00000000
00000000
00000000
00000000
00000000
00000000
00000000
00000000
00000000
00000000
00000000
00000000
00000000
00000000
00000000
00000000
00000000
00000000
00000000
00000000
00000000
00000000
00000000
00000000
00000000
00000000
00000000
00000000
00000000
00000000
00000000
00000000
00000000
00000000
00000000
00000000
00000000
00000000
00000000
00000000
00000000
00000000
00000000
00000000
00000000
00000000
00000000
00000000
00000000
00000000
00000000
00000000
00000000
00000000
00000000
00000000
00000000
00000000
00000000
00000000
00000000
00000000
00000000
00000000
00000000
00000000
00000000
00000000
00000000
00000000
00000000
00000000
00000000
00000000
00000000
00000000
00000000
00000000
00000000
00000000
00000000
00000000
00000000
00000000
00000000
00000000
00000000
00000000
00000000
00000000
00000000
00000000
00000000
00000000
00000000
00000000
00000000
00000000
00000000
00000000
00000000
00000000
00000000
00000000
00000000
00000000
00000000
00000000
00000000
00000000
00000000
00000000
00000000
00000000
00000000
00000000
00000000
00000000
00000000
00000000
00000000
00000000
00000000
00000000
;
