#TITLE:和風インザ洋風;
#SUBTITLE:;
#ARTIST:Super Momo Tarosans;
#TITLETRANSLIT:Wafuu in the youfuu;
#SUBTITLETRANSLIT:;
#ARTISTTRANSLIT:;
#GENRE:;
#CREDIT:;
#MUSIC:Wafuu in the youfuu.ogg;
#BANNER:;
#BACKGROUND:Wafuu in the youfuu-bg.png;
#CDTITLE:;
#SAMPLESTART:50.541;
#SAMPLELENGTH:12.966;
#SELECTABLE:YES;
#OFFSET:0.825;
#BPMS:0.000=153.000;
#STOPS:;
#BGCHANGES:;
#FGCHANGES:;

//--------------- dance-single - Pandemonium X ----------------
#NOTES:
     dance-single:
     Pandemonium X:
     Beginner:
     5:
     0,0,0,0,0:
0000
0000
0000
0000
,
0000
0000
0000
0000
,
0000
0000
0000
0000
,
0000
0000
0000
0000
,
0000
0000
0000
0000
,
1001
0000
0000
0000
,
0001
0000
0000
0000
,
1000
0000
0000
0000
,
0001
0000
0000
0000
,
1000
0000
0000
0010
,
0010
0000
0000
0100
,
0100
0000
0000
0001
,
0001
0000
1000
0000
,
0010
0000
0010
0000
,
0010
0000
0010
0010
,
0100
0000
0100
0000
,
0100
0100
0100
0010
,
1001
0000
0000
0000
,
1000
0000
0000
0000
,
0001
0000
0000
0000
,
1000
0000
0000
0000
,
0110
0000
0000
0001
,
0001
0000
0000
1000
,
1000
0000
0000
0010
,
0110
0000
0000
0000
,
0100
0000
0100
0000
,
0100
0000
0100
0100
,
0010
0000
0010
0000
,
0010
0010
0010
0000
,
1001
0000
0110
0000
,
1001
0000
0110
0110
,
1001
0000
0110
0000
,
1001
0110
1001
0000
,
0001
0000
1000
0000
,
0100
0100
0100
0000
,
1000
0000
0001
0000
,
0010
0100
0010
0100
,
1000
0000
0001
0000
,
0010
0010
0010
0000
,
0001
0000
0100
0000
,
0010
0010
0100
0100
,
0001
0000
1000
0000
,
0100
0100
0100
0000
,
0010
0000
0100
0000
,
1000
0100
1000
0010
,
0100
0000
0001
0000
,
0010
0010
0010
0000
,
0100
0000
1000
0000
,
0001
1000
0010
0100
,
0001
1000
0010
0100
,
1001
0000
0000
0000
,
0000
0000
0000
0000
,
0000
0000
0000
0000
,
1001
0110
1001
0110
,
0001
0001
0001
0000
,
1000
1000
1000
0000
,
0010
0010
0010
0000
,
0100
0100
0100
0000
,
0001
0000
0000
1000
,
0000
0000
0100
0000
,
0010
0000
0001
0000
,
0100
0000
0010
0000
,
1000
0000
0000
0000
,
1001
0000
0000
1001
0000
0000
0000
0000
;

//--------------- dance-single - Pandemonium X ----------------
#NOTES:
     dance-single:
     Pandemonium X:
     Easy:
     8:
     0,0,0,0,0:
0000
0000
0000
0000
,
0000
0000
0000
0000
,
0000
0000
0000
0000
,
0000
0000
0000
0000
,
0001
0100
0010
1000
0001
0000
1001
0000
,
1000
1100
0100
1000
,
0001
0101
0001
1000
,
0001
0011
1000
0001
,
0100
0101
0001
0100
,
0000
0001
0001
0000
1000
0000
0100
0000
,
1000
0010
0100
0001
,
1000
1000
0000
0000
0001
0000
1000
0000
,
0100
0000
0000
0100
0000
0000
0100
0000
0100
0000
0000
0000
0010
0000
0000
0000
,
0002
0013
0200
1300
,
0200
0310
0100
1000
,
0002
0103
0020
1030
,
0001
0100
0010
1000
,
1001
0001
1000
0100
,
1000
0001
0100
0001
,
1000
0010
1000
0001
,
0010
0001
1000
0001
,
0000
0100
0100
0000
0001
0000
0010
0000
,
0001
1000
0100
0010
,
0100
1000
0010
0100
,
0001
0000
0000
0001
0000
0000
0001
0000
0001
0000
0000
0000
1000
0000
0000
0000
,
0002
0013
0200
1300
,
0020
0130
0001
0010
,
0002
1003
0200
0310
,
0001
0100
0010
1000
,
1001
0000
0000
0001
1000
0000
0000
0001
,
1000
0000
0000
0001
1000
0001
1000
0001
,
1000
0000
0000
0001
1000
0000
0000
0000
,
0010
0010
0010
0010
0010
0000
1001
0000
,
1000
0100
1000
0010
,
0100
0001
0010
0001
,
1000
0100
1000
0001
,
0101
0011
0101
0011
,
0001
1000
0100
1000
,
0010
0100
0001
0010
,
0100
0100
1000
1000
,
1001
0110
1001
0110
,
1001
1000
0001
0100
,
0010
1000
0010
0100
,
0001
0010
0100
1000
,
1100
1010
1100
1010
,
0001
1000
0100
1000
,
0001
0010
0100
1000
,
1000
0001
0001
0100
,
0101
0011
0101
1001
,
1010
1100
1010
0110
,
2002
0000
0000
0000
,
0000
0000
0000
3003
,
0000
0000
0000
0000
,
1001
0110
1001
0110
,
0001
0000
0100
0000
0010
1000
0010
0000
,
1000
0000
0100
0000
0010
0001
0010
0000
,
0001
0000
0010
0000
0100
1000
0100
0000
,
1000
0000
0010
0000
0100
0001
0100
0000
,
0001
0000
0000
1000
0000
0000
0100
0000
,
0000
1000
0000
0000
0010
0000
0000
0100
,
0000
0000
0001
0000
0000
0010
0000
0000
,
0100
0000
0000
1000
0000
0000
0001
0000
,
2000
0000
0000
0000
0000
0000
0000
3001
,
0100
0000
0000
0100
0000
0000
0100
0000
0000
0000
0000
0000
0000
0000
0000
0000
;

//--------------- dance-single - Pandemonium X ----------------
#NOTES:
     dance-single:
     Pandemonium X:
     Medium:
     11:
     0,0,0,0,0:
0000
0000
0000
0000
,
0000
0000
0000
0000
,
0000
0000
0000
0000
,
0000
0000
0000
0000
,
0001
0100
0010
1000
1010
0000
1100
0000
,
0011
0000
0000
0000
0010
0000
0000
0001
0000
0000
0100
0000
0010
0000
0000
0000
,
0100
0000
0000
0000
0010
0000
0000
1000
0000
0000
0100
0000
0010
0000
0000
0000
,
0001
0000
0000
0000
0100
0000
0000
0010
0000
0000
0100
0000
0001
0000
0000
0000
,
1000
0000
0000
0000
0010
0000
0000
0100
0000
0000
0010
0000
1000
0000
0000
0000
,
0000
1001
1001
0000
0100
0000
1010
0000
,
0101
0100
0010
1010
,
1001
0001
0000
0000
0010
0000
0001
0000
,
0021
0000
0000
0100
0000
0000
0001
0000
0032
0000
0000
0000
1003
0000
0000
0000
,
0001
0000
0000
0001
0000
0000
0001
0000
1000
0000
0000
1000
0000
0000
1000
0000
,
0010
0000
0000
0010
0000
0000
0010
0000
0001
0000
0010
0000
1000
0000
0001
0000
,
0010
0000
0000
0010
0000
0000
0010
0000
0100
0000
0000
0100
0000
0000
0100
0000
,
0001
0100
1000
0001
0100
0000
0001
0000
,
1000
0000
0000
0000
0001
0000
0000
0100
0000
0000
0010
0000
1000
0000
0000
0000
,
0100
0000
0000
0000
0010
0000
0000
0001
0000
0000
1000
0000
0100
0000
0000
0000
,
1000
0000
0000
0000
0001
0000
0000
0010
0000
0000
0100
0000
0010
0000
0000
0000
,
0001
0000
0000
0000
1000
0000
0000
0100
0000
0000
0010
0000
0100
0000
0000
0000
,
0000
0011
1001
0000
1000
0000
0101
0000
,
0011
0001
1000
1010
,
1100
1000
0001
0101
,
0021
0000
0000
0001
0000
0000
0130
0000
2100
0000
0000
0000
3001
0000
0000
0000
,
1000
0000
0000
0010
0000
0000
0001
0000
0010
0000
0000
1000
0000
0000
0100
0000
,
0001
0000
0000
0100
0000
0000
1000
0000
0100
0000
0010
0000
0001
0000
1000
0000
,
0001
0000
0000
0010
0000
0000
1000
0000
0010
0000
0000
0001
0000
0000
0100
0000
,
1000
0100
0001
1000
0001
0000
1000
0000
,
1001
0000
0000
1000
1001
0000
0000
1000
,
1001
0000
0000
1000
1001
1000
1001
1000
,
1001
0000
0000
1000
1001
0000
0000
1000
,
0010
0010
0010
0010
0010
0000
1001
0000
,
0001
0000
0000
0000
0010
0000
0000
0001
0000
0000
0100
0000
0001
0000
0010
0000
,
0100
0000
1000
0000
0100
0000
0000
1000
0000
0000
0000
0000
0100
0000
1000
0000
,
0010
0000
0000
0000
0100
0000
0000
0001
0000
0000
0010
0000
0100
0000
1000
0000
,
1100
1100
0101
0101
,
1001
0000
0000
0000
1000
0000
0000
0001
0000
0000
0010
0000
0001
0000
0100
0000
,
0010
0000
1000
0000
0100
0000
0000
0010
0000
0000
0000
0000
0100
0000
0000
0000
,
1000
0000
0100
1000
0010
0000
0100
0001
,
0011
1100
0101
1010
,
1001
0000
0000
0000
0001
0000
0000
0100
0000
0000
0000
0000
0001
0000
0010
0000
,
0100
0000
0010
0000
0001
0000
0000
1000
0000
0000
0000
0000
0100
0000
1000
0000
,
0010
0000
0000
0000
0100
0000
0000
0001
0000
0000
1000
0000
0001
0000
0010
0000
,
0011
0101
1010
1100
,
1001
0000
0000
0000
1000
0000
0000
0100
0000
0000
1000
0000
0010
0000
0100
0000
,
0001
0000
0010
0000
0100
0000
0000
0010
0000
0000
0000
0000
0001
0000
0010
0000
,
0100
0000
0010
0001
1000
0000
0010
0100
,
2000
3200
0302
0023
,
2030
0000
0000
0000
3020
0000
0000
0000
0031
0000
0010
0100
1000
0000
0000
0000
,
2002
0000
0000
0000
,
0000
0000
0000
3003
,
0001
0000
0000
0010
0000
0000
0002
0000
0000
0000
0000
0000
0000
0000
0000
0000
,
0100
0010
1000
0103
,
1010
0010
1000
0100
0010
0001
0010
0000
,
0001
0010
0100
1000
0001
0100
0001
0000
,
1000
0010
1000
0001
0010
0001
1000
0000
,
0001
1000
0100
1000
0001
0100
0001
0000
,
0001
0000
0100
0010
0000
1000
0100
0000
,
0010
0001
0000
0010
0100
0000
1000
0010
,
0000
0100
0001
0000
0010
0100
0000
0010
,
0001
0000
0100
0010
0000
1000
0001
0000
,
2002
0000
0000
0000
0000
0000
3003
0100
,
0110
0000
0000
0110
0000
0000
0110
0000
0000
0000
0000
0000
0000
0000
0000
0000
;

//--------------- dance-single - Pandemonium X ----------------
#NOTES:
     dance-single:
     Pandemonium X:
     Hard:
     14:
     0,0,0,0,0:
0000
0000
0000
0000
,
0000
0000
0000
0000
,
0000
0000
0000
0000
,
0000
0000
0000
0000
,
0001
0001
1000
1000
1010
0000
1001
0000
,
0201
0000
0000
0000
0010
0000
0000
0001
0300
0001
1000
0000
0100
0000
1000
0000
,
1020
0000
0000
0000
0100
0000
0000
1000
0030
1000
0001
0000
1000
0000
0010
0100
,
0020
0000
0000
0000
1000
0000
0000
0100
0030
0100
0001
0000
1000
0000
0001
0000
,
0021
0000
0000
0000
0100
0000
0000
0001
0030
0001
0100
0000
0001
0010
0100
1000
,
0001
1001
1010
0000
1000
0100
1000
0001
,
0010
0000
0100
0010
0001
0000
0001
1000
0010
0000
0010
0100
0001
0000
0100
0000
,
0110
0000
1001
0000
0000
0000
0001
0000
0010
0000
0100
0000
0010
0001
0100
0001
,
2000
0000
0000
0001
0000
0000
0001
0000
3001
0000
0000
0000
1001
0000
0000
0000
,
1200
0000
0000
0310
0000
0000
0010
0000
0201
0000
0000
0310
0000
0000
0010
0000
,
1200
0000
0000
0310
0000
0000
0010
0000
0001
0000
0010
0000
0100
0000
1000
0001
,
0020
0000
0000
0130
0000
0000
0010
0000
0021
0000
0000
0130
0000
0000
0010
0000
,
1000
0010
0001
1000
1001
0000
1100
0000
,
1001
0000
1000
0000
0010
0000
0100
0001
0000
0001
1000
0000
0100
0000
0000
0000
,
1000
0000
0001
0000
0100
0000
0010
0100
0000
0100
0001
0000
1000
0000
0001
1000
,
0001
0000
1000
0000
0010
0000
0100
0001
0000
0001
1000
0000
0010
0000
0000
0000
,
1000
0000
0100
0000
0010
0000
0100
0010
0000
0001
0010
0000
0100
0000
1000
0000
,
0010
0110
1001
0000
0001
0100
0001
1000
,
0100
0010
0001
0100
0001
1000
0001
0000
,
1000
0010
0000
0010
0100
0000
0001
0000
0010
0001
0010
0000
0100
1000
0100
1000
,
0100
0000
0000
0011
0000
0000
0101
0000
1010
0000
0000
0000
0001
0000
0000
0000
,
0201
0000
0000
1300
0000
0000
0001
0000
0201
0000
0000
1300
0000
0000
0001
0000
,
0201
0000
0000
1300
0000
0000
0100
0000
0010
0000
1000
0000
0100
0000
0010
0000
,
0021
0000
0000
1030
0000
0000
0001
0000
0021
0000
0000
1030
0000
0000
1000
0000
,
0010
0100
1000
0010
0100
0000
0101
0000
,
1001
0000
0000
0100
1001
0000
0000
0100
,
1001
0000
0000
0100
1001
0100
1001
0100
,
1001
0000
0000
0100
1001
0000
0000
0100
,
2001
0001
0001
0001
3001
0000
1001
0000
,
0001
0000
0000
0000
1000
0000
0010
0100
0000
0000
0010
0000
1000
0000
0001
0000
,
0010
0000
0100
0000
0010
0000
0001
1000
0000
0000
0000
0000
0001
0000
1000
0000
,
0100
0000
0000
0000
0010
0000
0100
1000
0000
0000
0001
0000
1000
0000
0100
0000
,
1100
0011
0101
1010
,
1001
0000
0000
0000
0001
0000
1000
0001
0000
0000
0010
0000
0001
0000
0100
0000
,
0010
0000
1000
0000
0100
0000
0010
0100
0000
0000
0000
0000
0010
0000
0001
0000
,
0100
0000
0010
0000
1000
0001
1000
0000
0001
0010
0001
0000
1000
0100
1000
0000
,
1100
1010
0011
0101
,
1001
0000
0000
0000
1000
0000
0001
1000
0000
0000
0000
0000
0100
0000
0010
0000
,
0001
0000
0100
0000
0010
0000
0100
0010
0000
0000
0000
0000
0100
0000
0001
0000
,
1000
0000
0000
0000
0100
0000
0010
0100
0000
0000
0010
0000
0001
0000
1000
0000
,
1010
0101
0011
1100
,
1001
0000
0000
0000
1000
0000
0010
0100
0000
0000
0010
0000
0100
0000
0001
0000
,
1000
0000
0100
0000
0010
0000
0001
1000
0000
0000
0000
0000
0001
0000
0100
0000
,
0020
0000
0130
0001
0020
0000
0130
1000
,
1001
0011
1001
1010
,
1001
0000
0000
0000
1100
0000
0000
0000
1001
0000
0001
1000
0001
0000
0000
0000
,
1020
0000
0000
0000
0100
0000
0000
0100
0000
0000
0100
0000
0100
0000
0000
0000
,
1000
0000
0000
0000
1000
0000
0000
1000
0000
0000
1000
0000
1030
0000
0000
0000
,
0001
0000
0000
1000
0000
0000
0200
0000
0000
0000
0000
0000
0300
0000
0000
0000
,
1001
0011
1010
0101
,
1001
0000
0001
0000
1000
0000
0100
0010
0000
0010
0001
0000
0100
0010
0100
0000
,
0010
0000
1000
0000
0100
0000
0010
0001
0000
0001
0100
0000
0010
1000
0010
1000
,
0010
0000
0100
0000
0001
0000
0010
0001
0000
0001
1000
0000
0001
1000
0001
0000
,
0010
0000
0100
0000
1000
0000
0100
0010
0000
0010
0100
0000
0010
0001
1000
0010
,
0200
0000
0000
0301
0000
0000
0020
0000
0000
0000
0031
0000
2000
0000
0000
3100
,
0000
0000
0020
0000
0000
0000
0130
0000
2000
0000
0000
3010
0000
0000
0100
0000
,
0001
0000
1000
0000
0100
0000
0010
0100
0000
0010
0001
0000
0010
0000
0100
0000
,
1000
0000
0010
0000
0100
0000
0001
0010
0000
0100
0010
0000
0100
1000
0010
1000
,
0002
0000
0000
0000
0000
0000
0000
1003
,
1001
0000
0000
1001
0000
0000
1001
0000
0000
0000
0000
0000
0000
0000
0000
0000
;

//--------------- dance-double - Pandemonium X ----------------
#NOTES:
     dance-double:
     Pandemonium X:
     Easy:
     7:
     0,0,0,0,0:
00000000
00000000
00000000
00000000
,
00000000
00000000
00000000
00000000
,
00000000
00000000
00000000
00000000
,
00000000
00000000
00000000
00000000
,
00000000
00000000
00000000
00000000
,
00001000
00010000
00000100
00000100
,
00010000
00001000
01000000
01000000
,
00001000
00010000
00000100
00000100
,
00010000
00001000
01000000
01000000
,
00000000
00001000
00001000
00000000
00000000
00000000
00010000
00000000
,
00000100
00000000
00000000
00001000
,
00000010
00000010
00000000
00000000
00000000
00000000
00000100
00000000
,
00000001
00000000
00000000
00000001
00000000
00000000
00000001
00000000
00000001
00000000
00000000
00000000
00001000
00000000
00000000
00000000
,
00000200
00010300
00002000
01003000
,
00020000
10030000
10000000
00010000
,
02000000
03100000
00200000
00310000
,
00110000
00101000
00011000
00001100
,
00001001
00001000
00000010
00000100
,
00000010
00001000
00000001
00000010
,
00000001
00001000
00000100
00010000
,
00001000
01000000
00010000
00100000
,
00000000
01000000
01000000
00000000
00000000
00000000
10000000
00000000
,
00100000
00000000
00000000
01000000
,
00010000
00000000
00000000
00010000
,
10000000
00000000
00000000
10000000
00000000
00000000
10000000
00000000
10000000
00000000
00000000
00000000
00010000
00000000
00000000
00000000
,
00200000
00301000
00020000
00030100
,
00002000
00003010
00001000
00000001
,
00000020
00000130
00002000
00003100
,
00010000
00001000
00100000
00010000
,
10010000
00000000
10010000
00000000
,
10010000
00000000
10010000
10010000
,
10010000
00000000
10010000
00000000
,
10010000
01100000
10010000
10000000
,
00010000
00100000
00001000
00010000
,
00000010
00000100
00000001
00001000
,
00000100
00010000
00001000
01000000
,
01010000
10100000
01010000
10100000
,
00010000
10000000
00010000
00100000
,
00001000
00010000
00000100
00001000
,
00000010
00000100
00000001
00001000
,
00001001
00000110
00001001
00000110
,
00001001
00000001
00000100
00000010
,
00001000
00000100
00010000
00001000
,
01000000
00010000
00100000
01000000
,
11000000
00110000
11000000
00110000
,
00010000
00100000
00001000
00010000
,
00000010
00000010
00000010
00000100
,
00001000
00000100
00000001
00001000
,
00000100
00010000
00001000
01000000
,
00100000
00010000
00100000
10000000
,
12000000
00000000
00000000
00000000
,
00000000
00000000
00000000
03000000
,
00000000
00000000
00000000
00000000
,
01100000
10010000
01100000
10010000
,
00010000
00100000
00001000
00010000
,
00000100
00001000
00000010
00000100
,
00000001
00001000
00000100
00010000
,
00001000
01000000
00010000
00100000
,
01000000
00000000
00000000
10000000
00000000
00000000
00100000
00000000
,
00000000
01000000
00000000
00000000
00010000
00000000
00000000
00100000
,
00000000
00000000
00001000
00000000
00000000
00010000
00000000
00000000
,
00000100
00000000
00000000
00001000
00000000
00000000
00000010
00000000
,
00002002
00000000
00000000
00003003
,
00000010
00000000
00000000
00000010
00000000
00000000
00000010
00000000
00000000
00000000
00000000
00000000
00000000
00000000
00000000
00000000
;

//--------------- dance-double - Pandemonium X ----------------
#NOTES:
     dance-double:
     Pandemonium X:
     Medium:
     10:
     0,0,0,0,0:
00000000
00000000
00000000
00000000
,
00000000
00000000
00000000
00000000
,
00000000
00000000
00000000
00000000
,
00000000
00000000
00000000
00000000
,
00010000
00001000
00010000
00001000
00010000
00000000
00011000
00000000
,
02001000
00010000
00001000
03010000
,
00210000
00001000
00010000
00301000
,
00001200
00010000
00001000
00010300
,
00001020
00010000
00001000
00010030
,
00000000
00011000
00011000
00000000
00010000
00000000
10010000
00000000
,
10100000
10000000
01000000
01100000
,
00110000
00100000
00000000
00010000
01000000
00000000
00010000
00100000
,
00001000
00000000
00000000
00001000
00000000
00000000
00001000
00000000
00001000
00000000
00000000
00000000
00010000
00000000
00000000
00000000
,
00000100
00000000
00000000
00010000
00000000
00000000
00001000
00000000
01000000
00000000
00000000
00001000
00000000
00000000
00010000
00000000
,
00000100
00000000
00000000
00010000
00000000
00000000
00001000
00000000
00010000
00000000
00000000
00000000
00011000
00000000
00000000
00000000
,
00001000
00000000
00000000
00100000
00000000
00000000
00001000
00000000
00010000
00000000
00000000
00000010
00000000
00000000
00010000
00000000
,
00001000
01000000
10100000
10010000
,
11000000
00000000
00010000
00000000
01000000
00010000
00100000
00000000
,
00001000
00000000
00010000
00000000
00000100
00001000
00000010
00000000
,
00000100
00000000
00000010
00000000
00001000
00000100
00010000
00000000
,
00001000
00000000
01000000
00000000
00010000
00100000
01000000
00000000
,
00000000
11000000
10100000
00000000
00100000
00000000
01010000
00000000
,
00110000
00100000
00001000
00011000
,
00010100
00000100
00001000
00001010
,
00000001
00000000
00000000
00000001
00000000
00000000
00000001
00000000
00000001
00000000
00000000
00000000
00001000
00000000
00000000
00000000
,
00000100
00000000
00000000
00010000
00000000
00000000
00001000
00000000
01000000
00000000
00000000
00001000
00000000
00000000
00010000
00000000
,
00000100
00000000
00000000
00010000
00000000
00000000
00001000
00000000
00010000
00000000
00000000
00000000
00011000
00000000
00000000
00000000
,
00100000
00000000
00000000
00001000
00000000
00000000
00010000
00000000
00000010
00000000
00000000
00010000
00000000
00000000
00001000
00000000
,
01000000
00001000
00010000
00000100
00010000
00000000
00001000
00000000
,
00011000
00000000
00000000
00010000
00010000
00000000
00000000
00001000
,
00001000
00000000
00000000
00010000
00010000
00001000
00001000
00010000
,
00010000
00000000
00000000
00001000
00001000
00000000
00000000
00010000
,
00001000
00010000
00001000
00010000
00001000
00000000
00011000
00000000
,
00001000
01000000
00010000
00100000
,
01000000
00100000
00010000
00001000
00000100
00000000
00001000
00000000
,
00000010
00000100
00001000
00000100
,
00000101
00000011
00000110
00001001
,
00001000
00000100
00010000
00001000
,
00010000
00000100
00001000
00000010
00000100
00000000
00001000
00000000
,
00000100
00000000
00000000
00000001
00000010
00000000
00000100
00000010
,
00000011
00001100
00001010
00000101
,
00001001
00000001
00000100
00000010
,
00001000
00000100
00010000
00001000
01000000
00000000
00010000
00100000
,
01000000
00100000
00010000
10000000
,
11000000
10100000
10010000
01010000
,
10010000
00000000
00010000
00000000
00100000
00000000
01000000
00100000
,
00010000
01000000
00010000
01000000
00001000
00000000
00010000
00001000
,
00010000
00000000
00001000
00010000
00001000
00000000
00010000
00001000
,
00010000
00010100
00010000
00011000
,
00001000
00000000
01001000
00000000
00001000
00010000
00000100
00000000
,
00002020
00000000
00000000
00000000
,
00000000
00000000
00000000
00000000
00000000
00000000
00003030
00001000
,
00000010
00000000
00000000
00000100
00000000
00000000
00000020
00000000
00000000
00000000
00000000
00000000
00000000
00000000
00000000
00000000
,
00000100
00001000
00000100
00010030
,
00011000
00000000
00001000
00000000
01000000
00010000
00100000
00000000
,
01000000
00000000
10000000
00000000
00010000
00100000
00001000
00000000
,
00010000
00000000
00000010
00000000
00000100
00000001
00000010
00000000
,
00000100
00000000
00000010
00000000
00000001
00000100
00000010
00000000
,
00000100
00000010
00001000
00000100
,
00010000
00001000
01000000
00010000
,
00100000
01000000
00100000
00010000
,
00001000
00000100
00000010
00000001
,
00002002
00000000
00000000
00003003
,
00001001
00000000
00000000
00001001
00000000
00000000
00001001
00000000
00000000
00000000
00000000
00000000
00000000
00000000
00000000
00000000
;

//--------------- dance-double - Pandemonium X ----------------
#NOTES:
     dance-double:
     Pandemonium X:
     Hard:
     15:
     0,0,0,0,0:
00000000
00000000
00000000
00000000
,
00000000
00000000
00000000
00000000
,
00000000
00000000
00000000
00000000
,
00000000
00000000
00000000
00000000
,
00011000
00011000
00011000
00011000
00100010
00000000
00000110
00000000
,
00002001
00000000
00000000
00000000
00003010
00000000
00000100
00000010
00000000
00000010
00001000
00000000
00000100
00000000
00010000
00000000
,
00011000
00000000
00000000
00000000
01000000
00000000
00010000
00100000
00000000
00100000
01000000
00000000
10000000
00000000
00010000
00000000
,
20010000
00000000
00000000
00000000
30100000
00000000
01000000
00010000
00000000
00010000
00100000
00000000
00001000
00000000
00001000
00010000
,
00000200
00000000
00000000
00000000
00001300
00000000
00000001
00000100
00000000
00000001
00001000
00000000
00000001
00000100
00000010
00010000
,
00001000
00100000
00011000
00000000
00000100
00001000
00000010
00000001
,
00000010
00000000
00000100
00000001
00001000
00000000
00000100
00010000
00001000
00000000
00010000
00001000
01000000
00000000
00001000
00000000
,
01001000
00000000
01100000
00000000
00000000
00000000
00010000
00000000
10000000
00000000
00010000
00000000
10000000
01000000
00100000
00010000
,
00200000
00000000
00000000
00302000
00000000
00000000
00013000
00000000
00011000
00000000
00000000
00000000
00101000
00000000
00000000
00000000
,
00100000
00000000
00000000
00011000
00000000
00000000
00000010
00000000
00010000
00000000
00000000
00011000
00000000
00000000
00100000
00000000
,
00001000
00000000
00000000
00011000
00000000
00000000
00001000
00000000
00010000
00000000
00001000
00000000
00010000
00000000
00001000
00000000
,
01000000
00000000
00000000
00011000
00000000
00000000
00010000
00000000
00000100
00000000
00000000
00011000
00000000
00000000
01000000
00000000
,
00001000
00010000
00001000
00100000
00101000
00000000
00010100
00000000
,
00002010
00000000
00000000
00000000
00003010
00000000
00000100
00000001
00000000
00000010
00000100
00000000
00000010
00000000
00000001
00000000
,
00001001
00000000
00000000
00000000
00001010
00000000
00000010
00000100
00000000
00000001
00001000
00000000
00000100
00000000
00001000
00000100
,
00010000
00000000
00000000
00000000
00011000
00000000
00001000
01000000
00000000
00001000
00010000
00000000
00100000
00000000
01000000
00000000
,
01100000
00000000
00000000
00000000
11000000
00000000
10000000
00100000
00000000
00100000
01000000
00000000
01000000
00010000
01000000
00010000
,
01000000
01001000
00011000
00000000
00010000
00000010
00000100
00000001
,
00000010
00000100
00000010
00000001
00001000
00000100
00000010
00000000
,
00000010
00000100
00000000
00000100
00001000
00000000
00000100
00010000
00001000
00010000
00000100
00000000
00010000
00001000
01000000
00001000
,
00011000
00000000
00000000
00011000
00000000
00000000
00011000
00000000
00011000
00000000
00000000
00000000
00010000
00000000
00000000
00000000
,
00000100
00000000
00000000
00011000
00000000
00000000
01000000
00000000
00001000
00000000
00000000
00011000
00000000
00000000
00000100
00000000
,
00010000
00000000
00000000
00011000
00000000
00000000
00010000
00000000
00001000
00000000
00010000
00000000
00001000
00000000
00010000
00000000
,
00000010
00000000
00000000
00011000
00000000
00000000
00001000
00000000
00100000
00000000
00000000
00011000
00000000
00000000
00000010
00000000
,
00000100
00001000
00010000
00100000
01000000
00000000
01010000
00000000
,
00011000
00000000
00000000
00100000
00011000
00000000
00000000
00000010
,
00011000
00000000
00000000
00100000
00011000
00000010
00011000
00100000
,
00011000
00000000
00000000
00000010
00011000
00000000
00000000
00100000
,
00011000
00011000
00011000
00011000
00011000
00000000
01000100
00000000
,
00001000
00010000
00000100
00001000
00000010
00000100
00000001
00000010
,
00000100
00000000
00000010
00000000
00000001
00000010
00000000
00000001
00000000
00000000
00000000
00000000
00000100
00000000
00000001
00000000
,
00001000
00000100
00010000
00000100
00001000
00000010
00010000
00001000
,
00011000
10010000
00011000
00001001
,
00000101
00000100
00000001
00000010
00000001
00001000
00000100
00000001
,
00000100
00000000
00001000
00000000
00000010
00000000
00010000
00001000
00000000
00000000
00000000
00000000
00010000
00000000
00000000
00000000
,
02001000
00000000
03100000
00000000
10000000
00100000
10000000
00000000
00010000
01000000
00010000
00000000
10000000
00100000
10000000
00000000
,
10010000
00011000
00001001
00011000
,
10020000
00000000
00000000
00000000
01030000
00000000
01000000
00010000
00000000
00000000
00000000
00000000
00010000
00000000
00100000
00000000
,
00001000
00000000
00010000
00000000
00000010
00000000
00000100
00000001
00000000
00000000
00000000
00000000
00000010
00000000
00000001
00000000
,
00000100
00000010
00001000
00000100
00010000
00001000
01000000
00100000
,
10010000
00011000
00001001
00000110
,
00001001
00000000
00000000
00000000
00000101
00000000
00000010
00001000
00000000
00000000
00000100
00000000
00010000
00000000
00001000
00000000
,
01000000
00000000
00010000
00000000
00100000
00000000
10000000
00100000
00000000
00000000
00000000
00000000
00100000
00000000
00010000
00000000
,
00001000
00000000
00010000
00001000
00000010
00000000
00000100
00001000
,
00001100
00000110
00001010
00011000
,
01001000
00000000
00000000
00000000
01010000
00000000
00000000
00000000
01100000
00000000
01000000
00010000
10000000
00000000
00000000
00000000
,
00022000
00000000
00000000
00000000
00000000
00000000
00030000
00010000
,
00010000
00000000
00000000
00010000
00000000
00000000
00020000
00000000
00000000
00000000
00000000
00000000
00003000
00000000
00001000
00000000
,
00001000
00000000
00000000
00001000
00000000
00000000
00002000
00000000
00000000
00000000
00000000
00000000
00033000
00000000
00000000
00000000
,
00011000
00100010
00011000
01000100
,
00011000
00000000
00001000
00000000
01000000
00000000
00010000
00100000
00000000
01000000
10000000
00000000
01000000
00010000
00100000
00001000
,
00010000
00000000
00001000
00000000
00100000
00000000
00001000
00010000
00000000
00000100
00001000
00000000
00000010
00000100
00000001
00001000
,
00000100
00000000
00000010
00000000
00000001
00000000
00000100
00000001
00000000
00000010
00000100
00000000
00000010
00000001
00001000
00000010
,
00001000
00000000
00000100
00000000
00010000
00000000
00001000
01000000
00000000
01000000
00100000
00000000
00100000
00010000
00100000
10000000
,
00020000
00000000
00000000
00230000
00000000
00000000
02300000
00000000
00000000
00000000
13000000
00000000
02000000
00000000
00000000
03200000
,
00000000
00000000
00320000
00000000
00000000
00000000
00130000
00000000
00002000
00000000
00000000
00023000
00000000
00000000
00030200
00000000
,
00001300
00000010
00000100
00000001
00000010
00000001
00000100
00000010
00001000
00000100
00010000
00001000
01000000
00000000
10010000
00000000
,
00010000
10000000
01000000
00100000
00010000
00100000
00001000
00010000
00000010
00000100
00000001
00000010
00000100
00001000
00000100
00010000
,
00002000
00000000
00000000
00010000
00000000
00000000
00100000
00000000
00000000
01000000
00000000
00000000
00103000
00000000
00001000
00000000
,
00011000
00000000
00000000
10010000
00000000
00000000
01100000
00000000
00000000
00000000
00000000
00000000
00000000
00000000
00000000
00000000
;
