#TITLE:The Commanders;
#SUBTITLE:;
#ARTIST:USAO;
#TITLETRANSLIT:;
#SUBTITLETRANSLIT:;
#ARTISTTRANSLIT:;
#GENRE:;
#CREDIT:;
#MUSIC:The Commanders.ogg;
#BANNER:The Commanders-bn.png;
#BACKGROUND:The Commanders-bg.png;
#CDTITLE:;
#SAMPLESTART:85.104;
#SAMPLELENGTH:12.858;
#SELECTABLE:YES;
#OFFSET:-0.304;
#BPMS:0.000=150.000;
#STOPS:88.000=4.400
,121.000=1.200
;
#BGCHANGES:;
#FGCHANGES:;

//--------------- dance-single - Pandemonium X ----------------
#NOTES:
     dance-single:
     Pandemonium X:
     Beginner:
     4:
     0,0,0,0,0:
0000
0000
0000
0000
,
0000
0000
0000
0000
,
0000
0000
0000
0000
,
0000
0000
0000
0000
,
0000
0000
0000
0000
,
0001
0000
0000
1000
,
1000
0000
0000
0000
,
0010
0000
0000
0000
,
0100
0010
1001
0000
,
0001
0000
1000
0000
,
0010
0000
1000
0000
,
0001
1000
1000
0000
,
0001
0000
0000
0000
,
0010
0000
0100
0000
,
0010
0000
0000
0001
,
1000
0100
0100
0000
,
1000
0000
0001
0000
,
0110
0000
0001
0000
,
1000
0000
0010
0000
,
1000
0001
0001
0000
,
1000
0000
0001
0000
,
0110
0000
0000
0000
,
0000
0001
0000
0000
,
0000
1000
0000
0000
,
0000
0010
0000
0000
,
0000
0100
0000
0000
,
0000
0001
0000
0000
,
0000
1000
0000
0000
,
0000
0001
0000
0000
,
0000
0000
0000
0000
,
0000
0110
0000
0000
,
0000
0000
0000
0000
,
0000
0000
0000
0000
,
0000
0000
1000
0000
,
0001
0000
1000
0000
,
0001
0000
0100
0000
,
0010
0000
0100
0000
,
0010
0000
1000
0000
,
0001
0000
0010
0000
,
0001
0000
1000
0000
,
0010
0000
1000
0000
,
0100
0000
1000
0000
,
0001
0000
0100
0000
,
0001
0000
1000
0000
,
0100
0000
1000
0000
,
0001
0000
0100
0000
,
0000
0000
0010
0000
,
0000
0000
1000
0000
,
0000
0000
0001
1000
,
1001
0000
0001
0000
,
0001
0000
0001
0001
,
0001
0000
1000
0000
,
1000
0000
1000
1000
,
1000
0000
0010
0000
,
0010
0000
0010
0010
,
0010
0000
0100
0000
,
0100
0000
0100
0100
,
0100
0000
0001
1000
,
1000
0001
1001
0000
,
0000
0000
1000
0000
,
0001
0000
0010
0000
,
0100
0000
1000
0001
,
1000
1000
1001
0000
,
0000
0000
0001
0000
,
1000
0000
0100
0100
,
0100
0000
0010
0000
,
0001
0000
0100
0001
,
0100
0000
0010
0000
,
1000
0000
0100
0010
,
0100
0000
1000
0000
,
0001
0000
0100
0010
,
0100
0000
0010
0000
,
1000
0000
0001
0000
,
1000
0001
0110
0000
;

//--------------- dance-single - Pandemonium X ----------------
#NOTES:
     dance-single:
     Pandemonium X:
     Easy:
     7:
     0,0,0,0,0:
0000
0000
0000
0000
,
0000
0000
0000
0000
,
0000
0000
0000
0000
,
0000
0000
0000
0000
,
0000
0000
0000
0000
,
0001
0000
1000
0000
,
0010
0000
0100
0000
,
0001
1000
0010
0100
,
0002
0010
0020
0033
,
1100
1000
0100
0100
,
1000
0001
0100
0001
,
0010
0100
0100
0100
,
0010
0001
1000
0010
,
0100
0001
1000
1000
,
0001
0010
0001
0001
,
0100
0010
0010
0010
,
0100
0001
2000
3000
,
0100
1000
0010
0010
,
0100
0001
0010
0001
,
1000
0001
0001
0001
,
1000
0001
0100
0010
,
1001
0000
0000
0000
,
0000
0002
0000
0000
,
0003
2000
0000
0000
,
3000
0200
0000
0000
,
0300
0020
0000
0000
,
0030
0200
0000
0000
,
0300
2000
0000
0000
,
3000
2002
0000
0000
,
0000
0000
0000
0000
,
0000
3003
0000
0000
,
0000
0000
0001
0001
,
0001
0001
0001
0001
,
0001
1000
0001
0000
1000
0000
0000
0000
,
0010
0000
0100
0001
,
0100
0000
0001
0000
,
0010
0000
0100
1000
,
0100
0000
1000
1000
,
0001
0001
0100
0100
,
0010
0010
0100
0001
,
0100
1000
0100
0001
,
1000
0000
0001
1000
,
0100
0000
1000
0001
,
0100
0000
0001
1000
,
0010
0000
1000
0001
,
0010
0000
0011
0000
,
1100
0000
1010
0000
,
0101
0000
1001
0000
,
0000
0000
0002
2003
,
0002
3003
1001
0001
,
1000
0010
1000
0100
,
0010
0100
1000
0001
,
0100
0001
0010
0001
,
1000
0001
0100
0010
,
1000
0100
1000
0001
,
0010
0100
1000
0100
,
1000
0010
0100
0001
,
1000
0001
0100
0001
1000
0000
0010
0100
,
0010
0000
0000
0000
1000
0000
0000
0000
0001
0000
0000
0001
0000
0000
0001
0000
,
2000
0000
0000
0001
3001
0000
0100
0000
,
0001
1000
0100
1000
,
0001
0000
1000
0000
0100
0000
0010
0100
,
0010
0000
0000
0000
0100
0000
0000
0000
1000
0000
0000
1000
0000
0000
1000
0000
,
0002
0000
0000
1000
1003
0000
0001
0000
,
0100
0010
2000
0000
,
3000
0000
1001
1000
,
0010
0001
0010
1000
,
0001
0110
1001
1000
,
0100
0001
0100
1000
,
1001
0000
0110
0000
1001
0000
1000
0001
,
1000
1001
0001
0100
,
0020
0000
0000
0000
1030
0000
0100
0010
,
0100
0000
0000
0100
0000
0000
0100
0000
0000
0000
0000
0000
0010
0000
0000
0000
,
0001
0000
0000
1000
0000
0000
0001
0000
0100
0000
0000
0000
0000
0000
0000
0000
;

//--------------- dance-single - Pandemonium X ----------------
#NOTES:
     dance-single:
     Pandemonium X:
     Medium:
     12:
     0,0,0,0,0:
0000
0000
0000
0000
,
0000
0000
0000
0000
,
0000
0000
0000
0000
,
0000
0000
0000
0000
,
0000
0000
0000
0000
,
1200
0000
0310
0001
0010
0001
0200
0000
,
0310
0000
2000
0000
3001
0100
0001
0100
,
0001
0000
1000
0010
1000
0010
1000
0000
,
1001
0000
1000
0100
0010
0001
1001
0000
,
0001
0000
0100
0010
1000
0001
0100
0001
,
1000
0000
0100
2000
0000
3001
0100
0001
,
0100
0000
0010
0001
0010
1000
0001
0000
,
0010
0000
0100
0010
0001
1000
0010
0000
,
2001
0000
3100
0010
0100
1000
0001
0100
,
0001
0000
0010
0200
0000
0310
0001
0010
,
0001
0000
0010
1000
0010
0100
1000
0001
,
0200
0000
0310
1000
0002
0000
2003
3200
,
0310
0000
0100
1000
0010
0100
0010
0100
,
0001
0000
1000
0002
0000
0013
0100
0010
,
0100
0000
1000
0010
0001
0010
0100
1000
,
0001
0000
0001
0010
0001
0100
0101
0000
,
1001
0000
0000
0000
,
0000
0000
0001
0100
0001
0000
0100
0000
,
0001
0000
1000
0100
1000
0000
0100
0000
,
1000
0000
0010
1000
0010
0000
1000
0000
,
0001
0000
0010
0001
0010
0000
0100
0010
,
1001
0000
0001
0100
0001
0000
0100
0000
,
0010
0000
1000
0010
1000
0000
0010
0000
,
0100
0000
0001
0010
0001
0000
0010
0000
,
0100
0000
1000
0100
1000
0000
0001
0000
,
1000
0110
0000
0000
,
0000
0000
0001
0001
,
1000
1000
0001
1000
,
0001
1000
1001
0000
1000
0000
0010
1000
,
0100
1000
0010
1000
0000
0100
0010
0100
,
0000
1000
0010
1000
0001
0000
0001
1000
,
0001
1000
0100
1000
0000
0100
0010
0100
,
0000
0010
0001
1000
0001
0000
1000
0001
,
0100
0010
1000
0100
0000
0010
0001
0010
,
0000
0001
0100
0001
1000
0000
0001
1000
,
0000
0010
0100
0001
0000
0000
0010
0100
,
1000
0000
0000
1000
0000
0000
1000
0000
0001
0000
0000
0000
0010
0000
0001
0000
,
0100
0010
0100
0001
0000
1000
0100
1000
,
0000
0010
1000
0010
0100
0000
0010
0100
,
0001
1000
0001
0100
0000
0001
0010
0001
,
0000
0010
0100
0010
0100
0000
1100
0000
,
1000
1010
0010
0110
,
0100
0000
0101
0000
0001
0100
0010
1000
,
0001
0100
0010
1000
0000
0000
0000
0000
,
0000
0000
0000
0000
0001
0010
0001
0100
,
0001
0010
0001
0100
0000
0010
1000
0100
,
0000
0000
0010
0001
0010
0000
0001
0000
1000
0000
0000
0000
0100
0000
1000
0000
,
0010
0000
0100
0000
0010
0000
0100
0000
0000
0000
0001
0000
1000
0100
1000
0000
,
0000
0000
0001
0100
0001
0000
0100
0000
0010
0000
1000
0000
0100
0000
1000
0000
,
0010
1000
0100
1000
0000
0001
0100
0001
,
0000
0000
0100
0010
0100
0000
0010
0000
0100
0000
0000
0000
0010
0000
1000
0000
,
0000
0001
0010
0200
0000
0000
0310
0001
,
1000
0000
0001
1000
0000
0001
1000
0000
1001
0000
0000
0000
1000
0000
0001
0000
,
1001
0000
0000
0000
1010
0000
0000
0000
1001
0000
0000
1001
0000
0000
1001
0000
,
0000
0000
0000
0000
0000
0000
1000
0100
1000
0000
0000
0000
0100
0000
0010
0000
,
0001
0000
0100
0000
0001
0000
0010
0000
0000
0000
0100
0000
0010
0100
0010
0000
,
0000
0000
0001
1000
0001
0000
1000
0000
0010
0000
0000
0000
0100
0000
0001
0000
,
1001
0000
0000
0000
0011
0000
0000
0000
1001
0000
0000
1001
0000
0000
1001
0000
,
0000
0000
0000
0000
0011
0000
0001
0100
,
0000
0010
1000
0200
1000
0000
1000
0000
,
1300
0001
0100
0000
1010
0000
0001
0100
,
0010
0000
0100
0000
0001
0000
1000
0000
0100
1000
0100
0000
1000
0000
0001
0000
,
0100
0000
0010
0100
0000
0010
0100
0000
0001
0000
0000
0000
1000
0000
0100
0000
,
1000
0001
0100
0001
0010
0100
0010
0001
,
0100
0000
0010
0100
0010
0000
1000
0000
0200
0000
0000
0000
0310
0000
0001
0000
,
0100
0000
0010
0000
1000
0000
0001
0000
1000
0100
1000
0000
0001
0000
0100
0000
,
0002
2003
3200
2300
3001
0000
0100
0201
,
0000
0000
0301
0000
1000
0000
2001
0000
0000
0000
0000
0000
3100
0010
0100
0000
,
0010
0000
0001
0010
0000
0100
1000
0000
1001
0000
0000
0000
0000
0000
0000
0000
;

//--------------- dance-single - Pandemonium X ----------------
#NOTES:
     dance-single:
     Pandemonium X:
     Hard:
     14:
     0,0,0,0,0:
0000
0000
0000
0000
,
0000
0000
0000
0000
,
0000
0000
0000
0000
,
0000
0000
0000
0000
,
0000
0000
0000
0000
,
0001
1000
0100
0010
0100
0010
0110
0000
,
1001
1000
0010
0100
0010
0100
0110
0000
,
1001
0000
1000
0001
1000
0001
1000
0000
,
0110
0000
0001
0010
0100
1000
1001
0000
,
0101
0000
0001
1000
1000
1000
1000
0001
,
0010
0000
0000
0000
0100
0000
0020
0000
0000
0000
0031
0100
0001
0100
0001
0100
,
0001
1000
0001
0001
0001
0001
1001
0000
,
1010
0000
1000
0000
0100
1000
0100
1000
0100
1000
0100
1000
0100
0000
0000
0000
,
1001
1000
0100
0010
1000
0010
0001
0100
,
0010
0000
0000
0000
0100
0000
0002
0000
0000
0000
1003
0010
1000
0010
1000
0010
,
1000
0001
0100
1000
0100
0010
1000
0100
,
0010
0000
0000
0000
0001
1000
0001
1000
0200
0000
0000
0000
0310
0001
0010
0000
,
0100
1000
0010
0100
1000
0100
0001
1000
,
0100
0000
1000
0000
0001
0000
2000
0000
0000
0000
3001
0010
0001
0010
0001
0010
,
0001
1000
0100
0001
0100
0010
0001
1000
,
0010
0000
0000
0000
1000
0000
0001
1000
0001
0000
1000
0000
0001
0000
0010
0000
,
1100
0000
0000
0000
,
0000
0000
0001
1000
0001
0000
0010
0000
,
0011
0000
1000
0001
1000
0000
0010
0000
,
1010
0000
0010
0100
0010
0000
1000
0000
0001
0000
0000
0000
1000
0000
0000
0000
,
0100
0000
0010
0000
0001
1000
0001
0000
0100
0000
0010
1000
0010
0100
0010
0100
,
0001
0000
1000
0001
1000
0000
0100
0000
0010
0000
0000
0000
0001
0000
0000
0000
,
0011
0000
0001
0010
0100
0000
1000
0000
,
1100
0000
1000
0001
1000
0000
0001
0000
0100
0000
0000
0000
0001
1000
0001
1000
,
0001
0000
0000
0000
0100
0010
0100
0001
1000
0000
0001
0000
1000
0000
0001
0000
,
0010
0100
0010
0001
1000
0000
0000
0000
0000
0000
0000
0000
0000
0000
0000
0000
,
0000
0000
0001
1000
,
0001
1000
0001
1000
,
0001
1000
0110
0000
0002
0000
1003
0001
,
0010
0001
1000
0020
0000
1030
0001
2000
,
0000
0000
3001
0100
0001
0000
1000
0000
0001
0000
0000
0000
1000
0000
0100
0000
,
1000
0000
0001
0000
0100
0000
0002
0000
0000
0000
1003
0000
0001
0010
0200
0000
,
0000
0000
0310
0001
0100
0000
0010
0000
1000
0000
0000
0000
0001
0000
1000
0000
,
0001
0100
0001
0020
0000
0130
1000
0002
,
0000
0000
0103
0010
0100
0000
0001
0000
1000
0000
0000
0000
0100
0000
0010
0000
,
0000
0100
0010
0000
0100
0000
2000
0000
0000
0000
0000
0000
3001
0100
0001
0000
,
1000
0000
0001
0100
0000
0010
1000
0000
0002
0000
0000
0000
0103
0000
0001
0000
,
0010
0100
0010
0002
0000
0013
0100
0020
,
0000
0000
0130
1000
0001
0000
0100
0000
0010
0000
0000
0000
0100
0000
0001
0000
,
0100
0000
0010
0000
0100
0000
0002
0000
0000
0000
1003
0000
0100
0010
0200
0000
,
0000
0000
0310
0001
1000
0000
0001
0000
1001
0000
0000
0000
0001
0000
1000
0000
,
0001
0010
0100
1000
1001
0000
0001
1000
,
0001
0010
0100
1000
1001
0000
1001
0000
,
0001
0000
1000
0000
0001
1000
0001
1000
0000
0000
0000
0000
0000
0000
0000
0000
,
0000
0000
0000
0000
0001
1000
0100
0001
,
0100
1000
0010
0200
0000
0310
1000
0002
,
0000
0000
0013
0100
1000
0000
0010
0000
0100
0000
0000
0000
0010
0000
0100
0000
,
1000
0000
0100
0000
0010
0000
2000
0000
0000
0000
3001
0000
0010
0100
0020
0000
,
0000
0000
0031
0100
0001
0000
1000
0000
0001
0000
1000
0000
0100
0000
0001
0000
,
0100
1000
0010
0200
0000
0310
1000
0002
,
0000
0000
0013
0100
1000
0000
0001
0000
1000
0000
0000
0000
0010
0000
2000
0000
,
0000
0000
3010
0000
0100
0000
0002
0000
0000
0000
0000
0000
1003
0100
1000
0000
,
0001
0000
1000
0100
0000
0100
0010
0000
0011
0000
0000
0000
0001
0000
0100
0000
,
1010
0000
0000
0000
1100
0000
0000
0000
1001
0000
0000
1001
0000
0000
1001
0000
,
0002
0000
2003
0000
3002
0000
1003
0100
1000
0000
0000
0000
0001
0000
0100
0000
,
0010
0000
0001
0000
0010
0000
2000
0000
0000
0000
3001
0000
1000
0100
0020
0000
,
0000
0000
0130
1000
0001
0000
1000
0000
1001
0000
0000
0000
1000
0000
0100
0000
,
0011
0000
0000
0000
0101
0000
0000
0000
1001
0000
0000
1001
0000
0000
1001
0000
,
2000
0000
3200
0000
1300
0010
1000
0000
1001
0000
0000
0000
0001
0000
1000
0000
,
0000
0100
0010
0000
0100
0000
2000
0000
0000
0000
0000
0000
3001
0000
0000
0000
,
0100
0010
1000
0001
1001
0000
1000
0100
,
0010
0000
1000
0000
0010
0000
0001
0000
0100
0010
0001
0000
0010
0000
0100
0001
,
1000
0000
0001
1000
0000
0001
1000
0000
1001
0000
0000
0000
0001
0000
0010
0000
,
0100
0001
0100
1000
0010
0001
0010
0100
,
0001
0000
1000
0001
1000
0000
0001
0000
0200
0000
0000
0000
0310
0000
0001
0000
,
0010
0000
0100
0000
0001
0000
1000
0000
0100
0001
0100
0000
1000
0000
0010
0000
,
0200
0302
2003
3200
0310
0000
0001
0010
,
0000
0100
1000
0000
0001
0000
0200
0000
0000
0000
0000
0000
0301
1000
0001
0000
,
1001
0000
1000
0010
0000
0100
0001
0000
1001
0000
0000
0000
0000
0000
0000
0000
;

//--------------- dance-single - Pandemonium X ----------------
#NOTES:
     dance-single:
     Pandemonium X:
     Challenge:
     15:
     0,0,0,0,0:
0000
0000
0000
0000
,
0000
0000
0000
0000
,
0000
0000
0000
0000
,
0000
0000
0000
0000
,
0000
0000
0000
0000
,
1000
0001
0010
0010
0010
0010
0110
0000
,
1001
0000
0001
0000
0200
0000
0000
0000
0310
1000
0010
1000
0010
0000
1000
0000
,
1001
0000
0001
0001
0001
0001
0001
0000
,
1001
0000
1000
0100
0001
0010
1000
0000
,
0101
0100
0001
1000
1000
1000
1000
0001
,
0010
0000
0000
0000
0100
0000
0020
0000
0000
0000
0031
0100
0001
0100
0001
0100
,
0001
1000
0001
0001
0001
0001
1001
0000
,
1010
0000
1000
0000
0100
1000
0100
1000
0100
1000
0100
1000
0100
0000
0000
0000
,
1001
0001
0010
0100
0100
0100
0100
0010
,
0100
0000
0000
0000
0010
0000
0002
0000
0000
0000
1003
0010
1000
0010
1000
0010
,
1000
0001
0100
0100
0100
0100
0110
0100
,
1001
0000
0000
0000
0001
1000
0001
1000
0200
0000
0000
0000
0320
0032
2003
0000
,
3100
1000
0010
0100
0100
0100
0100
0100
,
0001
0000
1000
0000
0001
0000
0200
0000
0000
0000
0301
0010
0001
0010
0001
0010
,
0001
1000
0100
0100
0100
0100
0010
0001
,
0101
0000
0000
0000
1010
0000
1000
0100
0010
0000
0001
0000
0010
0000
0100
0000
,
1001
0000
0000
0000
,
0110
0000
0001
1000
0001
0000
0010
0000
,
0011
0000
1000
0001
1000
0000
0010
0000
,
1010
0000
0010
0100
0010
0000
1000
0000
0001
0000
0000
0000
1000
0000
0000
0000
,
0100
0000
0010
0000
0001
1000
0001
0000
0100
0000
0010
1000
0010
0100
0010
0100
,
0001
0000
1000
0001
1000
0000
0100
0000
0010
0000
0000
0000
0001
0000
0000
0000
,
0011
0000
0001
0010
0100
0000
1000
0000
,
1100
0000
1000
0001
1000
0000
0001
0000
0100
0000
0000
0000
0001
1000
0001
1000
,
0001
0000
0000
0000
0100
0010
0100
0001
1000
0000
0001
0000
1000
0000
0001
0000
,
0010
0100
0010
0001
1000
0000
0000
0000
0001
0000
1000
0000
0001
0000
1000
0000
,
0001
1000
0001
1000
1001
0001
1001
1000
,
1001
0001
1001
1000
1001
0001
1001
1000
,
1001
0110
1001
0000
0102
0000
1003
0001
,
0010
0001
1000
1020
0000
1030
0001
2001
,
0000
0000
3001
0100
0001
0000
1000
0000
1001
0000
0000
0000
1000
0000
0100
0000
,
1000
0000
0001
0000
0100
0000
0102
0000
0000
0000
1003
0000
0001
0010
0200
0000
,
0000
0000
0310
0001
0100
0000
0010
0000
1000
0000
1000
0000
0001
0000
1000
0000
,
0001
0100
0001
0021
0000
0130
1000
1002
,
0000
0000
0103
0010
0100
0000
0001
0000
1000
0000
0000
0000
0001
0000
0010
0000
,
0000
0100
0010
0000
0100
0000
0120
0000
0000
0000
0000
0000
0031
0100
0001
0000
,
1000
0000
0001
0100
0000
0010
1000
0000
1002
0000
0000
0000
0103
0000
0001
0000
,
0010
0100
0010
0012
0000
0013
0100
0120
,
0000
0000
0130
1000
0001
0000
0100
0000
0110
0000
0000
0000
0100
0000
0001
0000
,
0100
0000
0010
0000
0100
0000
0102
0000
0000
0000
1003
0000
0100
0010
0200
0000
,
0000
0000
0310
0001
1000
0000
0001
0000
1001
0000
0000
0000
0001
0000
1000
0000
,
0001
0010
0100
1000
1001
0000
0001
1000
,
0001
0010
0100
1000
1001
0000
1001
0000
,
1001
0000
1001
0000
0001
1000
0001
1000
0000
0000
0000
0000
0001
0000
0100
0000
,
1000
0010
0001
0000
0001
1000
0100
0001
,
0100
1000
0010
0210
0000
0310
1000
1002
,
0000
0000
0013
0100
1000
0000
0010
0000
0110
0000
0000
0000
0110
0000
0100
0000
,
1000
0000
0100
0000
0010
0000
2010
0000
0000
0000
3001
0000
0010
0100
0020
0000
,
0000
0000
0031
0100
0001
0000
1000
0000
0001
0000
1000
0000
0100
0000
0001
0000
,
0100
1000
0010
0210
0000
0310
1000
1002
,
0000
0000
0013
0100
1000
0000
0001
0000
1001
0000
0000
0000
1010
0000
2100
0000
,
0000
0000
3010
0000
0100
0000
0102
0000
0000
0000
0000
0000
1003
0100
1000
0000
,
0001
0000
1000
0100
0000
0100
0010
0000
0011
0000
0000
0000
1100
0000
0011
0000
,
1100
0000
0000
0000
1001
0000
0000
0000
1001
0000
0000
0110
0000
0000
1001
0000
,
0002
0000
2003
0000
3002
0000
1003
0100
1000
0000
0000
0000
0001
0000
0100
0000
,
0010
0000
0001
0000
0010
0000
2010
0000
0000
0000
3001
0000
1000
0100
0020
0000
,
0000
0000
0130
1000
0001
0000
1000
0000
1001
0000
0000
0000
1010
0000
0101
0000
,
1010
0000
0000
0000
1001
0000
0000
0000
1001
0000
0000
0110
0000
0000
1001
0000
,
2000
0000
3200
0000
0310
0001
1000
0000
1001
0000
0000
0000
0001
0000
2000
0000
,
0000
3100
0010
0000
0100
0000
2100
0000
0000
0000
0000
0000
3000
0000
0000
0000
,
0200
0320
0032
2003
3001
0000
1000
0100
,
0010
0000
1000
0000
0010
0000
0001
0000
0100
0010
0001
0000
0010
0000
0100
0001
,
1000
0000
0001
1000
0000
0001
1000
0000
1001
0000
0000
0000
0001
0000
0010
0000
,
0100
0001
0100
1000
0010
0001
0010
0100
,
0001
0000
1000
0001
1000
0000
0001
0000
0200
0000
0000
0000
0310
0000
0001
0000
,
0010
0000
0100
0000
0001
0000
1000
0000
0100
0001
0100
0000
1000
0000
0010
0000
,
0200
0302
2003
3200
0310
0000
0001
0020
,
0000
0130
1000
0000
0001
0000
0201
0000
0000
0000
0000
0000
0301
1000
0001
0000
,
1001
0000
1000
0100
0000
0100
0010
0000
0011
0000
0000
0000
0000
0000
0000
0000
;
