#TITLE:StaRgAZER;
#SUBTITLE:;
#ARTIST:BEMANI Sound Team "TAG";
#TITLETRANSLIT:;
#SUBTITLETRANSLIT:;
#ARTISTTRANSLIT:TAG;
#GENRE:;
#CREDIT:;
#MUSIC:StaRgAZER.ogg;
#BANNER:StaRgAZER-bn.png;
#BACKGROUND:StaRgAZER-bg.png;
#CDTITLE:;
#SAMPLESTART:28.591;
#SAMPLELENGTH:26.654;
#SELECTABLE:YES;
#OFFSET:0.563;
#BPMS:0.000=144.022;
#STOPS:;
#BGCHANGES:;
#FGCHANGES:;

//--------------- dance-single - Pandemonium X ----------------
#NOTES:
     dance-single:
     Pandemonium X:
     Beginner:
     2:
     0,0,0,0,0:
0000
0000
0000
0000
,
0000
0000
0000
0000
,
0000
0000
0000
0000
,
0000
0000
0000
0000
,
0000
0000
0000
0000
,
0001
0000
0000
0000
,
1000
0000
0000
0000
,
0001
0000
0000
0000
,
1000
0000
0000
0000
,
0010
0000
0000
0000
,
0100
0000
0000
0000
,
0001
0000
0000
0000
,
0010
0000
0000
0000
,
0100
0000
0000
0000
,
1000
0000
0000
0000
,
0001
0000
0000
0000
,
1000
0000
0000
0000
,
0000
0000
0001
0000
,
0000
1000
1000
0000
,
0000
0000
0001
0000
,
0000
0010
0010
0000
,
0000
0000
0100
0000
,
0000
0010
0010
0000
,
0001
0000
1000
0000
,
0010
0000
1000
0000
,
0001
0000
0010
0000
,
0000
0100
0100
0000
,
0000
0000
1000
0000
,
0000
0010
0010
0000
,
0000
0000
0100
0000
,
0000
0001
0001
0000
,
1000
0000
0010
0010
,
0010
0000
0100
0100
,
0100
0000
0001
0000
,
0000
0000
1000
0000
,
0000
0000
0010
0000
,
0000
0000
0100
0000
,
0000
0000
0001
0000
,
0000
0000
0010
0000
,
0000
0000
0100
0000
,
0000
0000
1000
0000
,
0001
0000
0100
0000
,
0000
0000
0010
0000
,
0000
0000
1000
0000
,
0000
0000
0001
0000
,
0000
0000
0010
0000
,
0000
0000
0100
0000
,
0000
0000
1000
0000
,
0000
0000
0001
0000
,
0000
0000
0000
0000
,
0000
0000
1001
0000
,
0001
0001
0001
0000
,
0000
0000
0000
1000
,
0000
0000
0001
0000
,
1000
0000
0010
0000
,
0000
0100
0100
0000
,
0000
0000
0010
0000
,
0000
0000
0100
0000
,
0010
0000
0000
1001
,
1000
0000
0001
0000
,
0000
0000
0000
0010
,
0000
0000
0010
0000
,
0010
0000
0100
0000
,
0000
0000
1000
0000
,
0001
0000
0100
0100
,
0100
0000
0010
0010
,
0010
0000
1000
0000
;

//--------------- dance-single - Pandemonium X ----------------
#NOTES:
     dance-single:
     Pandemonium X:
     Easy:
     5:
     0,0,0,0,0:
0000
0000
0000
0000
,
0000
0000
0000
0000
,
0000
0000
0000
0000
,
0000
0000
0000
0000
,
0000
0000
0000
0000
,
0001
0000
0000
0000
,
1000
0000
0000
0000
,
0001
0000
0000
0000
,
1000
0000
0001
0000
,
0011
0000
0000
0001
,
1000
1000
1000
0000
,
1010
0000
0000
1000
,
0001
0001
0001
0000
,
1100
0000
0000
0100
,
0010
0010
0001
0010
,
0001
0100
0001
0000
,
1000
0100
1000
0000
,
0000
0000
1002
0000
,
0000
1003
0010
1000
,
0200
0300
0021
0000
,
0000
0130
0010
0001
,
2000
3000
2010
0000
,
0000
3001
1000
0100
,
1000
0001
0010
0100
,
0020
0030
0100
1000
,
0200
0300
0012
0000
,
0000
0013
0001
0100
,
0020
0030
1020
0000
,
0000
1030
0001
1000
,
0020
0030
0201
0000
,
0000
0310
1000
0001
,
0010
0001
1000
0100
,
2000
0000
3000
0000
0002
0000
0000
2000
,
0000
3003
0001
0000
,
0000
0000
0000
0000
1000
0000
0000
0010
,
0000
0000
0100
0000
,
0000
0000
0000
0000
0001
0000
0000
0010
,
0000
0000
0001
0000
,
0000
0000
0000
0000
1000
0000
0000
0001
,
0000
0000
0100
0000
,
0000
0000
0010
0100
,
0001
1000
0100
0000
,
0000
0000
1000
0000
0000
0000
0000
0001
,
0000
0000
0100
0000
0001
0000
0000
0010
,
0000
0000
0100
1000
,
0100
0010
0001
0000
,
0000
0000
0010
0000
0000
0000
0000
0001
,
0000
0000
0000
0000
1000
0000
0000
0001
,
0000
0000
0000
0000
0200
0000
0000
0020
,
0000
0000
0330
0000
,
0000
0000
1002
0000
,
0013
0100
2000
3002
,
0203
0000
0300
0002
,
0023
0230
2300
3002
,
2000
3003
0201
0000
,
0310
0100
0001
1000
,
0002
0000
0103
0100
,
0200
0300
0010
0010
,
0010
0100
0000
1001
,
1000
0001
0010
0001
,
2000
0000
0000
3000
0000
0000
0002
0000
,
0023
0230
2300
3002
,
2000
3003
0021
0000
,
0000
0000
0130
0000
0000
0000
0000
1000
,
0000
0001
0100
0100
,
0100
0000
0010
0010
,
0010
0000
1001
0000
;

//--------------- dance-single - Pandemonium X ----------------
#NOTES:
     dance-single:
     Pandemonium X:
     Medium:
     9:
     0,0,0,0,0:
0000
0000
0000
0000
,
0000
0000
0000
0000
,
0000
0000
0000
0000
,
0000
0000
0000
0000
,
0000
0000
0000
0000
,
0001
0001
1000
1000
,
0010
0010
0100
0100
,
0001
0001
0100
0100
,
0010
0010
1000
1000
,
1001
0000
0000
0000
0000
0000
1000
0001
,
0010
0000
0000
0100
0000
0000
0010
0000
0000
0000
0000
0000
0000
0000
0000
0000
,
1100
0000
0000
0000
0000
0000
1000
0100
,
0010
0000
0000
0001
0000
0000
0100
0000
0000
0000
0000
0000
0000
0000
0000
0000
,
1010
0000
0000
0000
0000
0000
0001
0010
,
0100
0000
0000
0010
0000
0000
0001
0000
0000
0000
0001
0000
0010
0000
0100
0000
,
1000
0000
0000
1000
0000
0000
1000
0000
0000
0000
0000
0000
0000
0000
0001
1000
,
0001
0000
0000
0001
0000
0000
0001
0000
0000
1000
0000
0000
0001
0000
0000
0000
,
0000
0000
2100
0000
,
0000
0000
0000
0000
3100
0000
1000
0000
0010
0000
0000
0010
0000
0000
0200
0000
,
0000
0300
0102
0000
,
0000
0000
0000
0000
0013
0000
0001
0000
1000
0000
0000
0001
0000
0000
0020
0000
,
0000
0030
2100
0000
,
0000
0000
0000
0000
3010
0000
0100
0000
0010
0000
0000
0100
0000
0000
0002
0000
,
0000
0000
1003
0000
0100
0000
1000
0000
0010
0000
0000
0100
0000
0000
0002
0000
,
0000
0000
0000
0000
0003
0000
1000
0100
2000
0000
0000
0000
0000
0000
0100
0000
,
0200
3300
1002
0000
,
0000
0000
0000
0000
0013
0000
0001
0000
0100
0000
0000
0001
0000
0000
2000
0000
,
0000
3000
0021
0000
,
0000
0000
0000
0000
0130
0000
0010
0000
0001
0000
0000
1000
0000
0000
0020
0000
,
0000
0030
1002
0000
,
0000
0000
0000
0000
0013
0000
0100
0000
1000
0000
0000
0001
0000
0000
2000
0000
,
0000
0000
3001
0000
0010
0000
0100
0000
0010
0000
0000
0001
0000
0000
0200
0000
,
0000
0000
0000
0000
0000
0000
0301
1000
0001
0000
0000
0100
0000
0000
0001
0000
,
0000
1000
0000
0000
0100
0000
0000
0000
0010
0000
0000
0000
0001
0000
0000
0000
,
0100
0001
0010
0001
,
0100
0001
1000
0010
,
0100
0010
1000
0010
,
0100
0010
1000
0100
,
0001
0100
1000
0010
,
0001
0010
1000
0010
,
0001
0010
2000
3200
,
0320
0000
0000
0000
0032
0000
0000
0000
1003
0000
0000
1000
0000
0000
1000
0000
,
0000
1000
0000
0000
0010
0000
0000
0000
0100
0000
0000
0100
0000
0000
0100
0000
,
0000
0100
0000
0000
0001
0000
0000
0000
0010
0000
0000
0010
0000
0000
0010
0000
,
0000
0010
0000
0000
0100
0000
0000
0000
0010
0000
0000
0010
0000
0000
0001
0000
,
0000
0001
0000
0000
1000
0000
0000
0000
0001
0000
0000
0100
0000
0000
0001
0000
,
0000
1000
0000
0000
0100
0000
0000
0000
0010
0000
0000
0100
0000
0000
1000
0000
,
0000
0001
0000
0000
0100
0000
0000
0000
0001
0000
0000
0010
0000
0000
0100
0000
,
0000
1000
0000
0000
0001
0000
0000
0000
1000
0000
0000
1000
0000
0000
0001
0000
,
0000
0001
0000
0000
1000
0000
0000
0000
0000
0000
0000
0000
0000
0000
0000
0000
,
0000
0000
0201
0000
,
0310
0000
1000
0000
0100
0000
0010
0000
0100
0000
0000
1000
0000
0000
0002
0000
,
0000
0000
0003
2000
,
3200
0320
0032
0203
,
0301
0020
0000
0000
0230
0000
0000
0000
,
1300
0000
0100
0000
0010
0000
0100
0000
1000
0000
0000
0001
0000
0000
0020
0000
,
0000
0000
0000
0000
0030
0000
0000
0000
0001
0000
0000
1000
0000
0000
0010
0000
,
0020
0000
0000
0000
0030
0000
0100
0010
0100
0000
0000
0100
0000
0000
0010
0000
,
0200
0320
0130
1001
,
1000
0000
0100
0000
0010
0000
0001
0000
0100
0000
0000
0001
0000
0000
0020
0000
,
0000
0000
0030
0200
,
0320
0032
2003
3020
,
0100
0000
0200
0000
0000
0330
0000
0000
2001
0000
0000
0000
0000
0000
0000
0000
,
0000
3010
0100
0020
0000
0000
0000
0230
,
0000
0000
0310
0000
1000
0000
0100
0000
0010
0000
0000
0001
0000
0000
2000
0000
,
0000
0000
0000
0000
3000
0000
0001
1000
0001
0000
0000
1000
0000
0000
0001
0000
,
0000
0001
0000
0000
1000
0000
0000
0000
0110
0000
0000
0000
0000
0000
0000
0000
;

//--------------- dance-single - Pandemonium X ----------------
#NOTES:
     dance-single:
     Pandemonium X:
     Hard:
     11:
     0,0,0,0,0:
0000
0000
0000
0000
,
0000
0000
0000
0000
,
0000
0000
0000
0000
,
0000
0000
0000
0000
,
0000
0000
0000
0000
,
0001
0000
0000
0001
0000
0000
0001
0000
0000
0001
0000
0000
0001
0000
0000
0000
,
1000
0000
0000
1000
0000
0000
0010
0000
0000
0010
0000
0000
0100
0000
0000
0000
,
0010
0000
0000
0010
0000
0000
0010
0000
0000
0010
0000
0000
0010
0000
0000
0000
,
0100
0000
0000
0100
0000
0000
0100
0000
0001
0000
0000
0001
0000
0000
0001
0000
,
0011
0000
0010
0000
0100
0000
1000
0010
,
0110
0000
0000
1010
0000
0000
2002
0000
0000
0000
0000
0000
3003
0000
0000
0000
,
1100
0000
0100
0000
0010
0000
0100
1000
,
1010
0000
0000
0110
0000
0000
0202
0000
0000
0000
0000
0000
0303
0000
0000
0000
,
0011
0000
0001
0000
1000
0000
0001
0010
,
0110
0000
0000
1100
0000
0000
1001
0000
0000
0000
0001
0000
1000
0000
0100
0000
,
0110
0000
0000
0011
0000
0000
2001
0000
0000
0000
0000
0000
0000
0000
3001
1000
,
0001
0000
0000
1000
0000
0000
1010
0000
0000
0010
0000
0000
0010
0000
0000
0000
,
0010
0100
0000
0001
1000
0000
0100
0000
0021
0000
0000
0000
0100
0000
0000
0000
,
0001
0000
0000
0000
0130
0000
1000
0000
0010
0000
0000
0100
0000
0000
0002
0000
,
0010
0010
2003
0100
,
0100
0000
0000
0000
3100
0000
1000
0000
0010
0000
0000
0100
0000
0000
0001
0000
,
0020
0130
0020
0001
,
0100
0000
0000
0000
0031
0000
0010
0000
0100
0000
0000
1000
0000
0000
0020
0000
,
0000
0000
0130
0000
0001
0000
1000
0000
0200
0000
0000
0010
0000
0000
0020
0000
,
0000
0000
0000
0000
0330
0000
0100
0010
0200
0000
0000
0000
0000
0000
1300
0000
,
2000
3000
0201
0010
,
0001
0000
0000
0000
0310
0000
0100
0000
0001
0000
0000
0010
0000
0000
0200
0000
,
0010
0310
0200
1000
,
0010
0000
0000
0000
1300
0000
0010
0000
0100
0000
0000
0001
0000
0000
2000
0000
,
0001
3001
0200
0010
,
0001
0000
0000
0000
0310
0000
0100
0000
0001
0000
0000
0010
0000
0000
0200
0000
,
0000
0000
0310
0000
0001
0000
1000
0000
0010
0000
0000
0100
0000
0000
0020
0000
,
0000
0000
0000
0000
0000
0000
0130
0001
2000
0000
0000
3100
0000
0000
0020
0000
,
0000
0001
0000
0000
0031
0000
0000
0000
0001
0000
0100
0000
0010
0000
0100
0000
,
0001
0100
0010
0100
0001
0100
0010
0100
,
0001
0100
0010
1000
0100
1000
0010
1000
,
0100
1000
0010
1000
0100
1000
0010
1000
,
0100
1000
0010
1000
0001
0010
0001
1000
,
0010
1000
0001
0010
0001
1000
0010
1000
,
0001
0010
0001
1000
0001
0100
0001
1000
,
0100
1000
0001
0010
0200
0000
2300
0000
,
3020
0000
0000
0000
0230
0000
0000
0000
0320
0000
0000
1000
0000
0000
0100
0000
,
0000
0000
1030
0000
0100
0000
2000
0000
0100
0000
0000
0100
0000
0000
3010
0000
,
0000
0000
1000
0000
0100
0000
0010
0000
0002
0000
0000
1000
0000
0000
2003
0000
,
0000
0001
0000
0000
3001
0000
1000
0010
1000
0000
0000
0000
0200
0000
0000
0000
,
2300
0000
0000
0000
3200
0000
0000
0000
0320
0000
0000
0001
0000
0000
0001
0000
,
0000
0000
0130
0000
0010
0000
0002
0000
0100
0000
0000
0103
0000
0000
1010
0000
,
0000
0000
1000
0000
0001
0000
1000
0000
1100
0000
0000
0110
0000
0000
1001
0000
,
0000
0001
0000
0000
0001
0000
1000
0100
1000
0000
0000
0001
0000
0000
1001
0000
,
0000
1000
0000
0000
0001
0000
0000
0000
1001
0000
0000
0000
0000
0000
0000
0000
,
0001
0100
0000
0010
1000
0000
0001
0000
2001
0000
0000
0000
0100
0000
0000
0000
,
3001
0000
0010
0000
0100
0000
1000
0000
0002
0000
0000
0100
0000
0000
0023
0000
,
0001
0100
0031
0201
,
0010
1000
0001
0320
,
1030
0002
0000
0000
2003
0000
0001
0000
,
3010
0000
0100
0000
0001
0000
1000
0000
0100
0000
0000
1000
0000
0000
0020
0000
,
1000
0000
0000
0000
0100
0000
0000
0000
1030
0000
0000
0100
0000
0000
0010
0000
,
0020
0000
0000
0000
0000
0000
0130
0010
0100
0000
0000
0100
0000
0000
0100
0000
,
2000
3002
1003
0101
,
0001
0000
0010
0000
0100
0000
0010
0000
0001
0000
0000
1000
0000
0000
0001
0000
,
2000
0010
3001
1200
,
0010
0001
0010
2300
,
3001
2000
0000
0000
3002
0000
0010
0000
,
0103
0010
1000
0200
0010
0000
1300
0002
,
0000
0000
1003
0000
0001
0000
1000
0000
1100
0000
0000
0110
0000
0000
0022
0000
,
0000
0000
0000
0000
0033
0000
0001
0010
0200
0000
0000
1300
0000
0000
0020
0000
,
0000
0100
0000
0000
0130
0000
0000
0000
1001
0000
0000
0000
0000
0000
0000
0000
;

//--------------- dance-double - Pandemonium X ----------------
#NOTES:
     dance-double:
     Pandemonium X:
     Easy:
     3:
     0,0,0,0,0:
00000000
00000000
00000000
00000000
,
00000000
00000000
00000000
00000000
,
00000000
00000000
00000000
00000000
,
00000000
00000000
00000000
00000000
,
00000000
00000000
00000000
00000000
,
00001000
00000000
00000000
00000000
,
00010000
00000000
00000000
00000000
,
00001000
00000000
00000000
00000000
,
01000000
00000000
00001000
00000000
,
00011000
00000000
00000000
00010000
,
00000200
00000000
00000000
00000300
00000000
00000000
00000000
00000000
,
00001000
00000000
00000000
00000010
,
00000200
00000000
00000000
00000300
00000000
00000000
00000000
00000000
,
00000001
00000000
00000000
00001000
,
00000200
00000000
00000000
00000300
00000000
00000000
00010000
00000000
,
00002000
00000000
00000000
00003000
00000000
00000000
00000000
00000000
,
00010000
00000000
00000000
00001000
00000000
00000000
00000000
00000000
,
00000000
00000000
00020000
00000000
,
00000000
00030100
00002000
00000000
,
00000000
00003000
00000020
00000000
,
00000000
00000130
00000002
00000000
,
00000000
00000003
00002000
00000000
,
00000000
00000000
00003100
00000000
00010000
00000000
00000000
00001000
,
00000000
01000000
00020000
00000000
,
00000000
00030000
20000000
30000000
,
00020000
00030000
20000000
00000000
,
00000000
31000000
00200000
00000000
,
00000000
00300000
00002000
00000000
,
00000000
00013000
00000020
00000000
,
00000000
00000030
00000200
00000000
,
00000000
00000000
00000301
00000000
00001000
00000000
00000000
00000100
,
00000000
00010000
00002000
00000000
,
00000000
00000000
00020000
00000000
,
00000000
00033000
00001000
00000000
,
00000000
00000000
00000000
00000000
01000000
00000000
00000000
01000000
,
00000000
00000000
00010000
00000000
,
00000000
00000000
00000000
00000000
00100000
00000000
00000000
00100000
,
00000000
00000000
00001000
00000000
,
00000000
00000000
00000000
00000000
00010000
00000000
00000000
00010000
,
00000000
00000000
00000100
00000000
,
00000000
00000000
00001000
00000001
,
00001000
00000001
00001000
00000000
,
00000000
00000000
00000010
00000000
,
00000000
00000000
00000100
00000000
,
00000000
00000000
00000001
00000000
,
00001000
00000000
00000100
00000000
,
00000000
00000000
00010000
00000000
,
00000000
00000000
00001000
00000000
,
00000000
00000000
00000000
00000000
01000000
00000000
00000000
01000000
,
00000000
00000000
00000000
00000000
,
00000000
00000000
20000000
00000000
,
31000000
10000000
00020000
00000000
,
00000000
00000000
00030000
10000000
,
00010000
10000000
00010000
10000000
,
00200000
00000000
02300000
00000000
,
03010000
00100000
00002000
00000000
,
00000000
00003000
00010000
00000000
,
00000100
00000000
00001000
00000001
,
00001000
00000001
00000000
00000110
,
00000000
00000001
00000200
00000000
,
00000000
00000000
00000300
00000010
,
00000100
00000010
00000100
00000010
,
00001000
00000000
00000200
00000000
,
00000300
00000000
00000000
00000000
00010000
00000000
00000000
00001000
,
00000000
00000000
02000000
00000000
,
00000000
03000000
00200000
00000000
,
00000000
00300000
10010000
00000000
;

//--------------- dance-double - Pandemonium X ----------------
#NOTES:
     dance-double:
     Pandemonium X:
     Medium:
     8:
     0,0,0,0,0:
00000000
00000000
00000000
00000000
,
00000000
00000000
00000000
00000000
,
00000000
00000000
00000000
00000000
,
00000000
00000000
00000000
00000000
,
00000000
00000000
00000000
00000000
,
00020000
00000000
00000000
00030000
,
00000200
00000000
00000000
00000300
,
00002000
00000000
00000000
00003000
,
00000020
00000000
00000230
00000000
,
00000301
00000000
00000000
00000000
00000000
00000000
00000010
00000100
,
00001000
00000000
00000000
00001000
00000000
00000000
00000100
00000000
00000000
00000000
00000000
00000000
00000000
00000000
00000000
00000000
,
00010000
00000000
00000000
00000000
00000000
00000000
00001000
01000000
,
00100000
00000000
00000000
00100000
00000000
00000000
10000000
00000000
00000000
00000000
00000000
00000000
00000000
00000000
00000000
00000000
,
01000000
00000000
00000000
00000000
00000000
00000000
00100000
01000000
,
00100000
00000000
00000000
00001000
00000000
00000000
00010000
00000000
00000000
00000000
00000100
00000000
00001000
00000000
00000010
00000000
,
00000100
00000000
00000000
00000001
00000000
00000000
00001000
00000000
00000000
00000000
00000000
00000000
00000000
00000000
00000000
00000000
,
00001100
00000000
00000000
00010100
00000000
00000000
00000000
00000000
,
00000000
00000000
02001000
00000000
,
00000000
00000000
00000000
00000000
03100000
00000000
10000000
00000000
00010000
00000000
00000000
01000000
00000000
00000000
00200000
00000000
,
00000000
00000000
00000000
00300000
02010000
00000000
00000000
00000000
,
00000000
00000000
00000000
00000000
03010000
00000000
00100000
00000000
00001000
00000000
00000000
00010000
00000000
00000000
00002000
00000000
,
00000000
00000000
00000000
00003000
00010200
00000000
00000000
00000000
,
00000000
00000000
00000000
00000000
00001300
00000000
00000010
00000000
00000100
00000000
00000000
00000001
00000000
00000000
00000010
00000000
,
00000000
00000000
00000100
00000000
00000010
00000000
00000001
00000000
00001000
00000000
00000000
00000001
00000000
00000000
00000200
00000000
,
00000000
00000000
00000300
00000010
00002000
00000000
00000000
00000100
,
00000200
00003300
00021000
00000000
,
00000000
00000000
00000000
00000000
00000100
00030000
00001000
00000000
00000010
00000000
00000000
00001000
00000000
00000000
00000002
00000000
,
00000000
00000000
00000000
00000003
00001200
00000000
00000000
00000000
,
00000000
00000000
00000000
00000000
00001300
00000000
00000010
00000000
00010000
00000000
00000000
00001000
00000000
00000000
00200000
00000000
,
00000000
00000000
00000000
00300000
12000000
00000000
00000000
00000000
,
00000000
00000000
00000000
00000000
03100000
00000000
01000000
00000000
10000000
00000000
00000000
00100000
00000000
00000000
20000000
00000000
,
00000000
00000000
30010000
00000000
00100000
00000000
01000000
00000000
10000000
00000000
00000000
00100000
00000000
00000000
02000000
00000000
,
00000000
00000000
00000000
00000000
00000000
00000000
00000000
00000000
03010000
00000000
00000000
00010000
00000000
00000000
00100000
00000000
,
00000000
00100000
00000000
00000000
00001000
00000000
00000000
00000000
00011000
00000000
00000000
00000000
00000000
00000000
00000000
00000000
,
00000000
00000000
00000000
00000000
00010100
00000000
00000000
01001000
,
00000000
00000000
10010000
00000000
,
00000000
00000000
00000000
00000000
00110000
00000000
00000000
00101000
,
00000000
00000000
00011000
00000000
,
00000000
00000000
00000000
00000000
00001100
00000000
00000000
00010100
,
00000000
00000000
00011000
00000000
,
00000000
00000000
00001000
00010000
,
00100000
01000000
10010000
00000000
,
00000000
10000000
01000000
00010000
00000000
00000000
00000000
00011000
,
00000000
00010000
00001000
00000010
00000001
00000000
00000000
00000100
,
00000000
00000000
00000000
00000000
00000000
00000000
00000001
00001000
00000001
00000000
00000000
00000000
00000000
00000000
00000110
00000000
,
00000000
00000000
00001001
00000000
,
00000000
00000001
00000100
00001000
00000000
00000000
00000000
00011000
,
00000000
00000000
00001000
00000000
01000000
00000000
00100000
00000000
10000000
00000000
00000000
01000000
00000000
00000000
00100000
00000000
,
00000000
00000000
00000000
00000000
00000000
00000000
00000000
00000000
01000000
00000000
00000000
01000000
00000000
00000000
10000000
00000000
,
00000000
10000000
00000000
00000000
00010000
00000000
00000000
00000000
00000000
00000000
00000000
00000000
00000000
00000000
00000000
00000000
,
00000000
00000000
00210000
00000000
,
01300000
00000000
00100000
00000000
00010000
00000000
01000000
00000000
00100000
00000000
00000000
00100000
00000000
00000000
00200000
00000000
,
00000000
00000000
00000000
00300000
00000000
00000000
20000000
00000000
,
32000000
03200000
00320000
00032000
,
00003200
00000320
00000000
00000000
00000032
00000000
00000000
00000000
,
00001003
00000000
00000010
00000000
00000100
00000000
00000010
00000000
00001000
00000000
00000000
00000001
00000000
00000000
00000020
00000000
,
00000000
00000000
00000000
00000000
00000000
00000000
00000030
00000000
00000001
00000000
00000000
00000100
00000000
00000000
00000010
00000000
,
00000010
00000000
00000000
00000000
00000000
00000000
00000100
00000001
00000100
00000000
00000000
00000100
00000000
00000000
00000010
00000000
,
00002000
00000200
00003300
00011000
,
00001000
00000000
01000000
00000000
00100000
00000000
00010000
00000000
00100000
00000000
00000000
10000000
00000000
00000000
00020000
00000000
,
00000000
00000000
00030000
00200000
,
00320000
00032000
00003200
00000320
,
00000032
00002003
00000000
00000000
00003020
00000000
00000000
00000000
,
00000000
00000130
00001000
00000200
00000000
00000000
00000000
00000302
,
00000000
00000000
00000013
00000000
00001000
00000000
00000010
00000000
00000001
00000000
00000000
00001000
00000000
00000000
00000200
00000000
,
00000000
00000000
00000000
00000000
00000300
00000000
00000000
00000000
00010000
00000000
00000000
00010000
00000000
00000000
00001000
00000000
,
00000000
00001000
00000000
00000000
01000000
00000000
00000000
00000000
10010000
00000000
00000000
00000000
00000000
00000000
00000000
00000000
;

//--------------- dance-double - Pandemonium X ----------------
#NOTES:
     dance-double:
     Pandemonium X:
     Hard:
     11:
     0,0,0,0,0:
00000000
00000000
00000000
00000000
,
00000000
00000000
00000000
00000000
,
00000000
00000000
00000000
00000000
,
00000000
00000000
00000000
00000000
,
00000000
00000000
00000000
00000000
,
00001000
00000000
00000000
00001000
00000000
00000000
00001000
00000000
00000000
00001000
00000000
00000000
00100000
00000000
00000000
00000000
,
00001000
00000000
00000000
00001000
00000000
00000000
00010000
00000000
00000000
00010000
00000000
00000000
00000100
00000000
00000000
00000000
,
00001000
00000000
00000000
00001000
00000000
00000000
00001000
00000000
00000000
00001000
00000000
00000000
00001000
00000000
00000000
00000000
,
00000010
00000000
00000000
00000010
00000000
00000000
00010000
00000000
00001000
00000000
00000000
00100000
00000000
00000000
00010000
00000000
,
10010000
00000000
00000000
00000000
00000000
00000000
10000000
01000000
,
00100000
00000000
00000000
00010000
00000000
00000000
00001000
00000000
00000000
00000000
00000000
00000000
00000000
00000000
00000000
00000000
,
00011000
00000000
00000000
00000000
00000000
00000000
00010000
00001000
,
00000100
00000000
00000000
00000010
00000000
00000000
00000001
00000000
00000000
00000000
00000000
00000000
00000000
00000000
00000000
00000000
,
00001001
00000000
00000000
00000000
00000000
00000000
00000001
00000100
,
00001000
00000000
00000000
00010000
00000000
00000000
00011000
00000000
00000000
00000000
00001000
00000000
01000000
00000000
00100000
00000000
,
10000000
00000000
00000000
01000000
00000000
00000000
00100000
00000000
00000000
00000000
00000000
00000000
00000000
00000000
00010000
00001000
,
00000200
00000000
00000000
00001000
00000000
00000000
00020300
00000000
00000000
00001000
00000000
00000000
00031000
00000000
00000000
00000000
,
00100000
00010000
00000000
10000000
01000000
10000000
00010000
00000000
02000000
00000000
00000000
00000000
00100000
00000000
00000000
00000000
,
00010000
00000000
00000000
00000000
03100000
00000000
10000000
00000000
00020000
00000000
00000000
00230000
00000000
00000000
00302000
00000000
,
00010000
00100000
00023000
00001000
,
00000100
00000000
00000000
00000000
00031000
00000000
00100000
00000000
00001000
00000000
00000000
00010000
00000000
00000000
00000200
00000000
,
00001000
00000310
00000200
00001000
,
00000010
00000000
00000000
00000000
00001300
00000000
00000001
00000000
00000100
00000000
00000000
00000010
00000000
00000000
00002010
00000000
,
00000000
00000000
00003001
00000000
00000100
00000000
00001000
00000000
00000100
00000000
00000000
00000010
00000000
00000000
00020000
00000000
,
00000000
00000000
00000000
00000000
00000000
00000000
00031000
01000000
00200000
00000000
00000000
00000000
00000000
00000000
01000000
00000000
,
02000000
03300000
20010000
01000000
,
00100000
00000000
00000000
00000000
30010000
00000000
01000000
00000000
00010000
00000000
00000000
00100000
00000000
00000000
00002000
00000000
,
00010000
00103000
01002000
00010000
,
00100000
00000000
00000000
00000000
00013000
00000000
00000100
00000000
00001000
00000000
00000000
00000010
00000000
00000000
00000200
00000000
,
00000001
00000310
00001002
00000010
,
00000100
00000000
00000000
00000000
00000013
00000000
00000001
00000000
00000100
00000000
00000000
00000010
00000000
00000000
00020000
00000000
,
00000000
00000000
00031000
00000000
01000000
00000000
00001000
00000000
00010000
00000000
00000000
00000100
00000000
00000000
00020000
00000000
,
00000000
00000000
00000000
00000000
00000000
00000000
00030100
00010000
00002000
00000000
00000000
00203000
00000000
00000000
00320000
00000000
,
00000000
00230000
00000000
00000000
02300000
00000000
00000000
00000000
13000000
00000000
00100000
00000000
01000000
00000000
00010000
00000000
,
00100000
01000000
00100000
00001000
00010000
00000100
00001000
00000010
,
00000100
00001000
00000100
00000001
00001000
00000100
00010000
00001000
,
01000000
00010000
01000000
00100000
10000000
00010000
00100000
01000000
,
00010000
01000000
10000000
00100000
01000000
00010000
00100000
00001000
,
00010000
00000100
00001000
00000010
00000100
00000001
00000010
00000100
,
00001000
00000100
00000001
00000100
00001000
00000010
00001000
00000100
,
00010000
00000100
00010000
00001000
00200000
00000000
00320000
00000000
,
02030000
00000000
00000000
00000000
03200000
00000000
00000000
00000000
10300000
00000000
00000000
10000000
00000000
00000000
10000000
00000000
,
00000000
10000000
01000000
00100000
00000000
00000000
00000000
00011000
,
00000000
00010000
00001000
00000010
00000001
00000000
00000000
00001010
,
00000000
00000000
00000000
00000000
00000000
00000000
00000010
00010000
00002000
00000000
00000000
00000000
00010000
00000000
00000000
00000000
,
00100000
00000000
00000000
00000000
01003000
00000000
00000000
00000000
01001000
00000000
00000000
00001000
00000000
00000000
00001000
00000000
,
00000000
00001000
01000000
00100000
00000000
00000000
00000000
10010000
,
00000000
00000000
00100000
00000000
00001000
00000000
00010000
00000000
00000010
00000000
00000000
00000010
00000000
00000000
00000100
00000000
,
00000000
00000000
00000000
00000000
00000000
00000000
00000100
00000010
00001000
00000000
00000000
00010000
00000000
00000000
00100000
00000000
,
00000000
00010000
00000000
00000000
10000000
00000000
00000000
00000000
10010000
00000000
00000000
00000000
00000000
00000000
00000000
00000000
,
10000000
01000000
00000000
01000000
00100000
01000000
10000000
00000000
10020000
00000000
00000000
00000000
00000000
00000000
00000000
00000000
,
10030000
00000000
01000000
00000000
00100000
00000000
01000000
00000000
10000000
00000000
00000000
01000000
00000000
00000000
00200000
00000000
,
00000000
00000000
00300000
02000000
,
03200000
00320000
00032000
00003020
,
00000031
00000200
00000000
00000000
00020300
00000000
00000000
00000000
,
00030100
00000000
00001000
00000000
00000100
00000000
00010000
00000000
00001000
00000000
00000000
00100000
00000000
00000000
00020000
00000000
,
00000000
00000000
00000000
00000000
00030000
00000000
00000000
00000000
00100000
00000000
00000000
00002000
00000000
00000000
00010000
00000000
,
00023000
00000000
00000000
00000000
00000000
00000000
00030100
00001000
00000100
00000000
00000000
00000100
00000000
00000000
00001000
00000000
,
00001010
00000101
00001000
00011000
,
00001000
00000000
01000000
00000000
00100000
00000000
00010000
00000000
00100000
00000000
00000000
01000000
00000000
00000000
00002000
00000000
,
00000000
00000000
00003000
00020000
,
00032000
00003020
00000032
00002003
,
00000010
00000020
00003000
00000000
00000230
00000000
00000000
00000000
,
00000300
00001000
00010000
00200000
00000000
00300000
00000000
00021000
,
00000000
00000000
00030100
00000000
00001000
00000000
00000001
00000000
00000010
00000000
00000000
00000100
00000000
00000000
00002000
00000000
,
00000000
00000000
00000000
00000000
00000000
00003000
00000100
00010000
00001000
00000000
00000000
00001000
00000000
00000000
00010000
00000000
,
00000000
00010000
00000000
00000000
00010000
00000000
00000000
00000000
00011000
00000000
00000000
00000000
00000000
00000000
00000000
00000000
;
