#TITLE:Sphere;
#SUBTITLE:;
#ARTIST:Tatsh feat. K. Nayuki;
#TITLETRANSLIT:;
#SUBTITLETRANSLIT:;
#ARTISTTRANSLIT:;
#GENRE:;
#CREDIT:;
#MUSIC:Sphere.ogg;
#BANNER:;
#BACKGROUND:Sphere-bg.png;
#CDTITLE:;
#SAMPLESTART:37.953;
#SAMPLELENGTH:16.469;
#SELECTABLE:YES;
#OFFSET:2.547;
#BPMS:0.000=80.000
,12.000=160.000
,16.000=80.000
,18.000=160.000
,22.000=80.000
,24.000=160.000
,57.000=80.000
,73.000=160.000
,145.000=80.000
,147.000=160.000
,247.000=80.000
;
#STOPS:56.000=1.125;
#BGCHANGES:;
#FGCHANGES:;

//--------------- dance-single - Pandemonium X ----------------
#NOTES:
     dance-single:
     Pandemonium X:
     Beginner:
     5:
     0,0,0,0,0:
0000
0000
0000
0000
,
0000
0000
0000
0000
,
0000
0000
0000
0000
,
0001
0000
1000
0000
,
0010
0000
1000
0000
,
0001
0000
0010
0110
,
1000
0000
0000
0000
,
0000
0000
0000
0000
,
0001
0000
0000
0000
,
0000
0000
0000
0000
,
0100
0000
0100
0000
,
0010
0000
0010
0000
,
1000
0000
1000
0000
,
0001
0000
0001
0000
,
0000
0001
0000
0010
,
0000
0100
1000
0010
,
0000
1000
0000
0100
,
0000
0000
0010
0000
0001
0000
1000
0001
,
1000
0001
0000
0000
,
0100
0010
0000
0000
,
1000
0100
0000
0000
,
0010
0100
1000
0001
,
0100
0010
0000
0000
,
0100
0001
0000
0000
,
1000
0001
0000
0000
,
0000
1001
0000
0110
,
0000
0000
1001
0000
0000
0001
0000
0000
,
0001
0000
0000
0000
,
0000
0000
1000
0000
0000
1000
0000
0000
,
1000
0000
0000
0000
,
0000
0010
0000
0100
,
0000
0001
0000
1000
,
0000
0100
0100
0100
,
0000
0010
0010
0010
,
0000
1001
0000
0110
,
0000
0001
0001
1000
,
1000
0000
0000
0010
,
0000
0000
0100
0100
,
0000
0010
0000
0000
1000
0000
0000
0000
,
0000
0000
0000
0001
,
0000
0010
0000
0000
0001
0000
0000
0000
,
0000
0000
0000
1000
,
0000
0001
0001
0100
,
0000
0010
0000
1000
,
1000
0000
0000
0001
,
0001
0000
0010
0010
,
0000
0000
0100
0100
,
0000
0000
1000
1000
,
0000
0000
0001
0001
,
0000
0000
0000
1000
,
0000
0000
0001
1000
,
0000
0010
0000
1001
,
0000
0001
0000
1000
,
0000
0100
0000
0010
,
0000
0001
0000
0010
,
0000
0001
0000
0100
,
0000
0010
0000
1000
,
0000
0001
0000
1000
,
1000
0001
0001
0100
,
0100
0010
0010
1000
,
0100
0010
0001
1000
,
0100
0010
0001
1001
;

//--------------- dance-single - Pandemonium X ----------------
#NOTES:
     dance-single:
     Pandemonium X:
     Easy:
     7:
     0,0,0,0,0:
0000
0000
0000
0000
,
0000
0000
0000
0000
,
0000
0000
0000
0000
,
0001
0100
0010
1000
,
0000
0000
0001
0100
,
0010
1000
0200
0320
,
0031
0010
0001
0010
,
0200
0000
0000
0300
,
1000
0010
1000
0010
,
0200
0000
0000
0300
,
1001
0000
0110
0000
,
1001
0001
1001
1000
,
0001
0100
0010
1000
,
0100
0001
0100
1000
,
0000
0002
0203
0320
,
2030
0000
3100
0010
0002
0000
0013
0100
,
1000
0001
2000
0000
3020
0000
0230
0000
,
0302
0000
0013
0001
0020
0000
0130
2000
,
0002
3000
0203
0000
0301
0000
0100
0000
,
0020
2030
3100
0010
,
0002
2003
3001
1000
,
0200
0302
0203
2300
,
3020
0230
0301
0010
,
2000
3020
0031
0100
,
2000
3200
0301
1000
,
0100
0022
0033
2200
,
3300
0000
1001
0000
0000
0001
0000
0000
,
1000
0000
0100
1000
,
0010
0000
1001
0000
0000
1000
0000
0000
,
0001
0000
0010
0001
,
1000
0000
0100
0000
0000
1000
0000
0000
,
0000
0010
0000
0000
0000
0100
0000
0010
,
0100
0001
1000
0100
,
0010
0100
1000
0001
,
1000
0000
0001
0100
0001
0000
1000
0010
,
1000
1001
1001
1001
,
1001
0000
0000
0002
,
0013
0100
2000
3002
,
0000
0203
0000
0000
0320
0000
1030
0000
,
0010
1000
0200
2300
,
0000
3002
0000
0000
0203
0000
0301
0000
,
0010
0100
1000
0200
,
0301
0200
2300
3020
,
0032
0023
2030
3001
,
1001
0000
1000
0010
1000
0000
0001
0001
,
0001
0000
0010
0000
0100
0000
1000
0100
,
1000
0000
0100
0000
0010
0000
0001
0001
,
0001
0010
0002
0200
,
0000
0003
0320
2000
,
0000
0000
0030
0200
,
0000
3000
0320
0032
,
0000
2003
0000
3002
,
0010
0010
0013
0200
,
0320
0230
2300
3002
,
2003
3200
0320
0230
,
2300
3002
0203
0302
,
0023
0230
2300
3200
,
0320
0032
2003
3002
,
0203
2300
3200
0302
,
0023
2030
3020
0230
,
0320
0032
0023
2030
,
3020
0032
2003
0002
,
0000
0000
0000
3003
;

//--------------- dance-single - Pandemonium X ----------------
#NOTES:
     dance-single:
     Pandemonium X:
     Medium:
     11:
     0,0,0,0,0:
0000
0000
0000
0000
,
0000
0000
0000
0000
,
0000
0000
0000
0000
,
0201
0001
0001
0001
,
0300
0000
1020
1000
,
1000
0000
1000
0000
0230
0000
0020
0300
,
2030
0100
0010
0001
,
0010
0000
0010
0000
,
3020
0100
1000
0100
,
1000
0000
1030
0000
,
1001
1000
0101
0001
,
0011
0110
1100
1010
,
1001
0001
0100
0000
1001
1000
0100
0000
,
1001
1000
0100
0010
0001
1000
0100
0010
,
0000
0000
0000
0000
2001
0000
3100
2000
0000
3100
0020
0000
0230
0000
0000
0000
,
1300
0100
0010
0001
0010
0100
0020
0000
0032
0000
0103
0010
2000
0000
0010
0000
,
3002
0000
1000
0000
0103
0000
0100
0002
0000
1003
0200
0000
0320
0000
0000
0000
,
0130
0010
0001
1000
0100
1000
0010
0100
2000
0000
0000
0000
3200
0000
0302
0000
,
2000
0000
0000
3003
0021
0000
0000
0000
0100
0000
0000
0000
0031
0000
0000
0000
,
1100
1002
0100
1003
,
0101
0021
0100
0031
,
0010
0011
1100
0101
,
1010
1000
0200
0000
0010
0000
1000
0000
,
0310
0021
0100
0031
,
0011
2100
0010
0100
,
0010
3200
0000
0320
,
0000
0000
0031
0100
0010
1000
0100
0010
,
0001
0010
0100
0010
0001
0010
0100
1000
,
0001
0100
0010
1000
0001
0100
0010
0001
,
1000
0010
0100
0001
0010
0100
0010
0001
,
1000
0100
0010
0100
1000
0200
0000
1300
,
0010
2000
0000
3001
0100
0002
0000
1003
,
0001
0010
0100
0010
,
0001
0000
0100
0010
1000
0002
0000
0100
,
0203
0000
0310
0010
0010
0000
0100
0100
,
0100
1001
1001
1001
,
1001
0000
0000
0000
0000
0000
0001
0100
,
0001
0000
0100
0000
0010
0000
1000
0100
,
1000
0000
0100
0000
0010
0000
0100
1000
,
0100
0000
0010
0000
0001
0000
0100
0001
,
0100
0000
0001
0000
1000
0000
0010
0100
,
0010
0100
0001
0020
,
0130
0000
0020
0000
0031
0000
1000
0100
,
1000
0010
0100
0001
0010
0100
1100
0000
,
1100
0000
1000
0100
0010
0000
0001
0001
,
0001
0000
0010
0100
1000
0000
0100
0100
,
0100
0000
0010
0100
1000
0000
1001
0000
,
1001
0000
0001
1000
0100
0000
0011
0000
,
0011
0000
0010
0100
1000
0000
1100
0000
,
1100
0000
0100
0010
0001
0000
0021
0000
,
0100
0031
1100
1020
,
0130
0000
0102
0000
0013
0000
0001
1000
,
0001
0000
1000
0100
1000
0000
0100
0010
,
0100
0000
0010
0001
0010
0000
0001
0100
,
0001
0000
0100
0010
0100
0000
0010
1000
,
0010
0000
1000
0100
1000
0000
0100
0010
,
0100
0000
0010
0001
0010
0000
0001
0100
,
0001
0000
0100
0010
0100
0000
1010
0000
,
0101
0011
0110
1100
,
0110
0011
0110
1001
,
0101
1010
1100
0110
,
0011
0110
1100
2002
,
0000
0000
0000
3003
;

//--------------- dance-single - Pandemonium X ----------------
#NOTES:
     dance-single:
     Pandemonium X:
     Hard:
     14:
     0,0,0,0,0:
0000
0000
0000
0000
,
0000
0000
0000
0000
,
0000
0000
0000
0000
,
0001
0100
0000
0100
0010
0000
0100
0010
1000
0000
0100
0000
0010
0000
0100
0000
,
1000
0000
0000
0000
0000
0000
0000
0000
0001
0100
0000
0100
0010
0000
0100
0010
,
1000
0100
0010
0100
0020
0000
0032
0000
,
0103
0010
0000
0100
0010
0000
0100
0001
0010
0000
0100
0000
1000
0000
0100
0000
,
0010
0100
0000
1000
0000
0000
0001
0000
0000
0100
0000
0000
0001
0000
1000
0000
,
0100
0010
0000
0100
0010
0000
0100
1000
0010
0000
0100
0000
0001
0000
1000
0000
,
0100
0010
0000
0100
0000
0000
1000
0000
1000
0000
0001
0000
0000
1000
0000
0000
,
0101
0010
1000
0000
1100
0010
0001
0000
,
1001
1001
0110
0110
,
0001
0100
0010
1000
0001
0100
0010
1000
,
0001
1000
0001
1000
0001
1000
0001
1000
0001
1000
0001
1000
0001
1000
0001
1000
,
0000
0000
0000
0000
0201
0000
0301
0200
0000
1300
0200
0000
0301
0010
1000
0010
,
0100
0001
0100
0010
0001
1000
0020
0000
0230
0000
0310
1000
0001
0010
0100
0010
,
0001
1000
0002
0000
2003
0000
3001
0020
0000
1030
0020
0000
0130
0010
0001
0010
,
0100
1000
0100
0001
0100
1000
0010
0100
2000
0000
3100
0001
2000
0000
3002
0000
,
2000
0000
0000
3003
2001
0000
0000
3001
0100
0000
0000
0100
0010
0000
0000
0010
,
1000
0000
0100
0000
0010
0000
0000
0001
0010
0000
0000
0010
0100
0000
0000
0100
,
1000
0000
0001
0000
0100
0000
0000
0001
1000
0000
0000
1000
0010
0000
0000
0010
,
1000
0100
2100
0000
3010
0000
0102
0000
,
0013
0000
0000
0000
1100
0000
0000
0001
0010
0000
0000
0100
1000
0000
0000
0100
,
0010
0000
0001
0000
1000
0000
0000
0001
0100
0000
0000
0010
1000
0000
0000
0001
,
0100
0010
1000
0001
1000
0000
0001
0010
,
0100
2200
3300
0022
,
0033
0000
1001
0001
1000
1010
1000
0100
,
0110
0010
0001
1000
0010
0001
0010
1000
,
0100
0010
0011
0010
0100
1100
1000
0010
,
0110
0001
0001
1000
0100
0001
0100
1000
,
0010
0100
0001
0100
1000
0200
0000
1300
,
0100
0002
0000
0013
0100
0020
0000
0130
,
0001
0100
1000
1000
0001
0100
0010
0010
,
1000
0001
1000
0100
0010
0200
0000
1000
,
2300
0000
0000
0000
3001
0100
0010
1000
0200
0000
0000
0000
0310
0001
1000
0100
,
0020
0032
0103
0020
,
1030
0000
2001
0000
3002
0000
1003
0010
,
0100
0001
1000
0010
0100
0001
0010
0100
,
0010
0001
1000
0010
1000
0001
0010
0100
,
0010
0001
0100
0010
1000
0001
0010
0100
,
0010
0001
0100
0010
1000
0100
0010
0001
,
0010
0100
0010
0001
0100
0010
2000
0000
,
3001
0000
0200
0000
0010
0000
0301
1000
,
1000
0001
0001
0100
0100
0010
1001
0000
,
1001
0000
0000
0000
0001
0100
0010
1000
0100
0010
0001
0000
0010
0000
0010
0000
,
0010
0000
0000
0000
0100
0010
0001
1000
0010
0100
0001
0000
1100
0000
1100
0000
,
1100
0000
0000
0000
1000
0010
0100
0001
0010
0001
1000
0000
0101
0000
0101
0000
,
0101
0000
0100
0100
0100
0000
0010
1000
,
0001
0010
0100
0010
0001
0100
0010
1000
,
0100
0010
0100
1000
0001
0100
0020
0000
,
1000
0100
2030
3002
,
0010
0000
2003
0000
0010
0000
3001
0010
,
0001
0100
0010
1000
0001
0010
0100
0010
,
0001
0100
0010
1000
0100
0010
0001
0010
,
0100
1000
0010
0100
0001
0010
0001
0100
,
0010
1000
0010
0100
0001
0010
0100
0010
,
0001
0100
0010
1000
0001
0010
0100
1000
,
0100
0010
0100
1000
0100
0010
0011
0001
,
0100
0010
1010
0010
0100
0001
1001
1000
,
0100
0010
0110
0100
1000
0010
1010
0010
,
0110
0000
0100
0000
0101
0000
0001
0000
1001
0000
1000
0000
0001
0100
0001
1000
,
0001
0100
0001
0010
0100
0010
0100
1000
0010
1000
0100
2000
0002
0000
0000
0000
,
0000
0000
0000
3003
;

//--------------- dance-single - Pandemonium X ----------------
#NOTES:
     dance-single:
     Pandemonium X:
     Challenge:
     16:
     0,0,0,0,0:
0000
0000
0000
0000
,
0000
0000
0000
0000
,
0000
0000
0000
0000
,
0001
0100
0000
0001
0010
0000
0100
1000
0010
1000
0001
0010
0100
0000
0010
0001
,
0200
0000
1000
0000
0001
0000
1300
0000
0010
0100
0000
0100
0001
0000
0010
0100
,
0010
0000
0001
0000
0100
0000
0010
0000
0100
0000
0000
0000
0100
0000
0001
0000
0200
0000
0000
0000
0000
0000
0000
0000
0301
1000
0001
1000
0001
1000
0001
1000
,
0001
0100
0000
0100
0001
0000
1000
0010
0100
0010
1000
0100
0010
0000
0100
0010
,
0100
0010
0000
0100
0000
0000
0010
0000
0000
0010
0000
0000
0010
0000
0010
0000
,
0100
1000
0000
1000
0100
0000
0010
0100
0010
0001
0100
0010
0100
0000
0010
1000
,
0001
1000
0000
0100
0000
0000
1000
0000
1000
0000
1001
0000
0000
0011
0000
0000
,
1100
0000
0000
1000
0010
0000
0100
0000
0101
0000
0000
0001
0010
0000
0100
0000
,
1100
0011
0101
1010
,
0001
0100
0010
1000
0001
0010
0100
0010
,
0001
1000
0001
1000
0001
1000
0001
1000
0001
1000
0001
1000
0001
1000
0001
1000
,
0000
0000
0000
0000
0000
0000
0000
0000
0002
0000
0200
0003
2000
0300
0200
3000
0002
0300
0020
0003
2000
0030
0020
3000
0002
0030
0020
0003
0200
0030
2000
0300
,
0200
3000
0020
0300
0200
0030
2000
0300
0002
3000
0200
0003
0020
0000
0000
0300
0200
0000
0030
0000
2300
0000
0200
3000
0002
0300
2003
0000
0200
3000
0002
0300
,
0200
0003
2000
0300
0020
0000
3000
0000
2030
0000
0020
3000
0002
0030
0020
0003
2000
0030
0200
3000
0002
0300
0200
0003
2000
0300
0200
3000
0020
0300
0002
0030
,
0020
0003
0200
0030
0020
0300
0002
0030
2000
0003
0002
3000
0020
0003
0200
0030
2000
0000
0000
0000
0000
0000
0000
0300
3001
0010
0001
0000
1000
0010
1000
0000
,
2002
0000
0000
0003
3002
0000
0000
1003
0100
0000
1000
0000
0001
0000
0100
0000
,
0001
0000
0010
0000
0200
0000
0000
0310
0001
0000
0100
0000
0001
0000
1000
0000
,
0100
0000
0010
0000
0200
0000
0000
1300
0010
0000
1000
0000
0001
0000
0100
0000
,
0002
0000
0000
0000
2003
0000
0000
3001
0020
0000
0000
0130
2000
0000
0000
3001
,
0200
0000
0000
0000
0320
0000
0000
0130
0001
0000
1000
0000
0100
0000
1000
0000
,
0001
0000
0010
0000
0002
0000
0000
0013
0100
0000
1000
0000
0100
0000
0010
0000
,
0100
0000
1000
0000
0020
0000
0000
0130
0001
0000
0010
0000
0100
0000
1000
0000
,
0100
0000
0010
0000
0001
0100
0001
0100
0001
0000
1000
0000
0100
1000
0100
1000
,
0100
1000
1100
0100
0010
0011
0001
0100
,
0110
0000
1010
0000
1000
0000
0100
0010
0100
0010
0100
0000
0010
0000
1000
0000
,
0010
0001
0011
0010
0100
1100
1000
0001
,
1001
0000
0101
0000
0001
0100
0010
0100
0010
0100
0010
0000
0001
0000
0010
0000
,
1000
0010
0001
1000
0010
0200
0000
1300
,
0100
0020
0000
0130
0001
2000
0000
3001
,
0010
0100
0010
0010
0001
0010
0100
0010
,
0001
0000
1000
0000
0010
1000
0001
1000
0001
1000
0002
0000
0000
0000
1000
0000
,
2003
0000
0000
0000
3001
0010
0001
0010
0002
0000
0000
0000
1003
0010
1000
0010
,
2000
0000
0000
3000
1001
0000
0000
0000
0110
0000
0000
0000
1001
0000
0000
0000
,
0110
0000
0000
0000
0000
0000
0000
0000
0002
0000
0000
0000
0000
0000
0000
0000
1003
0010
1000
0010
1000
0010
1000
0010
1000
0000
0000
0000
0100
0000
0000
0000
,
1000
0000
0010
0000
0100
0000
0001
0000
0010
0000
0100
0010
0100
0000
0010
0000
,
0001
0100
0010
1000
0001
0010
0100
0010
,
0001
0000
0100
0000
0010
0000
1000
0010
1000
0000
0001
0010
0001
0000
1000
0000
,
0001
1000
0100
1000
0010
0100
0001
0100
,
0001
0000
0010
0000
0001
0000
1000
0001
1000
0000
0100
0010
0100
0000
0100
0000
,
0100
0100
0010
0010
0010
0010
0001
1000
,
1000
0100
0100
0010
0010
0001
0011
0000
,
1100
0000
0000
0000
1000
0100
0010
0100
1000
0001
1000
0000
1001
0000
1001
0000
,
1001
0000
0000
0000
0001
0100
0010
1000
0010
1000
0100
0000
0011
0000
0110
0000
,
0011
0000
0000
0000
0001
0010
0100
1000
0001
0100
0001
0000
1010
0000
0110
0000
,
1010
0000
0000
0000
0001
0000
0001
0000
0001
0000
0001
0000
1000
0100
1000
0000
,
0100
0010
0100
0000
0010
0000
0001
0000
0101
0000
0000
0000
0001
0100
0001
0000
,
0100
0010
0100
0000
0010
0000
1000
0000
1010
0000
0000
0000
1000
0100
1000
0000
,
0100
0000
0010
0000
0001
0010
0001
0000
0010
0000
0100
0000
0010
0100
0010
0000
,
0100
0000
1000
0000
0010
0100
0010
0000
0100
0000
0000
0000
1002
0000
0000
1003
,
0200
0000
0000
0310
0002
0000
0000
0103
0020
0000
0000
1030
0200
0000
0000
0310
,
0002
0000
0000
0013
0200
0000
0000
0310
0002
0000
0000
1003
0020
0000
0000
0130
,
0002
0000
0000
0013
0200
0000
0000
0310
0002
0000
0000
0013
0200
0000
0000
1300
,
0020
0000
0000
0130
0002
0000
0000
1003
0002
0000
0000
0013
0200
0000
0000
0000
,
1000
0000
0000
0310
0002
0000
0000
0103
0020
0000
0000
0130
0002
0000
0000
0013
,
0200
0000
0000
1300
0002
0000
0000
1003
0020
0000
0000
1030
0001
0100
0010
0100
,
0001
0100
0010
1000
0001
0010
0100
0010
0001
1000
0100
1000
0001
0010
0100
1000
,
0001
0100
0001
0010
0001
1000
0100
1000
0001
0100
0010
1000
0100
1000
0010
0100
,
0001
0010
0100
0010
0001
0100
0010
1000
0001
0010
0001
0100
0010
1000
0100
0010
,
0100
1000
0001
0100
0010
0100
0001
0010
0100
1000
0001
1000
0020
0000
0000
0000
,
0000
0000
0000
0030
;

//--------------- dance-double - Pandemonium X ----------------
#NOTES:
     dance-double:
     Pandemonium X:
     Easy:
     7:
     0,0,0,0,0:
00000000
00000000
00000000
00000000
,
00000000
00000000
00000000
00000000
,
00000000
00000000
00000000
00000000
,
00010000
00000000
00001000
00000000
,
02000000
00000000
03001000
00000000
,
00010000
00000000
00000200
00000000
,
00010300
00000000
00001000
00000000
,
01000000
00000000
01000000
00000000
,
00100000
00000000
10000000
00000000
,
00010000
00000000
00100000
00000000
,
00001000
00000000
00010000
00000000
,
00000100
00001000
00000100
00001000
,
00000010
00000100
00000001
00001000
,
00000100
00010000
00001000
01000000
,
00000000
00020000
00230000
02000000
,
00000000
03300000
00200000
00320000
00032000
00003200
00000320
00000000
,
00000000
00000032
00002003
00000020
,
00000000
00003030
00000200
00002300
00023000
00000000
00032000
00023000
,
00002000
00030000
02003000
00000000
00000000
00000000
00000000
00000000
,
03100000
20000000
00000000
00000000
,
30010000
00200000
00000000
00000000
,
00310000
00200000
00320000
00032000
,
00003200
00000320
00000000
00000000
,
00000130
00002000
00000000
00000000
,
00003010
00020000
00000000
00000000
,
00000000
00032000
00003000
00020000
,
00030000
00000000
00012000
00000000
00000000
00010000
00000000
00000000
,
00013000
00000000
00010000
00000010
,
00000100
00000000
00000002
00000000
00000000
00001000
00000000
00000000
,
00001003
00000000
00000100
00010000
,
00001000
00000000
00010000
00000000
00000000
00000200
00000000
00000300
,
00000000
00020000
00000000
00030000
00000000
00000020
00000000
00000030
,
00000000
00000100
00000010
00001000
,
00000100
00010000
00001000
01000000
,
00010000
00000000
00100000
00001000
00010000
00000000
00010000
00000010
,
00001000
00000110
00000110
00001001
,
00001001
00000000
00000000
00000002
,
00000000
00000000
00000103
00000010
,
00000000
00010000
00000000
00000000
00002000
00000000
00000000
00000000
,
00000000
00003000
00010000
00001000
,
00000000
01000000
00000000
00000000
00200000
00000000
00000000
00000000
,
00000000
00000000
00300000
10000000
,
00000000
00010000
10000000
01000000
,
01000000
00100000
00100000
00101000
,
00101000
00000000
00000000
00000000
00000000
00000000
00010000
00010000
,
00010000
00000000
00000000
00000000
00000000
00000000
00000100
00000100
,
00000100
00000000
00000000
00000000
00000000
00000000
00001000
00001000
,
00001000
00000000
00001000
00001000
00001000
00000000
00000002
00000000
,
00000100
00000103
00000020
00002030
,
00000100
00000100
00003100
00020000
,
00031000
00100000
00020000
02030000
,
03001000
00020000
00030100
00002100
,
00003200
00000302
00000203
00000320
,
00000032
00000203
00002300
00023000
,
00230000
20300000
32000000
03020000
,
02030000
03200000
00320000
02030000
,
00000000
03020000
00230000
00302000
,
00003020
00000032
00000203
00001300
,
00011000
01000000
01100000
10000000
,
10010000
00100000
11000000
20000000
,
32000000
03200000
00320000
00032000
,
00003200
00000320
00000032
00002000
,
00000000
00000000
00000000
00003003
;

//--------------- dance-double - Pandemonium X ----------------
#NOTES:
     dance-double:
     Pandemonium X:
     Medium:
     11:
     0,0,0,0,0:
00000000
00000000
00000000
00000000
,
00000000
00000000
00000000
00000000
,
00000000
00000000
00000000
00000000
,
00010000
00000100
00001000
00000010
,
00000100
00000100
00000100
00000000
00000010
00000000
00010000
00000000
,
00001000
00100000
02000000
03200000
,
00301000
00010000
00000100
00001000
,
00000020
00000000
00000000
00000000
,
00000130
00000001
00001000
00000100
,
00020000
00000000
00000000
00030000
,
00011000
00001000
01001000
01000000
,
01100000
01100000
10010000
10010000
,
10000000
01000000
10000000
00000000
00010000
01000000
00010000
00000000
,
10000000
01000000
00100000
00010000
00100000
00001000
00010000
00000100
,
00000000
00000000
00000000
00000000
00011000
00000000
00001000
00010000
00000000
00000100
00001000
00000000
00000020
00000000
00000000
00000000
,
00000000
00000000
00000000
00000000
00000130
00000001
00001000
00000000
00000100
00000000
00001000
00000100
00010000
00001000
00010000
00001000
,
00010000
00000000
00001000
00000000
01000000
00000000
00010000
00100000
00000000
01000000
10000000
00000000
00200000
00000000
00000000
00000000
,
00000000
00000000
00000000
00000000
01300000
10000000
01000000
00010000
20000000
00000000
00000000
00000000
30020000
00000000
00230000
00000000
,
00002000
00303000
00011000
00000000
00001000
00000000
01000000
00000000
,
00100000
10000000
00010000
00000000
00100000
00000000
00001000
00000000
,
00010000
00000100
00001000
00000000
00000010
00000000
00000100
00000000
,
00000001
00000011
00000110
00001100
,
00010100
00011000
00001000
01000000
,
00010000
00100000
01000000
00000000
10000000
00000000
00010000
00000000
,
01000000
00100000
10000000
00000000
00010000
00000000
00100000
00000000
,
00001000
00000000
00010000
00000100
00010000
00000100
00010000
00001000
,
00010000
00001000
02001000
00000000
00000000
00100000
00000000
00000000
,
00001000
00000000
03010000
00100000
,
01000000
00000000
11000000
00000000
00000000
00110000
00000000
00000000
,
10010000
00000000
00000000
00000000
00010000
01000000
00100000
10000000
,
00010000
00000000
00100000
00000000
00000000
00002000
00000000
00003000
,
00000000
00020000
00000000
00030000
00000000
00000200
00000000
00001300
,
00000010
00000000
00000100
00001000
00000100
00000001
00001000
00000001
,
00000010
00001000
00000010
00000001
00001000
00000020
00000000
00010000
,
00010030
00000000
00000000
00000000
00001000
00010000
00001000
00010000
00001000
00000000
00000000
00000000
00010000
00001000
00010000
00001000
,
00010000
00011000
00011000
00011000
,
00011000
00000000
00000000
00000100
,
00001000
00000000
00000010
00000000
00000100
00000001
00000010
00000000
,
00000100
00000000
00000010
00000000
00000001
00000100
00000010
00000000
,
00001000
00000000
00000100
00000000
00010000
00001000
01000000
00000000
,
00010000
00000000
00100000
00000000
01000000
00100000
00010000
00000000
,
00100000
01000000
10000000
21000000
,
30100000
00000000
01020000
00000000
00130000
00000000
00010000
01000000
,
10000000
01000000
00010000
00100000
00001000
00010000
00010100
00000000
,
00010100
00000000
00000100
00001000
00000010
00000000
00000001
00000010
,
00001000
00000000
00001000
00000100
00000001
00000000
00001100
00000000
,
00001100
00000000
00000100
00010000
00001000
00010000
00000010
00000010
,
00000010
00000000
00010000
00010000
00010000
00000000
00001000
01000000
,
00100000
00000000
01000000
00000000
00010000
00000000
00100000
01000000
,
10000000
00000000
00010000
00000000
01000000
00000000
00010000
00100000
,
00001000
00010000
00000100
00001100
,
00000000
01001000
00000000
00210000
,
02300000
03200000
00320000
00032000
,
00003200
00000320
00000032
00000203
,
00002300
00023000
00230000
20300000
,
32000000
03200000
00320000
00032000
,
00000000
00023000
00030200
00002300
,
00023000
00230000
02300000
03010000
,
10010000
00110000
00101000
00011000
,
00001100
00000011
00001100
00001001
,
00001010
00000000
00001100
00000000
00010100
00000000
00010000
00001000
,
01000000
00100000
10000000
01000000
00100000
00010000
00022000
00000000
,
00000000
00000000
00000000
00033000
;

//--------------- dance-double - Pandemonium X ----------------
#NOTES:
     dance-double:
     Pandemonium X:
     Hard:
     16:
     0,0,0,0,0:
00000000
00000000
00000000
00000000
,
00000000
00000000
00000000
00000000
,
00000000
00000000
00000000
00000000
,
00010000
00000100
00000000
00010000
00001000
00000000
01000000
00001000
00010000
00001000
00010000
00001000
00010000
00000000
00010000
00000100
,
00002000
00000000
00000000
00000000
00000000
00000000
00000000
00000000
00003010
00010000
00000000
00001000
00100000
00000000
00001000
00100000
,
00010000
00000000
00100000
00000000
00001000
00000000
00010000
00000000
00001000
00000000
00000000
00000000
00010000
00000000
00001000
00000000
00200000
00000000
00000000
00000000
00000000
00000000
00000000
00000000
01300000
10000000
01000000
10000000
01000000
10000000
01000000
10000000
,
01000000
00100000
00000000
00100000
01000000
00000000
10000000
00100000
10000000
00100000
10000000
00100000
10000000
00000000
00010000
00100000
,
00010000
01000000
00000000
00010000
00000000
00000000
00100000
00000000
00000000
00001000
00000000
00000000
00010000
00000000
00010000
00000000
,
00000010
00000100
00000000
00000100
00000010
00000000
00000100
00000001
00001000
00000001
00001000
00000001
00001000
00000000
00000001
00001000
,
00000100
00001000
00000000
00000010
00000000
00000000
00000100
00000000
00000001
00000000
00000101
00000000
00000000
00001010
00000000
00000000
,
00001000
00000100
00000000
00010000
00001000
00000000
00010000
00001000
01000000
00001000
00010000
00000100
00001000
00000000
00000010
00001000
,
00000200
00000000
00000000
00010000
00000000
00010300
00000000
00000000
00002000
00000000
00000000
01000000
00000000
01003000
00000000
00000000
,
10010000
10000000
00100000
01000000
00010000
00100000
00001000
00010000
,
00001000
00010000
00001000
00010000
00001000
00010000
00001000
00010000
00001000
00010000
00001000
00010000
00001000
00010000
00001000
00010000
,
00000000
00000000
00000000
00000000
01001000
01000000
00100000
00020000
00000000
00130000
20000000
00000000
31000000
00100000
00010000
00001000
,
00010000
00100000
10000000
00010000
10000000
01000000
00200000
00000000
00302000
00000000
00013000
00001000
00010000
01000000
10000000
01000000
,
00010000
00100000
00001000
00000000
00010000
00001000
00000100
00000020
00000000
00000130
00002000
00000000
00003100
00000010
00010000
00001000
,
00000010
00000001
00000010
00000100
00001000
00000100
00010000
00000100
00020000
00000000
00000000
00000000
00032000
00000000
00010000
00000000
,
02000000
00000000
00000000
00003000
03100000
00000000
00000000
00100000
01000000
00000000
00000000
01000000
00010000
00000000
00000000
00010000
,
00100000
00000000
00001000
00000000
00010000
00000000
00000000
00000100
00001000
00000000
00000000
00001000
00000010
00000000
00000000
00000010
,
00000100
00000000
00000001
00000000
00000010
00000000
00000000
00000100
00000010
00000000
00000000
00000010
00000001
00000000
00000000
00000001
,
00000100
00000010
00001010
00000000
00010100
00000000
00011000
00000000
,
01001000
00000000
02000000
00000000
00100000
00000000
00000000
00000000
00010000
00000000
00000000
00000000
03100000
00000000
00000000
00100000
,
01000000
00000000
00010000
00000000
10000000
00000000
00000000
10000000
01000000
00000000
00000000
01000000
00100000
00000000
00000000
00100000
,
00001000
00000000
01000000
00000000
00010000
00000000
00000000
00100000
00001000
00000000
00000000
00010000
00001000
00000000
00000000
00010000
,
00000100
00000000
00001000
00000000
00000001
00001000
00000001
00001000
00000001
00000000
00001000
00000000
00000100
00001000
00000100
00001000
,
00000100
00010000
00011000
00001000
01000000
01100000
01000000
00010000
,
10010000
00000000
10000000
00000000
01000000
00000000
00100000
00010000
00100000
00010000
00100000
00010000
00100000
00000000
10000000
00000000
,
00100000
00010000
01010000
01000000
00001000
00011000
00010000
00000100
,
00000110
00000000
00000100
00000000
00001000
00000100
00000010
00000100
00000010
00000100
00000010
00000100
00000010
00000000
00001000
00000000
,
00000010
00000001
00000100
00001000
00010000
00002000
00000000
01003000
,
00010000
00200000
00000000
00310000
00001000
00000200
00000000
00001300
,
00000100
00000100
00001000
00000010
00000100
00001000
00010000
00100000
,
01000000
00001000
00010000
00001000
01000000
00200000
00000000
20300000
,
00020000
00000000
30000000
00000000
10030000
00100000
01000000
00010000
00200000
00000000
00000000
00000000
00301000
00010000
00000010
00000100
,
00000002
00001003
00001010
00001100
,
00011000
00000000
00000000
00000000
00000000
00000000
00000000
00000000
00000200
00000000
00000000
00000000
00000000
00000000
00000000
00000000
00010300
00001000
00010000
00001000
00010000
00001000
00010000
00001000
00010000
00000000
00000000
00000000
00001000
00000000
00000000
00000000
,
00010000
00000100
00001000
00000100
00001000
00000010
00001000
00000001
,
00000010
00000100
00001000
00000100
00010000
00001000
01000000
00001000
,
00100000
00001000
00010000
00000010
00000100
00000010
00001000
00000100
,
00001000
00000100
00010000
00001000
01000000
00010000
00100000
01000000
,
00100000
00010000
01000000
00100000
10000000
00010000
01020000
00000000
,
00000000
00000000
00230000
00000000
00320000
00000000
00031000
00010000
,
00010000
00000100
00000100
00001000
00001000
00000001
00001001
00000000
,
00001001
00000000
00000000
00000000
00000001
00000100
00000010
00001000
00000100
00010000
00001000
00000000
00010000
00000000
00010000
00000000
,
00010000
00000000
00000000
00000000
00001000
01000000
00010000
00100000
01000000
10000000
00010000
10000000
00100000
00000000
00100000
00000000
,
00100000
00000000
00000000
00000000
01000000
00010000
00100000
00001000
00010000
00000100
00001000
00000010
00000100
00000000
00000100
00000000
,
00000100
00000000
00000000
00000000
00000100
00000000
00000100
00000000
00000100
00000000
00000100
00000000
00000001
00000000
00000000
00001000
,
00000001
00000000
00000000
00000001
00000100
00000000
00000000
00000100
00000010
00000000
00010000
00000000
00001000
00000000
00000000
00010000
,
00001000
00000000
00000000
00001000
00010000
00000000
00000000
00010000
00001000
00000000
01000000
00000000
00020000
00000000
00000000
00000000
,
00100000
01000000
10030000
11000000
,
00000000
00000000
00110000
00000000
00000000
00000000
00011000
00010000
,
00000100
00001000
00000010
00000100
00000001
00000010
00000100
00001000
,
00010000
00001000
01000000
00010000
00100000
00001000
00010000
00001000
,
01000000
00001000
00010000
00000100
00001000
00000010
00000100
00001000
,
00010000
00001000
00010000
00100000
00010000
01000000
00010000
00100000
,
01000000
00100000
00010000
00001000
00000100
00000010
00000001
00000100
,
00001000
00000000
00000100
00000000
00000010
00000000
00010000
00000000
00001000
00000000
01000000
00000000
00010000
01000000
00010000
00000000
,
10000000
00100000
10000000
00000000
01000000
10000000
01000000
00000000
10000000
00100000
10000000
00000000
00010000
01000000
00100000
10000000
,
00010000
00100000
00001000
00010000
00000100
00001000
00000010
00000100
00000001
00001000
00000001
00001000
00000001
00000100
00000010
00001000
,
00000100
00010000
00001000
01000000
00100000
10000000
01000000
00100000
00010000
00100000
00001000
00010000
00000100
00001000
00000010
00000100
,
00000001
00000010
00000100
00001000
00000100
00010000
00001000
01000000
00100000
10000000
00010000
00200000
00002000
00000000
00000000
00000000
,
00000000
00000000
00000000
00303000
;
