#TITLE:Saga Script;
#SUBTITLE:;
#ARTIST:MYUKKE.;
#TITLETRANSLIT:;
#SUBTITLETRANSLIT:;
#ARTISTTRANSLIT:;
#GENRE:;
#CREDIT:;
#MUSIC:Saga Script.ogg;
#BANNER:Saga Script.png;
#BACKGROUND:Saga Script-bg.png;
#CDTITLE:;
#SAMPLESTART:77.490;
#SAMPLELENGTH:12.387;
#SELECTABLE:YES;
#OFFSET:-0.067;
#BPMS:0.000=155.000;
#STOPS:;
#BGCHANGES:;
#FGCHANGES:;

//--------------- dance-single - Pandemonium X ----------------
#NOTES:
     dance-single:
     Pandemonium X:
     Beginner:
     5:
     0,0,0,0,0:
0000
0000
0000
0000
,
0000
0000
0000
0000
,
0000
0000
0000
0000
,
0000
0000
0000
0000
,
0000
0000
0000
0000
,
0000
0000
0000
0000
,
0001
0000
1000
0000
,
0010
0000
1000
0001
,
1000
0000
0100
0000
,
1100
0000
0000
0000
,
0001
0000
0001
0000
,
0001
0001
0001
0000
,
1000
0000
1000
0000
,
1000
1000
1000
0000
,
0010
0000
0010
0000
,
0010
0010
0010
0000
,
0200
0000
0000
0300
,
1001
0000
0000
0000
,
0010
1001
0000
0001
,
0000
1000
0000
0100
,
0000
1000
0000
0010
,
0100
0000
0001
1000
,
1001
0000
0001
0000
,
1000
0000
0100
0000
,
1000
0000
0001
0000
,
0200
0000
0300
0000
,
0010
0000
0010
0000
,
0010
0000
0000
0000
,
1000
0000
0001
0000
,
1000
0000
0000
0000
,
0100
0000
0000
0000
0020
0000
0000
0030
,
0001
0000
1000
0000
,
0001
0000
1000
0000
,
0001
1000
1001
0000
,
0001
0000
0001
0000
,
1000
0000
1000
0000
,
0010
0000
0010
0000
,
0100
0100
0100
0000
,
0010
0000
1000
0000
,
0100
0000
1000
0001
,
1000
0000
0001
0000
,
0101
0000
0000
0000
,
0010
0000
0000
0000
,
1000
0000
0000
0000
,
0001
0000
0000
0000
,
0010
0000
0100
0000
,
0010
0000
0000
0002
0000
0000
0000
0003
,
1000
0000
0000
0200
0000
0000
0000
0300
,
0020
0000
0000
0030
,
0100
0100
0100
1001
,
0001
0000
1000
0000
,
0001
1000
0010
0000
,
1000
0000
0001
0000
,
1000
1000
0001
0001
,
0100
0000
0001
0000
,
0010
0100
0010
0000
,
0100
0000
1000
0000
,
0001
1000
0001
0100
,
0010
0000
0010
0000
,
0100
0000
0000
0000
,
0001
0000
1000
0000
,
0001
0000
1000
0000
,
1100
0000
0000
0000
,
0101
0000
0000
0000
,
1001
0000
0001
0000
,
1000
0001
0100
0010
,
1001
0000
0001
0000
,
1000
0000
0000
0010
0000
0000
0000
0000
,
1000
0000
0001
0000
,
0010
0000
0000
0100
0000
0000
0000
0000
,
1000
1000
0001
0001
,
0100
0100
0010
0010
,
0200
0000
0000
0300
,
0010
0000
0000
1000
0000
0000
0001
0000
,
1000
0000
0001
0000
,
0010
0000
0000
0100
0000
0000
2000
0000
,
0000
0000
0000
0000
,
3000
0000
0000
0000
;

//--------------- dance-single - Pandemonium X ----------------
#NOTES:
     dance-single:
     Pandemonium X:
     Easy:
     8:
     0,0,0,0,0:
0000
0000
0000
0000
,
0000
0000
0000
0000
,
0000
0000
0000
0000
,
0000
0000
0000
0000
,
0000
0000
0000
0000
,
0000
0000
0000
0000
,
0002
0000
0203
0000
,
0320
0000
0000
2030
0000
0000
3100
0000
,
2000
0000
3002
0000
,
0103
0000
0010
1000
0000
0100
0010
0000
,
0100
1000
0010
0100
,
1000
0100
0001
1000
,
0001
0010
0100
0001
,
0100
1000
0001
1000
,
0001
0100
0010
1000
,
0001
0010
0100
0010
,
2001
3200
0320
0032
,
1003
0000
0001
0100
0000
0010
1000
0000
,
1001
0001
1000
0100
,
1000
0010
0100
0001
,
0010
0100
0010
0001
,
2000
3200
2300
3020
,
0130
1000
0100
0001
,
1000
0100
0001
0100
,
0010
0100
1000
0001
,
1000
0000
0000
1000
0000
0000
0001
0000
2000
0000
0000
0000
3000
0000
0000
0000
,
0001
0100
0001
0010
,
0001
0100
0001
1001
,
1000
0100
0010
0001
,
0010
0001
0100
0000
,
0010
1000
0100
1000
,
0010
1000
0100
1000
,
0001
0000
1000
0001
1000
0000
0001
1000
,
0001
0010
0100
1000
0001
0000
0000
0000
,
1000
0000
0001
0000
,
0100
0000
0000
0010
0000
0000
0100
0000
,
0001
0000
1000
0000
,
0001
0000
0000
1000
0000
0000
0000
0000
,
0200
0300
2000
3000
,
0020
0000
0030
0200
0000
0310
1000
0001
,
2000
3000
0002
0003
,
0010
0000
0001
0100
0000
0010
1000
0000
,
0001
0001
1000
1000
,
0001
1000
0001
1001
,
0100
0100
0010
0010
,
0100
0010
0100
0110
,
0001
0000
1000
0000
0100
1000
0100
0000
,
1000
0000
0001
0000
0100
0001
0100
0000
,
2001
3200
0320
0032
,
1003
0001
0100
1001
,
0001
0100
0010
1000
,
0100
1000
0001
0100
,
0001
0010
0100
0010
,
0002
2003
3200
2300
,
3001
0100
0001
0010
,
0001
1000
0010
0100
,
0010
1000
0001
0010
,
0002
0023
0230
0320
,
0032
0103
0020
1030
,
0200
0000
0000
2300
0000
3001
0100
0000
,
0010
0100
0001
1000
,
0100
0010
0100
1000
,
0001
1000
0001
1000
0000
0000
0000
0000
,
0001
1000
0001
1000
0000
0000
0000
0000
,
0001
0100
0010
1000
,
0100
0010
0100
1000
,
1100
0000
0011
0000
,
0101
0000
0000
1010
0000
0000
1001
0000
,
0011
0000
1100
0000
,
1010
0000
0000
0101
0000
0000
1001
0000
,
0001
0100
0001
0000
0100
0010
0100
0000
,
0010
1000
0010
0000
1000
0001
1000
0000
,
2001
3200
0320
0032
,
1003
0000
0001
0100
0000
0010
1000
0000
,
0002
0003
2000
3000
,
0020
0000
0030
0200
0000
0300
2002
0000
,
0000
0000
0000
0000
,
3003
0000
0000
0000
;

//--------------- dance-single - Pandemonium X ----------------
#NOTES:
     dance-single:
     Pandemonium X:
     Medium:
     13:
     0,0,0,0,0:
0000
0000
0000
0000
,
0000
0000
0000
0000
,
0000
0000
0000
0000
,
0000
0000
0000
0000
,
0000
0000
0000
0000
,
0000
0000
0000
0000
,
0201
0000
0000
0310
2000
0000
0000
3100
,
0020
0000
0000
0230
0000
1300
0001
1000
,
0020
0000
0000
0130
0002
0000
0000
0000
,
1003
0000
0001
0010
0001
0000
0100
0000
0000
0000
0010
0000
1001
0000
0000
0000
,
0001
0100
0010
0000
0100
0001
1000
0000
,
0100
0010
0100
1000
0001
1000
1001
0000
,
1000
0010
0100
0000
0010
1000
0100
0000
,
0010
0100
1000
0001
0010
0001
0101
0000
,
0001
0100
0010
1000
0001
0100
0010
1000
,
0001
0100
0010
1000
0001
0010
0100
1000
,
0001
0001
1000
1000
0010
0010
0100
0100
,
0101
0000
0010
1010
0000
1000
1100
0000
,
1001
0000
1100
0100
1000
0100
1000
0001
,
1000
0100
0000
1000
0100
0000
1000
0000
0010
0100
0000
0100
0001
0000
1000
0000
,
0001
0000
0010
0001
0200
0001
0301
1000
,
0001
0000
0010
0001
0000
0001
0100
0000
0010
0000
0100
0000
0002
0000
0000
0000
,
1003
0000
1100
1000
0010
0100
0010
1000
,
0001
1000
0100
1000
0001
0100
0001
0000
,
0010
1000
0010
0001
0100
1000
0100
0010
,
1010
0000
0000
0101
0000
0000
0011
0000
2100
0000
0000
0000
3001
0000
0000
0000
,
1000
0000
0000
0001
0000
0000
0100
0000
0001
0000
0000
0010
0000
0000
0001
0000
,
1000
0000
0000
0010
0000
0000
1000
0000
0010
0000
0100
0000
0001
0000
1000
0000
,
0001
0000
0100
0001
0000
0100
0001
0000
1000
0000
0100
1000
0000
1000
0001
0000
,
1000
0000
0010
1000
0000
0010
1000
0000
0010
0000
1000
0000
0100
0000
0000
0000
,
0020
0000
0000
0000
0000
0000
0000
0000
0031
0000
0100
0010
0100
0010
0100
0010
,
0100
0000
0000
0100
0000
0000
0100
0000
0010
0000
0000
0000
0100
0000
0000
0000
,
1000
0000
0100
0001
0020
0000
1030
0010
,
0001
0100
0010
2000
0002
0000
3003
0000
,
2000
3000
0002
0003
,
0020
0000
0030
0002
0000
0003
0010
0000
,
0002
0003
2000
3000
,
0020
0000
0000
2000
0000
3030
0000
0000
,
2010
0000
0100
0000
,
0010
0000
0000
3002
0000
1003
0100
1000
,
0002
0000
0100
0000
,
1003
0000
0001
1000
0001
0000
1000
0000
0000
0000
0001
0000
1000
0000
0000
0000
,
0201
0001
0010
0301
,
1200
0000
0010
0000
1000
0000
0310
0001
,
1002
0100
1000
0103
,
2001
0010
0001
3010
,
1000
0000
0010
0000
0100
0000
0001
1000
0001
1000
0001
1000
0001
0000
1001
0000
,
0001
0000
0010
0000
0100
0000
1000
0001
1000
0001
1000
0001
1000
0000
1001
0000
,
1000
0100
0010
0001
0010
0100
1000
0001
,
1000
0001
1000
1001
,
0001
0100
0010
0000
0100
0010
1000
0000
,
0001
0010
0001
1000
0010
1000
0100
0000
,
0010
0100
1000
0000
0100
0010
0001
0000
,
0010
0001
0100
1000
0100
0010
1000
0001
,
0010
0001
0100
0000
0010
1000
0100
0000
,
1000
0100
0010
0100
1000
0001
0100
0000
,
0001
1000
0100
0000
1000
0001
0010
0000
,
0001
0100
1000
0100
0010
1000
0100
0000
,
2001
3100
0021
0130
,
2100
0000
0001
3002
0000
1003
0010
0001
,
0010
0100
0010
1000
0010
0100
1000
0000
,
0100
1000
0010
1000
0001
1000
0100
0010
,
0001
1000
0001
1000
0001
1000
0001
0000
0000
0000
0000
0000
0000
0000
0000
0000
,
1000
0001
1000
0001
1000
0001
1000
0000
0000
0000
0000
0000
0000
0000
0000
0000
,
0010
1000
0100
1000
0001
0010
0100
0000
,
0010
0001
0100
0010
1000
0100
0010
0001
,
1001
0000
0001
1000
1001
0000
1000
0001
,
1001
0000
0010
1001
0000
0100
1001
0000
,
1001
0000
0001
1000
1001
0000
1000
0001
,
1001
0000
0001
1001
0000
1000
0001
0010
,
0001
0000
0100
0000
0010
0000
1000
0100
1000
0001
0000
0100
0001
0000
0010
0100
,
0010
0100
0010
0000
0001
0000
1000
0100
0000
1000
0010
0000
0100
0000
0001
0000
,
0020
0000
0000
0000
0000
0000
0130
1000
0020
0000
0000
0000
0000
0000
0000
0000
,
0130
0000
0001
1000
0001
0000
1001
0000
0000
0000
1000
0001
1000
0000
0000
0000
,
0002
0003
2000
3000
,
0020
0000
0000
0000
0030
0000
0200
0000
0000
0000
0310
2000
0002
0000
0000
0000
,
0000
0000
0000
0000
,
3003
0000
0000
0000
;

//--------------- dance-single - Pandemonium X ----------------
#NOTES:
     dance-single:
     Pandemonium X:
     Hard:
     16:
     0,0,0,0,0:
0000
0000
0000
0000
,
0000
0000
0000
0000
,
0000
0000
0000
0000
,
0000
0000
0000
0000
,
0000
0000
0000
0000
,
0000
0000
0000
0000
0000
0000
0000
0000
0000
0000
0000
0000
0000
0000
1000
0001
,
0200
0000
0000
0000
0000
0000
0310
1000
0002
0000
0000
0000
0000
0000
1003
0100
,
0020
0000
0000
0000
0000
0000
0230
0000
0000
0000
0310
0001
0100
0010
1000
0001
,
2000
0000
0000
0000
0000
0000
3001
0010
0200
0000
0000
0000
0000
0000
0000
0000
,
1300
0000
0010
1000
0001
0000
1001
0000
0000
0000
1000
0000
1001
0000
0000
0000
,
0001
0000
0100
0000
0010
0000
0100
0001
0010
0000
0100
0000
1000
0000
0001
1000
,
0010
0000
1000
0000
0100
0000
0010
0100
0000
0100
1000
0000
0001
0000
1000
0001
,
1000
0000
0001
0000
0100
0000
0001
1000
0100
0000
1000
0000
0010
0000
1000
0001
,
0010
0000
0001
0000
1000
0100
0000
0010
0000
0001
0100
0000
0020
0000
0000
0000
,
1030
0000
0001
0000
1000
0000
0010
0100
0010
0000
1000
0000
0001
0000
0010
0100
,
0010
0000
0001
0000
0010
0000
0010
0100
0000
0010
0001
0000
1001
0000
0000
0000
,
0100
0001
0100
0001
0100
0010
0100
0010
1000
0010
0100
0001
1000
0000
0100
0000
,
0110
0000
1100
0011
0000
0101
1010
0000
,
1001
0000
0000
0000
0201
0000
0301
1000
0100
0000
1000
0000
0001
0000
0100
0000
,
0010
0100
0000
0001
0010
0001
1000
0000
0001
0100
0000
0100
0010
0100
0010
1000
,
0100
0000
0011
0010
0200
1000
1300
0100
,
1000
0000
0001
0100
0000
0001
0010
0001
1000
0000
0001
1000
0200
0000
0000
0000
,
0310
0000
0000
0000
1200
0000
1300
0000
0001
0000
1000
0010
1000
0000
0001
0000
,
0010
0000
0010
0001
1000
0010
1000
0001
1000
0100
0010
0100
1000
0000
0000
0000
,
0002
0203
0320
0230
2300
3200
0302
2003
,
3100
0000
0000
1100
0000
0000
0011
0000
2002
0000
0000
0000
3003
0000
1000
0001
,
1000
0000
0001
0100
0000
0100
0001
0010
0100
0000
0100
1000
0000
1000
0100
0010
,
0100
0000
0100
1000
0000
1000
0001
0100
0001
0000
1000
0100
1000
0000
0001
0000
,
1000
0000
0001
0010
0000
0010
0001
0000
1000
0000
0100
0010
0000
0010
0001
0000
,
0100
0000
0010
0100
0000
0100
0001
0000
1000
0000
0100
0000
0001
0000
0100
0000
,
0010
0000
0001
0010
0000
0010
0100
1000
0001
1000
0100
1000
0100
1000
0100
1000
,
0001
0000
0001
0100
0000
0100
0001
0010
0100
0000
0010
0001
1000
0000
0001
0000
,
2000
0000
3002
0203
0320
0000
0230
2300
,
3200
0000
0320
0000
2030
0000
3200
0000
0020
0000
0000
0000
0330
0000
0000
0001
,
2000
0000
0000
0000
3010
0000
0000
0100
0002
0000
0000
0000
0013
0000
0000
0100
,
0020
0000
0000
0000
0031
0000
0200
0000
0000
0000
0301
1000
0001
0010
0100
1000
,
0002
0000
0000
0000
0103
0000
0000
0010
1000
0000
0100
0000
0010
0000
0100
1000
,
0001
0000
0001
1000
0001
0000
2000
0000
0000
0000
3100
0000
1000
0100
1000
0001
,
0200
0000
0000
0000
0000
0000
0301
1000
0020
0000
0000
0000
0000
0000
0130
0001
,
2000
0000
0000
0000
0000
0000
3200
0000
0000
0000
0310
0001
0100
0001
1000
0001
,
0020
0000
0000
0000
0000
0000
0000
0130
2000
0000
0000
0000
0000
0000
0000
3010
,
0100
0000
0010
1000
0001
0000
1001
0000
0000
0000
1000
0000
1001
0000
0000
0000
,
0001
0000
1000
0000
0010
0100
0010
0000
1000
0000
0001
0000
1000
0000
0100
0010
,
0100
0000
1000
0000
0001
0000
1000
0000
0001
0000
1000
0000
0001
0000
0100
0010
,
0100
0000
0001
0000
1000
0000
0001
0000
1000
0000
0001
0000
1000
0000
0010
0100
,
0010
0000
1000
0000
0001
0000
0010
0000
0100
0000
1000
0100
1000
0000
0001
0000
,
0100
0000
0001
0000
0100
0000
0010
1000
0010
1000
0010
1000
0010
0000
1010
0000
,
1000
0000
0100
0000
1000
0000
0001
0010
0001
0010
0001
0010
0001
0000
0011
0000
,
0001
0100
0001
0100
0010
0100
0010
1000
0010
0100
0001
1000
0010
0000
1000
0000
,
0020
0230
0302
1003
,
1001
0000
0001
0100
0001
0010
0001
0000
1000
0000
0100
0010
0100
0000
1000
0001
,
1000
0000
1000
0010
1000
0100
1000
0000
0001
0000
1000
0100
0010
0000
0010
0100
,
1000
0000
0100
1000
0001
1000
0001
0000
0100
0000
0010
0100
0001
0000
0010
0100
,
0020
0000
0230
0000
2300
0000
3200
0000
0320
0000
0130
1000
0020
0000
0230
0000
,
0301
0000
1000
0010
1000
0100
0010
0000
0100
0000
1000
0001
0100
0000
0010
1000
,
0001
0000
0001
0010
0001
0100
0001
0000
1000
0000
0001
0100
0010
0100
0001
1000
,
0100
0000
0010
0100
1000
0001
1000
0000
0100
0000
0010
0100
1000
0000
0001
1000
,
0002
0000
0203
0000
0320
0000
0230
0000
0302
0000
0013
0100
2000
0000
3002
0000
,
0203
0000
0000
0000
0310
0000
0000
0010
2000
0000
0000
0000
3100
0000
0000
0100
,
0020
0000
0000
0000
0031
0000
2000
0000
0000
0000
3100
0010
0100
0010
0001
1000
,
0001
0000
0100
0001
0010
0001
1000
0000
0100
0000
0010
0100
1000
0000
0010
0100
,
0001
0000
1000
0000
0100
0000
1000
0000
0001
0000
0100
0010
1000
0000
0001
0000
,
0010
0100
0010
0100
0010
0100
0010
0000
0000
0000
0000
0000
0000
0000
0000
0000
,
0100
0010
0100
0010
0100
0010
0100
0000
0000
0000
0000
0000
0000
0000
0000
0000
,
1001
0000
1000
0001
0100
0001
1000
0000
0100
0000
0010
0100
1000
0000
0100
0010
,
0100
0000
0010
0001
0100
0000
1000
0000
0100
0000
0001
1000
0100
0000
0010
0000
,
0200
0000
1300
0001
0201
0000
0301
1000
,
2100
0000
0000
0000
3001
0000
1002
0000
0000
0000
1003
0010
1000
0100
1000
0001
,
2000
0000
3001
1000
1020
0000
1030
0001
,
0021
0000
0031
1000
0001
0000
0201
0000
0000
0000
0301
1000
0001
0000
1000
0000
,
1100
0000
1100
0000
1100
0000
1000
0100
1000
0001
0000
0001
1000
0000
0100
1000
,
0010
0100
0001
0000
0011
0000
0001
0010
0000
0010
0100
0000
1000
0000
1000
0000
,
0001
0100
0001
0100
0010
1000
0010
1000
0010
0100
0001
1000
0010
0000
0000
0000
,
1001
0000
0001
0010
0100
0000
1200
0000
0000
0000
1300
0000
1001
0000
0001
1000
,
0020
0000
0000
0000
1030
0000
0100
0010
0002
0000
0000
0000
1003
0000
0100
0010
,
0200
0000
0000
0000
1300
0010
0200
0000
0000
0000
0310
1000
0002
0000
0000
0000
,
0000
0000
0000
0000
,
0003
0000
0000
0000
;
