#TITLE:STARS☆☆☆;
#SUBTITLE:;
#ARTIST:TЁЯRA;
#TITLETRANSLIT:;
#SUBTITLETRANSLIT:;
#ARTISTTRANSLIT:;
#GENRE:;
#CREDIT:;
#MUSIC:STARS.ogg;
#BANNER:;
#BACKGROUND:STARS-bg.png;
#CDTITLE:;
#SAMPLESTART:42.295;
#SAMPLELENGTH:14.688;
#SELECTABLE:YES;
#OFFSET:-0.402;
#BPMS:0.000=140.000;
#STOPS:;
#BGCHANGES:;
#FGCHANGES:;

//--------------- dance-single - Pandemonium X ----------------
#NOTES:
     dance-single:
     Pandemonium X:
     Beginner:
     4:
     0,0,0,0,0:
0000
0000
0000
0000
,
0000
0000
0000
0000
,
0000
0000
0000
0000
,
0000
0000
0000
0000
,
0000
0000
0000
0000
,
0000
0000
0000
0000
,
0000
0000
0000
0000
,
0000
0000
0000
0000
,
0000
0000
0000
0000
,
0001
0000
0001
0000
,
0001
0000
0000
0000
,
1000
0000
1000
0000
,
1000
0000
0000
0000
,
0010
0000
0010
0000
,
0010
0000
0000
0000
,
0100
0000
0100
0000
,
0100
0000
0000
0000
,
0001
0001
0001
0000
,
1000
1000
1000
0000
,
0010
0000
0100
0000
,
1001
0000
0000
0000
,
0001
0000
0000
0000
,
1000
0000
0010
0000
,
0100
0000
0000
0000
,
1001
0000
0110
0000
,
1001
0000
0001
0000
,
1000
0001
1000
0000
,
0010
0000
0100
0000
,
0001
0100
0001
0000
,
1000
0000
0000
0000
,
0100
0000
0000
0000
,
0010
0000
0000
0000
,
0001
0000
0000
0000
,
1000
0000
0001
0000
,
0001
0000
1000
0001
,
1000
0001
1000
0000
,
1000
0000
0001
1000
,
0010
0100
0010
0000
,
0100
0000
0010
0100
,
0001
1000
0001
0000
,
1000
0000
1001
0110
,
0000
0000
0000
0000
,
1001
0000
0001
0000
,
1000
0000
0010
0000
,
0100
0000
0001
0000
,
1000
0000
0000
0000
,
0001
1000
0001
0000
,
1000
0010
1000
0000
,
0001
0100
0001
0000
,
1000
1000
1000
0000
,
1001
0000
0110
0000
,
0001
0001
0001
0000
,
1001
0000
0110
0000
,
1000
1000
1000
0000
,
0001
0100
0001
0000
,
1000
0100
1000
0000
,
0001
0001
1000
1000
,
0010
0100
0010
0000
,
1000
0000
0001
0000
,
0010
0000
0110
1001
;

//--------------- dance-single - Pandemonium X ----------------
#NOTES:
     dance-single:
     Pandemonium X:
     Easy:
     6:
     0,0,0,0,0:
0000
0000
0000
0000
,
0000
0000
0000
0000
,
0000
0000
0000
0000
,
0001
1000
0001
1000
,
0001
1000
0001
1000
,
0010
0010
0010
0000
,
1000
1000
1000
0000
,
0001
0100
0010
2000
,
0002
0000
0000
3003
,
1001
0001
0010
0001
,
0100
0010
1000
1010
,
1100
0100
1000
0010
,
0100
0001
0011
0011
,
0010
0001
0100
0100
,
0001
1000
0001
0011
,
1001
1000
0010
1000
,
0001
0010
0100
0000
,
1100
1100
1000
0001
,
0101
0101
0001
0000
,
1000
0000
0001
0000
,
0220
0000
0330
0000
,
1001
0000
0001
0000
,
2000
0000
3002
0000
,
1003
0000
0001
0000
,
1000
0001
0000
0000
1000
0001
0000
0000
,
1001
0000
0000
0001
0001
0000
0000
1000
,
1000
0001
1000
0010
,
0100
0000
0001
0100
,
0001
0010
0000
0100
,
1000
0001
1000
0001
,
0100
0001
0010
0001
,
1000
0100
1000
0010
,
0100
0001
0020
0000
,
0130
0000
1000
0000
,
1000
0000
1000
0001
,
0100
0001
0010
0000
,
0010
0000
0010
0001
,
1000
0100
0010
0000
,
0010
0000
0010
0100
,
1000
0001
1000
0000
,
1000
0000
0000
0000
0001
0100
0001
1000
,
0000
0000
0000
0000
,
0002
0000
0003
0000
,
2000
0000
3000
0000
,
0020
0000
0030
0000
,
0200
0000
0300
0000
,
0001
1000
0001
0010
,
0001
1000
0001
0100
,
0001
0010
0001
1000
,
0100
0010
0001
0000
,
1001
0000
0101
0000
,
0001
0001
1000
1000
,
1001
0000
1100
0000
,
1000
0100
1000
0000
,
0001
0100
0001
0100
,
0010
1000
0010
1000
,
0001
0001
1000
1000
,
0001
1000
0110
0000
,
1000
0100
1000
0001
,
0100
0000
0001
0000
1000
0100
1000
0001
;

//--------------- dance-single - Pandemonium X ----------------
#NOTES:
     dance-single:
     Pandemonium X:
     Medium:
     8:
     0,0,0,0,0:
0000
0000
0000
0000
,
0000
0000
0000
0000
,
0000
0000
0000
0000
,
0001
1000
0001
1000
,
0001
1000
0001
1000
,
1002
0000
1000
0000
1000
0100
1003
0000
,
2001
0000
0001
0000
0001
0100
3001
0000
,
0110
0110
1001
1001
,
0020
0000
0000
0030
,
1000
1100
0100
0110
,
0010
0000
0011
0000
0001
0010
0100
0000
,
1000
1100
1000
1001
,
0001
0000
0101
0000
0100
0001
0010
0000
,
0100
1100
1000
1010
,
0010
1000
0001
0000
0010
0000
1100
0000
,
1000
0101
1000
0110
,
1000
0001
0010
0100
1000
0000
0001
0000
,
1100
0101
1001
0010
,
1001
0011
1010
1001
,
0002
0103
0020
1030
,
2200
0000
0000
0000
3300
0000
1000
0100
,
0010
0000
0100
0000
1000
0000
0001
0010
,
0100
0010
0001
0100
,
1001
0000
1000
0001
,
1001
1001
0000
0000
0110
0110
0000
0000
,
1000
0000
0001
0100
0100
0000
0001
1000
,
1000
0100
0010
0001
,
0100
0000
0001
0010
0100
0000
0010
0001
,
0000
1000
0010
0000
0000
0100
0100
0000
,
0001
1000
0010
0000
1000
0000
1100
0000
,
0100
0010
0001
0000
0100
0000
0101
0000
,
0001
1000
0010
0000
1000
0000
1010
0000
,
1000
0100
0010
0002
0000
0000
0003
0000
,
1000
0000
0000
0000
0100
0000
0000
0000
1000
0000
0000
1000
0000
0000
1000
0000
,
0001
0000
0000
0001
0000
0000
0001
0000
0100
0000
0000
0000
0001
0000
0000
0000
,
0010
0000
0000
0000
0100
0000
0000
0000
0010
0000
0000
0010
0000
0000
0010
0000
,
0100
0000
0000
0100
0000
0000
0100
0000
0010
0000
0000
0000
0001
0000
0000
0000
,
1000
0000
0000
0000
0001
0000
0000
0000
0100
0000
0000
0001
0000
0000
0100
0000
,
0001
0000
0000
0100
0000
0000
0001
0000
0100
0000
0000
0000
0001
0000
0000
0000
,
1000
0000
0000
0000
0100
0000
0000
0000
1000
0000
0000
0010
0000
0000
1000
0000
,
0010
0000
0000
1000
0000
0000
0010
0000
1000
0000
0100
0000
0010
0000
0001
0000
,
0000
0000
0000
0000
,
1000
0000
0001
0000
,
0100
0000
0010
0000
,
0100
0000
0001
0000
,
1000
0000
1001
0110
,
0001
1000
0100
0000
,
1000
0001
0100
0000
,
0001
1000
0010
0000
,
1000
0001
0020
0000
,
0130
1100
1000
1010
,
0010
0100
0001
0000
0010
0100
1000
0000
,
0100
1100
1000
1010
,
0010
0100
0001
0000
0010
0001
0100
0000
,
0001
0010
0100
1000
0000
0001
1000
0000
,
1000
0100
0010
0001
0000
0001
1000
0000
,
0001
0010
0001
0010
0100
1000
0100
1000
,
0100
0010
0001
2000
0000
0000
0000
0000
,
3001
0000
0100
0000
0010
0000
0100
0000
0001
0000
0000
0001
0000
0000
0001
0000
,
1000
0000
0000
1000
0000
0000
1000
0000
0100
0000
0010
0000
0001
0000
1001
0000
;

//--------------- dance-single - Pandemonium X ----------------
#NOTES:
     dance-single:
     Pandemonium X:
     Hard:
     11:
     0,0,0,0,0:
0000
0000
0000
0000
,
0000
0000
0000
0000
,
0000
0000
0000
0000
,
0001
1000
0001
1000
,
0010
0000
0100
0000
0010
1000
0100
0010
,
0001
0000
0000
0001
0000
0000
1000
0000
0001
0000
0000
0000
0000
0000
0100
0010
,
0100
0000
0000
0100
0000
0000
0010
0000
1000
0000
0000
0000
0000
0000
0001
0000
,
2000
3100
0020
0031
,
1000
0000
0000
0000
0010
0000
0000
0000
1000
0000
0000
0000
0100
0000
0010
0001
,
0010
0001
0100
0001
1000
0001
0000
1000
,
0000
0000
0100
0000
1000
0000
1000
0010
0000
0000
0000
0000
0000
0000
0100
0010
,
0100
0010
1000
0001
0010
0100
0000
0010
,
0000
0000
0010
0000
0001
0000
0001
0100
0000
0000
0000
0000
0000
0000
0000
0000
,
0001
0000
0100
0000
0001
0000
1000
0000
0100
0000
0000
0100
0000
0000
0010
0000
,
0100
0000
1000
0000
0001
0000
0001
0010
0000
0000
0000
0000
0000
0000
0100
0000
,
1000
0100
1000
0000
0010
0100
0001
1000
,
0000
0000
0100
0000
0010
0000
0010
0001
0100
0000
0000
0000
1001
0000
0000
0000
,
1020
0000
0000
0000
0100
0000
0000
0000
1030
0000
0100
0010
0000
0000
0100
0000
,
0010
0000
0100
0000
1000
0000
0001
1000
0000
0000
0000
0000
0000
0000
0001
0000
,
1002
0000
0000
0010
0000
0000
0103
0000
2001
0000
0000
0010
0000
0000
3100
0000
,
0220
0000
0000
0000
0330
0000
1000
0001
,
0020
0000
0000
0130
0000
0010
0001
1000
,
1020
0130
0102
1003
,
1001
0000
0000
1000
0000
0001
0010
0100
,
1001
1001
0000
0000
0110
0110
0000
0000
,
2001
0000
3010
1000
0100
0000
0010
0100
,
1000
0000
0000
1000
0000
0000
0001
0000
0010
0000
0000
0010
0000
0000
0001
0000
,
0010
0000
0000
0010
0001
0000
1000
0100
,
0000
0000
1000
0000
0001
0000
0000
0000
0000
0000
0001
1000
0001
0000
0100
0000
,
0001
0000
1000
0000
0100
0000
1000
0000
0000
0000
0001
0100
0001
0000
0100
0000
,
0001
0000
0010
0000
0001
0000
1000
0000
0000
0000
0100
1000
0100
0000
1000
0000
,
0001
0000
0100
0000
0001
0000
1000
0000
0000
0000
0100
0010
0100
0000
0010
0000
,
0001
0100
0002
2000
0000
0000
3003
0000
,
0001
0000
0100
0000
1000
0000
0100
0000
0001
0000
0000
0001
0000
0000
0001
0000
,
1000
0000
0000
1000
0000
0000
1000
0000
0100
0000
0001
0000
0100
0000
1000
0000
,
0001
0000
0100
0000
1000
0000
0100
0000
0001
0000
0000
0001
0000
0000
0001
0000
,
1000
0000
0000
1000
0000
0000
1000
0000
0100
0000
0001
0000
0100
0000
1000
0000
,
1001
0000
0001
0000
0100
0000
1000
0000
0100
0000
0000
0100
0000
0000
0001
0000
,
0010
0000
0000
0010
0000
0000
0010
0000
0001
0000
0010
0000
1000
0000
0010
0000
,
0001
0000
0100
0000
1000
0000
0100
0000
0001
0000
0000
0001
0000
0000
0001
0000
,
0100
0000
0000
0100
0000
0000
0100
0000
0010
0000
1000
0000
1010
0000
0101
0000
,
0000
0000
0000
0000
,
2001
0000
0000
0100
3100
0000
0000
1000
,
1000
0000
0000
0100
0000
0000
0010
0000
0001
0000
0000
0010
0000
0000
0100
0000
,
1000
0000
0000
0001
0100
0000
1000
0100
,
0000
0000
0001
0000
1000
0000
0000
0000
0000
0000
0001
0010
0001
0000
1000
0000
,
0001
0000
0100
0000
0001
0000
0010
0000
0000
0000
0100
1000
0100
0000
1000
0000
,
0010
0000
0100
0000
0010
0000
1000
0000
0000
0000
0001
1000
0001
0000
1000
0000
,
0001
0000
0010
0000
0100
0000
0010
0000
0000
0000
0100
1000
0100
0000
1000
0000
,
0010
0100
0001
0020
0000
0000
0030
0000
,
2100
0000
3010
0100
1001
0000
0100
0010
,
2001
0000
0000
3010
0000
0000
0100
0000
0102
0000
0000
0013
0000
0000
0100
0000
,
2100
0000
0000
3001
1002
0000
1003
1020
,
0000
0100
0000
1030
0000
0000
0010
0100
,
0001
0000
0010
0000
0100
0000
0010
0000
0000
0000
0100
0010
0100
0000
0100
0000
,
1000
0000
0001
0000
1000
0000
0001
0000
0000
0000
0010
0001
0010
0000
0010
0000
,
0001
1000
0010
0001
0010
0100
0001
0010
,
1000
0010
0002
2000
0000
0000
0000
3003
,
0001
0000
0100
0000
1000
0000
0100
0000
0001
0000
0000
0010
0000
0000
1000
0000
,
0010
0000
0000
0001
0000
0000
1000
0000
1001
0000
0101
0000
1001
0000
1100
0000
;
