#TITLE:STARS☆☆☆(2nd NAOKI's style);
#SUBTITLE:;
#ARTIST:TЁЯRA;
#TITLETRANSLIT:;
#SUBTITLETRANSLIT:;
#ARTISTTRANSLIT:;
#GENRE:;
#CREDIT:;
#MUSIC:STARS (2nd NAOKI's style).ogg;
#BANNER:STARS (2nd NAOKI's style).png;
#BACKGROUND:STARS (2nd NAOKI's style)-bg.png;
#CDTITLE:;
#SAMPLESTART:69.429;
#SAMPLELENGTH:14.610;
#SELECTABLE:YES;
#OFFSET:0.000;
#BPMS:0.000=140.000000;
#STOPS:160.500=0.429
,161.500=0.429
;
#BGCHANGES:;
#FGCHANGES:;

//--------------- dance-single - Pandemonium X ----------------
#NOTES:
     dance-single:
     Pandemonium X:
     Beginner:
     3:
     0,0,0,0,0:
0000
0000
0000
0000
,
0000
0000
0000
0000
,
0000
0000
0000
0000
,
0000
0000
0000
0000
,
0000
0000
0000
0000
,
0001
0000
0000
0000
,
1000
0000
0000
0000
,
0010
0000
0000
0000
,
0100
0000
0000
0000
,
2002
0000
0000
0000
,
3003
0000
0000
0000
,
0000
0000
0000
0000
,
0000
0000
0000
0000
,
0002
0000
0000
0003
,
2000
0000
0000
3000
,
0020
0000
0000
0030
,
0200
0000
0000
0300
,
0010
0000
0010
0000
,
0010
0000
0000
0000
,
0100
0000
0100
0000
,
0100
0000
0001
0001
,
1000
0000
0000
0000
,
0001
0000
0000
0000
,
0100
0000
0010
0000
,
0100
0000
0000
0000
,
1001
0000
0000
0000
,
0000
0000
0000
0001
,
1001
0000
0000
0000
,
0000
1000
0001
0001
,
1001
0000
0000
0000
,
0000
1000
1000
0001
,
1001
0000
0000
0000
,
1000
0000
0001
0000
,
0100
0000
0010
0000
,
0100
0100
0100
0000
,
0001
0000
1000
0000
,
0110
0000
0000
0000
,
1001
0000
0000
0000
,
1000
0000
0001
0000
,
0100
0000
0000
0000
,
0020
0030
0020
0030
0100
0000
0000
0000
,
0001
0000
1000
0000
,
0100
0000
0010
0000
,
0001
0000
1000
0000
,
0000
0000
0001
0001
,
0000
0000
1000
1000
,
0000
0000
0010
0010
,
0000
0000
0100
0100
,
0000
0000
0010
0000
,
0100
0000
0001
0001
,
0001
0000
1000
0000
,
0001
0000
1000
1000
,
1000
0000
0010
0000
,
0000
0000
0100
0000
,
0000
0000
0001
0000
,
1000
0000
0001
1000
,
0001
0000
0100
0000
,
0010
0000
1000
0000
,
1001
0110
0000
0000
;

//--------------- dance-single - Pandemonium X ----------------
#NOTES:
     dance-single:
     Pandemonium X:
     Easy:
     6:
     0,0,0,0,0:
0000
0000
0000
0000
,
0000
0000
0000
0000
,
0000
0000
0000
0000
,
0000
0000
0000
0000
,
0000
0000
0000
0000
,
1000
0001
1000
0000
,
0001
1000
0001
0000
,
0100
0010
0100
0000
,
0010
0100
0010
0000
,
2000
0000
0000
3000
,
0002
0000
0000
0003
,
0200
0000
0000
0300
,
0020
0000
0000
0030
,
2000
0000
0000
3000
,
0002
0000
0000
0003
,
0020
0000
0000
0030
,
0200
0000
0000
0300
,
1000
0001
0100
0100
,
0100
0000
0000
0010
,
0100
0001
0100
0001
,
1000
0000
0001
0010
,
0100
0100
0100
0000
,
0010
0010
0010
0000
,
0100
0010
0001
1000
,
0020
0000
0000
0030
,
0100
0001
1000
0100
,
1000
0001
1001
0000
,
1000
0010
1000
0001
,
0010
0001
1001
0000
,
0001
0001
1000
1000
,
0001
1000
0001
0000
,
0100
0010
0100
0010
,
0100
0001
1000
0000
,
0001
0001
1000
1000
,
0001
1000
0110
0000
,
2000
3000
0002
0003
,
0220
0000
0330
0000
,
0001
0000
1000
0000
,
0020
0030
0200
0300
,
1001
0000
0001
0000
,
1000
0000
0002
0003
0100
0000
0020
0030
1000
0000
0000
0000
0001
0000
0000
0000
,
0011
0000
0001
1000
,
0100
1000
0001
0000
,
0010
0100
1000
1001
,
0000
1000
0001
0100
,
0001
0000
1000
0100
,
1000
0000
0001
0010
,
0001
0000
1000
0010
,
1000
0000
1001
0000
,
0101
0000
0001
1000
,
0100
0010
0001
0000
,
0011
0000
0001
0010
,
0100
0000
0010
0001
,
1000
0000
0010
1000
,
0100
0000
0010
0010
,
0100
0100
0010
0100
,
2002
3003
0001
0100
,
0020
1030
0020
0130
,
0001
1000
0001
0010
0000
0000
0000
0000
;

//--------------- dance-single - Pandemonium X ----------------
#NOTES:
     dance-single:
     Pandemonium X:
     Medium:
     9:
     0,0,0,0,0:
0000
0000
0000
0000
,
0000
0000
0000
0000
,
0000
0000
0000
0000
,
0000
0000
0000
0000
,
0000
0000
0000
0000
0000
0001
0100
1000
,
0100
0010
0100
0010
,
1000
0001
1000
0001
,
0010
0100
0010
0100
,
1000
0100
0010
0002
0000
0000
0003
0000
,
2000
3000
0002
0003
,
0200
0300
0020
0030
,
0200
0300
0002
0003
,
2000
3000
0200
0300
,
0020
0030
0200
0300
,
2000
3000
0002
0003
,
0200
0300
0020
0030
,
2000
3000
0001
1000
,
0001
0100
0010
0010
,
0010
0000
0000
0100
,
0001
1000
0100
0100
,
0100
0000
0010
0100
,
1000
0000
0000
1000
0000
0000
0001
0000
1000
0000
0000
0000
0000
0000
0000
0000
,
0001
0000
0000
0001
0000
0000
1000
0000
0001
0000
0000
0000
0000
0000
0000
0000
,
1100
1001
1001
0101
,
0002
0000
0000
0000
,
1003
0000
0001
0000
0100
0000
0010
0000
,
1000
0000
0000
0000
0010
0000
0000
0000
1000
0000
0000
0001
0100
0000
0000
0001
,
1000
0100
0010
0100
,
1000
0000
0000
0000
0001
0000
0000
0000
1000
0000
0000
0010
1000
0000
0000
1000
,
0100
0010
0100
0000
0010
0000
0001
0000
,
0100
0000
0010
0000
0100
0000
0000
0000
0010
0000
0000
0100
0001
0000
0000
0001
,
1000
0001
0010
0000
0001
0100
0010
0000
,
0100
0001
1000
0100
0010
0000
0000
0000
,
1001
1100
1010
1001
,
0101
0011
1001
0000
,
0001
0000
0000
0001
0000
0000
0001
0000
1000
0000
0000
1000
0000
0000
1000
0000
,
0020
0000
0000
0000
0030
0000
0100
0001
,
0020
0000
0000
0130
0000
0010
0001
1000
,
1000
0000
0101
0000
,
1010
0000
0000
0001
0000
1000
0100
0010
,
0001
0001
1000
1000
0002
0000
0000
0010
,
0013
0000
0000
0000
0000
0000
0100
0000
1000
0000
0000
1000
0000
0000
1000
0000
,
0001
0000
0000
0001
0000
0000
0001
0000
0200
0000
0000
0000
0000
0000
0310
0000
,
0010
0000
1000
1000
0000
0001
1000
0000
,
0000
0001
0100
0001
1000
1000
0100
0010
,
0000
0100
0010
0001
0100
0100
0010
0100
,
0000
0010
0100
0001
0010
0010
0100
0010
,
0000
0100
0010
0001
1000
1000
0001
0200
,
0000
0000
0300
0000
0020
0000
0000
1000
,
1030
0000
0000
0000
0000
0000
0100
0000
0010
0000
0000
0010
0000
0000
0010
0000
,
0100
0000
0000
0100
0000
0000
0100
0000
1000
0000
0000
0000
0000
0000
0001
0000
,
1000
0000
0100
0010
0000
0110
0000
1001
,
0000
0000
1000
0000
0001
0100
0010
1000
,
0001
0000
1000
0000
0100
0010
0001
1000
,
0001
0000
1000
0000
0001
0001
0100
0010
,
1000
1000
0000
0010
0100
0001
2000
0002
,
0000
0000
3003
0000
1000
0100
0010
0001
,
0010
0000
0000
0010
0000
0000
0010
0000
0100
0000
0000
0100
0000
0000
0100
0000
,
0001
0100
1000
0010
0000
0000
0000
0000
;

//--------------- dance-single - Pandemonium X ----------------
#NOTES:
     dance-single:
     Pandemonium X:
     Hard:
     11:
     0,0,0,0,0:
0000
0000
0000
0000
,
0000
0000
0000
0000
,
0000
0000
0000
0000
,
0000
0000
0000
0000
,
0000
0000
0000
0000
0000
0000
0000
0000
0000
0000
0001
1000
0001
0000
1000
0000
,
0100
0010
0100
1000
0000
0001
1000
0001
,
0010
0100
0010
0001
0000
0010
0100
0010
,
0100
1000
0010
0100
0000
0010
0100
0010
,
0100
0001
1000
0200
0000
0000
0300
0000
,
1200
0000
0320
0000
,
0032
0000
0203
0000
,
0320
0000
2030
0000
,
3002
0000
2003
0000
,
3200
0000
0320
0000
,
0032
0000
0203
0000
,
0320
0000
0230
0000
,
0302
0000
0000
0000
0103
0000
1001
0000
,
1000
0000
1000
0000
0100
0000
1000
0000
0001
0000
0000
0001
0000
0000
0001
0000
,
0000
0000
0000
0000
0000
0000
0000
0000
0000
0000
0100
0001
0100
0000
0001
0000
,
1000
0000
0001
0000
1000
0000
0100
0000
0010
0000
0000
0010
0000
0000
0010
0000
,
0000
0000
0000
0010
0100
1000
0001
0100
,
0020
0000
0000
1000
0000
0000
0100
0000
0130
0000
0000
0000
0000
0000
0100
0010
,
0200
0000
0000
0010
0000
0000
0001
0000
0301
0000
0000
0000
0000
0000
1000
0000
,
0002
0000
0203
0000
0320
0000
1030
0200
,
1000
0000
0000
0000
0010
0000
0000
0000
1000
0000
0000
0000
0310
0000
0001
1000
,
0001
1000
0100
0001
0100
1000
0001
0100
,
0000
0000
0010
0000
0100
0000
0100
0001
0000
0000
1000
0100
1000
0000
0001
0100
,
0001
0100
1000
0100
0001
1000
0000
0100
,
0000
0000
0010
0000
0100
0000
0010
0001
1000
0000
0000
0000
0110
0000
0000
0000
,
1001
0000
1000
0000
0001
0000
0010
0000
0100
0000
0000
0100
0000
0000
0010
0000
,
0001
0000
1000
0000
0010
0000
0010
0100
0000
0000
0001
0100
0001
0000
1000
0100
,
1000
0100
0010
0000
0100
0010
0001
0000
,
0010
0000
0100
0000
1000
0000
0001
0100
0001
0000
0000
0001
1000
0000
0100
0000
,
0120
0000
0000
0000
0001
0000
0000
0000
0130
0000
0100
1000
0000
0000
0100
0000
,
0010
0000
0001
0000
1000
0000
0010
0100
0000
0000
0000
0000
0000
0000
0010
0000
,
2000
0000
0000
0001
0000
0000
3010
0000
0200
0000
0000
0010
0000
0000
0301
0000
,
2001
0000
0100
0100
0100
0000
3001
0100
,
0020
0000
1000
0000
0130
0001
1000
0000
,
0200
0310
0200
1300
,
1001
0000
0000
0001
0000
1000
0001
1000
,
1100
1001
0101
1001
2000
0000
3010
1000
,
0100
0000
0000
0000
0010
0000
0100
0000
1000
0000
0000
1000
0000
0000
1000
0000
,
0001
0000
0000
0001
0000
0000
0001
0000
2000
0000
0000
0000
0000
0000
3001
0000
,
0010
0000
0010
0100
0000
1000
0001
0000
,
0000
0000
1000
0100
1000
0000
0001
0000
1000
0000
1000
0000
0001
0000
0100
0000
,
0000
0000
0010
1000
0010
0000
1000
0000
0001
0000
0001
0000
0010
0000
0100
0000
,
0000
0010
0001
1000
0001
0001
0010
0100
,
0000
0000
0010
0000
0001
0000
1000
0000
0010
0000
0010
0000
1000
0000
0010
0100
,
0010
1000
0100
0010
0002
0000
0013
0001
,
0200
0000
0000
0000
0310
0000
1000
0000
0001
0000
0000
0001
0000
0000
0001
0000
,
1000
0000
0000
1000
0000
0000
1000
0000
0020
0000
0000
0000
0000
0000
0130
0000
,
1000
0000
0100
0001
0000
1100
0000
1001
,
0000
0000
1000
0100
0010
0010
0100
1000
,
0000
0000
0100
0010
0100
0000
0010
0000
0100
0000
0100
0000
0010
0000
0001
0000
,
0000
0010
0100
0010
0100
0010
0001
1000
,
0100
0000
0010
0000
0000
0000
0100
0000
1000
0000
0010
0000
0100
0000
0010
0100
,
0010
0000
1000
0001
1000
0000
0100
0000
0020
0000
0031
0000
0200
0000
0310
0000
,
2000
0000
0000
0100
0000
0000
3001
0000
0002
0000
0000
0010
0000
0000
1003
0000
,
1010
1001
0011
1001
0000
0000
0000
0000
;

//--------------- dance-single - Pandemonium X ----------------
#NOTES:
     dance-single:
     Pandemonium X:
     Challenge:
     15:
     0,0,0,0,0:
0000
0000
0000
0000
,
0000
0000
0000
0000
,
0000
0000
0000
0000
,
0000
0000
0000
0000
,
0000
0000
0000
0000
0000
0000
0000
0000
0000
0000
0001
0100
0010
1000
0001
0100
,
0001
0000
1000
0000
0001
0000
1000
0100
0000
0100
1000
0000
0001
0000
1000
0000
,
0010
0000
0100
0000
0010
0000
0100
0001
0000
0001
1000
0000
0100
0000
0010
0000
,
0100
0000
0001
0000
0100
0000
1000
0001
0000
1000
0001
0000
0100
0000
1000
0000
,
0100
0000
0001
0000
1000
0000
0100
0010
0100
1000
0100
0010
0001
1000
0001
0100
,
0020
0000
0000
0000
1030
0000
0010
2000
0000
0000
3010
0000
0100
0000
0010
0200
,
0000
0000
0000
0301
1000
0001
0000
1000
0000
0100
0000
0010
0001
0010
0000
0200
,
0000
0000
0300
0000
1000
0001
0000
0100
0000
0100
0000
0000
0010
0100
0000
0002
,
0000
1003
0100
0000
0010
0000
0000
0100
0000
0100
0000
0010
0001
1000
0000
0020
,
0000
0000
0000
0000
0130
0001
0000
1000
0000
1000
0000
0100
0010
0100
0000
0020
,
0000
0000
0000
0130
1000
0001
0000
0100
0000
0100
0000
0000
0100
0001
0000
0000
,
1000
0100
1000
0000
0001
0100
0001
0000
1000
0010
1000
0000
0001
0010
0001
0010
,
0100
1000
0100
1000
0001
1000
0100
0010
0100
1000
0000
0001
1000
0010
0000
0100
,
0002
0000
0000
0000
1000
0000
0000
0000
0010
0000
0000
0010
0000
0000
0023
0000
,
0001
0000
0000
0000
0100
0000
0000
0000
0031
0000
1000
0001
0100
0000
0010
0000
,
1000
0000
0001
0000
1000
0000
0001
0000
0010
0000
0100
1000
0000
0100
1000
0000
,
0001
0000
0100
0000
0001
0000
0100
0000
0010
0000
1000
0001
0000
0010
0100
0000
,
1000
0000
0001
0010
0000
0010
0001
0000
1000
0000
0001
1000
0001
0000
1000
0000
,
0001
0000
1000
0010
0000
0010
1000
0000
0001
0000
1000
0001
1000
0000
0001
0000
,
0020
0000
0000
0130
2000
0000
0000
3001
0200
0000
0000
0310
1000
0000
0001
0000
,
1000
0000
0100
0000
1000
0000
0100
0000
1000
0000
0100
0000
0010
0001
0010
0001
,
1000
0010
0100
0001
1000
0100
0010
0011
,
0000
0000
0010
0000
0010
0000
0010
0100
0000
0000
1000
0001
0100
0000
0010
1000
,
0001
0100
0001
0100
0010
1000
0001
1001
,
0000
0000
1000
0000
0001
0000
0100
0001
0010
0000
0100
1000
0010
0000
0000
0000
,
1000
0000
1000
0000
0001
0000
0001
0000
1000
0000
0000
1000
0000
0000
1000
0000
,
0001
0000
0100
0000
0001
0000
1000
0100
0000
0000
0010
0001
1000
0000
0010
1000
,
0001
0010
0001
0000
0010
0100
1000
0100
,
0000
0000
0010
0000
0001
0000
1000
0010
1000
0001
0000
1000
0100
0010
0000
0100
,
0020
0000
0000
0000
0001
0000
0000
0000
1000
0000
0000
0001
0000
0000
0130
0000
,
0001
0000
0100
0000
1000
0000
0001
0100
0000
0000
0000
0000
0000
0000
0010
1000
,
0002
0000
0000
1000
0000
0000
0103
0001
2000
0000
0000
0100
0000
0000
3001
0000
,
1001
0000
0110
0110
0110
0000
1000
0001
,
0020
0000
0130
0200
0000
0310
0001
1000
,
2000
0000
0000
3001
0010
0000
0100
0000
0020
0000
0000
0130
1000
0000
0001
0000
,
0101
0000
0000
1001
0000
0001
0100
0010
,
1010
0000
0202
0303
0011
0000
2200
3300
1001
0000
0000
1000
0001
0000
0010
0000
,
0200
0000
0000
1300
0001
0000
1000
0000
0010
0000
1000
0010
0000
0010
0100
0000
,
0010
0000
0100
0001
0000
0001
1000
0000
0200
0000
0000
0000
0310
0000
0100
0000
,
0001
0100
1000
0001
0100
1000
0100
0001
,
1000
0000
0001
0010
0001
0010
0001
0010
0001
0000
1000
0000
0100
0000
0010
0100
,
0010
0000
0100
1000
0100
0000
1000
0000
0001
0000
0100
0000
0001
0000
0100
0010
,
0100
0000
0001
0100
0001
0000
1000
0000
0001
0000
1000
0000
0010
0000
0100
0001
,
0100
0000
0010
0100
0010
0000
0100
0000
1000
0000
0100
0000
0001
0000
1000
0001
,
1000
0100
1000
0100
0010
0001
0010
0001
2000
0000
0000
3001
0100
0000
0001
0000
,
2000
0000
0000
3100
0010
0000
0001
0000
1000
0000
0010
1000
0000
0001
0010
0000
,
0100
0000
0010
0001
0000
1000
0010
0000
1000
0000
0001
0000
1000
0000
0001
0000
,
0010
1000
0010
0001
1000
0010
0001
0010
,
1000
0000
0000
1000
0001
0000
0010
0000
0001
0000
0010
0000
0100
0000
1000
0100
,
1000
0000
0100
0010
0100
0000
0010
0000
0001
0000
1000
0000
0010
0000
1000
0010
,
1000
0000
0010
0100
0010
0000
0100
0000
0001
0000
0001
0000
1000
0000
1000
0000
,
0010
0000
0000
0000
0000
0000
0010
0000
0000
0000
0000
0000
0100
0000
0000
0000
0000
0000
1000
0000
0000
0000
0000
0000
0100
0000
0000
0010
0000
0000
0100
0000
0000
0001
0000
0000
1000
0000
0000
0001
0000
0000
0100
0000
0010
0000
0100
0000
,
0010
1000
0010
0100
0001
1000
0001
0000
1002
0000
0013
0000
2001
0000
3010
0000
,
0201
0000
0310
1000
0001
1000
0100
1000
0001
0100
0001
1000
0010
1000
0001
0010
,
0100
0011
1100
1001
0000
0000
0000
0000
;
