#TITLE:STAR DREAM;
#SUBTITLE:;
#ARTIST:PINK PONG;
#TITLETRANSLIT:;
#SUBTITLETRANSLIT:;
#ARTISTTRANSLIT:;
#GENRE:;
#CREDIT:;
#MUSIC:STAR DREAM.ogg;
#BANNER:STAR DREAM-bn.png;
#BACKGROUND:STAR DREAM-bg.png;
#CDTITLE:;
#SAMPLESTART:79.862;
#SAMPLELENGTH:12.990;
#SELECTABLE:YES;
#OFFSET:-0.403;
#BPMS:0.000=148.000;
#STOPS:160.000=1.216;
#BGCHANGES:;
#FGCHANGES:;

//--------------- dance-single - Pandemonium X ----------------
#NOTES:
     dance-single:
     Pandemonium X:
     Beginner:
     3:
     0,0,0,0,0:
0000
0000
0000
0000
,
0000
0000
0000
0000
,
0000
0000
0000
0000
,
0000
0000
0000
0000
,
0000
0000
0000
0000
,
0000
0000
0000
0000
,
0000
0000
0000
0000
,
0000
0000
0000
0000
,
0001
0000
0000
0000
,
1000
0000
0000
0000
,
0001
0000
0000
0000
,
1000
0000
0001
0000
,
0100
0000
0000
0000
,
0010
0000
0000
0000
,
0100
0000
0000
0000
,
0010
0000
0010
0000
,
1000
0000
0000
0000
,
0001
0000
0000
0000
,
1000
0000
0001
0000
,
1000
0001
1001
0000
,
0010
0000
0000
0000
,
1000
0000
0000
0000
,
0001
0000
0000
0000
,
0010
0000
0100
0000
,
1000
0000
0000
0000
,
0001
0000
0000
0000
,
0010
0000
0000
0000
,
0100
0000
0000
0000
,
0010
0000
0000
0000
,
0001
0000
0000
0000
,
1000
0000
0000
1000
0000
0000
1000
0000
,
0000
0000
0000
0000
,
0001
0000
0000
0000
,
1000
0000
0000
0000
,
0010
0000
0000
0000
,
0100
0000
0000
0000
,
0001
0001
0001
0000
,
1000
1000
1000
0000
,
0001
0000
1000
0000
,
0020
0000
0000
0000
,
0030
1000
0000
0000
,
0000
0000
0000
0000
0000
0001
0000
0000
,
0000
1000
0000
0000
0000
0000
0001
0000
,
0000
0000
0000
0000
,
0100
0100
0010
0010
,
0000
0000
0000
1000
,
1000
0001
0001
1000
,
1000
0001
1000
0110
,
0000
0001
0000
0000
,
0000
0010
0000
0000
,
0000
0100
0000
0000
,
0000
0010
0000
0001
,
0000
1000
0000
0000
,
0000
0010
0000
0000
,
0000
0100
0000
0000
,
0000
0110
0000
1001
,
0000
1000
0000
0000
,
0000
0001
0000
0000
,
0000
0010
0000
0000
,
0000
0100
0000
1000
,
0000
0010
0000
0000
,
0000
0100
0000
0000
,
0000
0001
0000
0000
,
0000
1001
0000
0110
;

//--------------- dance-single - Pandemonium X ----------------
#NOTES:
     dance-single:
     Pandemonium X:
     Easy:
     7:
     0,0,0,0,0:
0000
0000
0000
0000
,
0000
0000
0000
0000
,
0000
0000
0000
0000
,
0000
0000
0000
0000
,
0001
0000
1000
0000
,
0002
0000
0100
0000
,
1000
0000
0010
0000
,
2000
0000
0000
3003
,
0001
1000
0010
0010
,
1000
0001
0010
0010
,
0001
1000
0010
0010
,
1000
0001
0010
0010
,
0001
1000
0100
0100
,
1000
0001
0100
0100
,
0001
1000
0100
0100
,
1100
0000
0011
0000
,
0001
0000
1000
0000
,
0010
0000
0100
0000
,
0001
0000
0010
0000
,
1001
0110
1001
0000
,
0001
0100
0010
1000
,
0010
0100
0001
0010
,
0001
1000
0001
0100
,
0001
1000
0010
1000
,
0100
0000
1000
0000
0010
0000
0100
0001
,
0100
0000
0001
0000
0010
0000
0100
1000
,
0100
0000
1000
0000
0001
0000
0100
0010
,
0200
0301
0200
0310
,
0100
0000
0001
0000
0010
0100
1000
0000
,
0100
0000
0010
0000
0001
0010
0100
0000
,
0010
0001
0000
1000
0100
0000
0010
0002
,
0000
0000
0000
0003
,
2000
3010
0200
0301
,
0020
0130
0020
0031
,
2000
3001
0200
0301
,
0020
0130
2000
3100
,
2000
3200
0020
0330
,
0002
0023
0200
0330
,
2000
3020
0230
0302
,
0023
0000
0000
0000
,
0130
0010
0000
0001
,
0000
1000
0000
0010
,
0000
1000
0000
0001
,
0000
0010
0000
0001
,
0100
1000
0100
0001
,
0000
0000
0000
1000
,
0100
1000
0100
0001
,
0100
0010
0001
1000
,
0000
0001
0100
0010
,
1000
0001
0010
0100
,
0010
0001
1000
0100
,
0010
0001
0100
1001
,
1001
1000
0001
0010
,
0001
0100
0010
1000
,
0010
0100
0001
0010
,
0100
1100
0000
1001
,
0000
0000
0001
0000
1000
0000
0010
1000
,
0010
0000
1000
0000
0001
0000
0010
0001
,
0010
0000
0001
0000
1000
0000
0100
1000
,
0100
0000
1000
0000
0001
0000
0100
0001
,
0100
0000
0001
0000
1000
0000
0010
1000
,
0100
0000
0010
0000
0001
0000
0010
0001
,
0100
0000
0010
0000
0100
0000
0010
0100
,
0001
1001
0000
0110
;

//--------------- dance-single - Pandemonium X ----------------
#NOTES:
     dance-single:
     Pandemonium X:
     Medium:
     12:
     0,0,0,0,0:
0000
0000
0000
0000
,
0000
0000
0000
0000
,
0000
0000
0000
0000
,
0000
0000
0000
0000
,
0001
0000
0000
1000
0000
0000
0001
0000
0010
0000
0000
0010
0000
0000
0010
0000
,
0100
1000
0100
1000
0100
0010
0100
0010
,
0001
0010
0001
0010
0001
0100
0001
0100
,
0020
0000
0000
0000
,
1030
0100
0000
1000
0000
0000
0100
0000
1000
0000
0000
1000
0000
0000
0001
0000
,
0100
0000
0000
0100
0000
0000
0001
0000
0010
0000
0000
0010
0000
0000
0100
0000
,
0010
0100
0000
0010
0000
0000
0001
0000
0100
0000
0000
0100
0000
0000
0001
0000
,
1000
0000
0000
1000
0000
0000
0001
0000
1000
0100
0000
0100
1000
0000
0001
0000
,
1000
0010
0000
1000
0000
0000
0010
0000
1000
0000
0000
1000
0000
0000
0001
0000
,
0010
0100
0000
0010
0000
0000
0100
0000
1000
0000
0000
1000
0000
0000
0001
0000
,
0100
0001
0000
0100
0000
0000
0001
0000
0010
0000
0000
0010
0000
0000
0100
0000
,
0110
0000
0000
0110
0000
0000
0000
0000
1001
0000
0000
1001
0000
0000
0000
0000
,
0101
0000
0000
0001
0100
0000
0001
0000
0100
0000
0000
0000
0001
0000
0100
0000
,
0010
0000
0000
1000
0010
0000
1000
0000
0010
0000
0000
0000
1000
0000
0100
0000
,
0010
0000
0000
0001
0010
0000
0001
0000
0010
0000
0000
0010
0100
0000
1000
0000
,
1100
0101
2002
3003
,
1000
0100
1000
0000
0001
0100
0001
0000
,
1000
0100
1000
0001
0100
0001
1000
0000
,
1000
0010
1000
0000
0001
0010
0001
0000
,
1000
0010
1000
0010
1000
0001
0010
0001
,
1000
0000
0000
0000
0001
0000
0000
0010
0000
0000
0001
0000
0100
0000
0010
0000
,
1000
0000
0000
0000
0010
0000
0000
1000
0000
0000
0100
0000
1000
0000
0001
0000
,
1000
0000
0000
0000
0001
0000
0000
0100
0000
0000
0001
0000
1000
0000
0100
0000
,
1000
0100
0000
0100
0010
0000
0010
0001
0000
0001
0100
0000
0010
0000
1000
0000
,
0001
0000
0000
0000
0010
0000
0010
0100
0000
0100
1000
0000
0001
0000
0100
0000
,
0001
0000
0000
0000
0010
0000
0100
0010
0000
0010
0001
0000
1000
0000
0001
0000
,
0100
0001
0100
0000
0000
0000
0010
1000
0010
0000
0000
0000
1000
0001
2000
0000
,
0000
0000
0000
0000
0000
3001
1001
0000
,
1000
0100
2000
0000
3001
0100
0002
0000
,
0013
0001
0020
0000
0130
1000
0200
0000
,
0310
0001
0020
0000
0031
0100
0002
0000
,
0103
0010
0200
0000
0310
1000
0020
0000
,
2030
0100
3001
1001
,
0002
0100
1003
1001
,
0002
0203
0320
2030
,
3001
0010
0100
0010
0001
1000
0100
0010
,
0011
1000
0001
0010
,
0100
0000
1000
0100
0010
0100
0000
0100
,
0000
1000
1000
0000
0001
0000
0011
0000
,
0001
0100
0010
1000
,
0101
0011
0110
1100
,
0100
0010
0001
1100
,
1010
1001
0110
1001
,
0110
1100
0011
0202
,
0003
0000
0000
0000
0310
0000
0000
1000
0010
0000
0100
0000
0001
0000
0000
0000
,
0010
0000
0000
0000
0100
0000
0000
0010
0100
0000
0010
0000
0001
0000
0000
0000
,
1000
0000
0000
0000
0001
0000
0000
1000
0100
0000
0010
0000
0100
0000
0000
0000
,
1000
0000
0000
0000
0001
0000
0000
0100
0001
0000
0010
0000
0100
0000
0001
0000
,
0100
0000
1000
0000
0001
0000
0000
1000
0001
0000
0100
0000
0001
0000
0000
0000
,
0010
0000
0000
0000
0100
0000
0000
0010
0100
0000
1000
0000
0001
0000
0000
0000
,
0100
0000
0000
0000
0001
0000
0000
0010
0001
0000
0100
0000
0010
0000
0000
0000
,
1000
0000
0000
0000
0010
0000
0000
0010
0000
0000
1000
0000
0001
0000
0000
0001
,
0000
0000
0001
0000
1000
0000
0100
1000
0100
0000
1000
0000
0010
0000
0000
0000
,
0100
0000
0000
0000
0001
0000
0010
0001
0010
0000
0001
0000
0100
0000
0000
0000
,
0010
0000
0000
0000
1000
0000
0001
0100
0001
0000
1000
0000
0001
0000
0000
0000
,
0010
0000
0000
0000
0100
0000
1000
0100
1000
0000
0010
0000
0110
0000
0000
0000
,
1001
0000
0000
0000
0001
0000
0010
0001
0010
0000
0001
0000
1000
0000
0000
0000
,
0100
0000
0000
0000
1000
0000
0010
1000
0010
0000
1000
0000
0010
0000
0000
0000
,
0100
0000
0000
0000
0001
0000
1000
0001
1000
0000
0001
0000
0010
0000
0000
0000
,
0100
0000
0000
0000
1000
0000
0000
1000
0000
0000
1000
0000
0001
0000
0000
0001
,
0000
0200
0000
0300
0000
0000
0000
0000
;

//--------------- dance-single - Pandemonium X ----------------
#NOTES:
     dance-single:
     Pandemonium X:
     Hard:
     15:
     0,0,0,0,0:
0000
0000
0000
0000
,
0000
0000
0000
0000
,
0000
0000
0000
0000
,
0000
0000
0000
0000
,
0001
1000
0000
1000
0000
0000
1000
0000
0001
0000
0000
0001
0000
0000
0001
0000
,
0100
0010
0100
0010
0100
0010
0100
0010
1000
0001
1000
0001
1000
0001
1000
0001
,
0010
0001
0010
0001
0010
0001
0010
0001
0010
0100
0010
0100
0010
0100
0010
0100
,
0020
0000
0000
0000
,
0031
0000
0000
0001
0100
0000
0001
0000
1000
0000
0001
0000
0010
0000
0001
0000
,
1000
0000
0100
0010
0100
0000
0010
0000
0001
0000
0100
0000
0001
0000
1000
0000
,
0100
0000
0000
0100
1000
0000
0100
0000
0010
0000
0100
0000
1000
0000
0001
0000
,
0100
0000
0010
0100
0010
0000
0100
0001
0010
0000
0001
0000
1000
0000
0001
0000
,
0010
0000
0000
0010
0100
0000
0010
0000
0001
0000
0100
0000
0001
0000
1000
0000
,
0001
0000
0100
0001
0100
0000
0001
0000
1000
0000
0100
0000
0010
0000
0100
0000
,
1000
0000
0000
1000
0001
0000
1000
0000
0001
0000
0010
0000
0100
0000
0010
0000
,
0011
0000
0000
0011
0000
0000
0001
0000
1100
0000
0000
1100
0000
0000
1000
0000
,
0010
0000
0000
0010
0100
0000
0001
0000
1000
0000
0000
0100
0010
0000
0001
0000
,
0100
0000
0000
0100
0010
0000
1000
0000
0001
0000
0000
0010
0100
0000
0100
0010
,
0100
0000
0000
0010
0001
0000
0100
0000
0010
0000
0000
0100
0010
0000
1000
0000
,
1100
0000
0000
0000
1001
0000
0000
0100
0010
0000
0000
0000
MMMM
0000
0000
0000
,
0001
0000
1000
0000
0001
0000
0100
0000
0010
1000
0010
0100
0010
0100
0001
1000
,
0100
0000
0010
0000
0100
0000
0010
0000
0001
0010
0001
0100
0010
0100
0001
1000
,
0001
0000
0010
0000
0001
0000
0100
0000
0010
1000
0010
0100
0001
0010
0100
0010
,
0001
0000
0100
0000
0010
0000
0100
0000
0001
0100
0001
0010
0100
0010
0001
1000
,
0001
0000
0000
1000
0100
0000
1000
0010
0000
0100
0001
0000
0010
0000
0100
0000
,
0010
0000
0000
0001
0010
0000
0001
0100
0000
0010
1000
0000
0100
0000
1000
0000
,
0001
0000
0000
1000
0100
0000
1000
0010
0000
0100
0001
0000
0010
0000
0001
0000
,
1000
0100
0000
0001
0100
0000
1000
0010
0000
0001
0010
0000
0100
0000
0001
0000
,
0010
0100
0000
0100
1000
0000
0001
0100
0000
0001
0010
0000
0100
0000
0010
0000
,
0001
0010
0000
0010
0100
0000
1000
0100
0000
0010
0100
0000
1000
0000
0001
0000
,
1000
0010
0200
0000
0000
0000
1300
0100
0020
0000
0000
0000
0130
0002
2000
0000
,
0000
0000
0000
0000
0000
0000
0000
0000
3003
0000
1000
0001
1000
0000
0000
0000
,
0001
0100
0010
0100
0010
0001
0010
1000
,
0001
0010
0001
1000
0100
0001
0100
1000
,
0001
0100
0001
1000
0010
0001
0010
1000
,
0001
0010
0100
1000
0100
0001
0100
1000
,
0001
0100
0001
0100
0001
0100
0001
0100
0010
0000
0000
0000
0000
0000
0100
0010
,
1000
0100
1000
0100
1000
0100
1000
0100
0010
0000
0000
0000
0000
0000
0001
0010
,
0200
0000
0000
0000
0310
0000
0000
0010
0100
0000
0100
0000
0100
0000
0100
0000
,
1000
0100
1000
0001
0100
0001
0010
0001
0010
0100
1000
0001
0010
0100
0010
0001
,
1000
0000
0000
0000
0001
0100
0000
0100
0000
0000
0010
0000
1000
0000
0000
1000
,
0000
1000
0100
0001
0100
1000
0000
1100
,
0000
0000
1000
0000
0010
0100
0000
0100
0000
0000
0010
0000
0110
0000
0000
0100
,
0000
0000
0001
0000
0010
0100
0000
0100
0000
0000
0010
0000
0001
0010
0001
0010
,
0100
1100
0011
0101
,
0001
1000
0010
0000
0100
0000
0101
0000
,
0011
1100
1010
0101
,
0011
0110
1001
0110
,
MMMM
0000
0000
0000
1001
0000
0000
1000
0001
0000
0100
0000
0010
0000
1000
0000
,
0100
0000
1000
0000
0010
0000
0100
0001
0100
0000
0001
0000
0010
0000
0100
0000
,
0010
0000
0001
0000
1000
0000
0000
1000
0001
0000
0010
0000
0001
0000
0100
0000
,
0010
0000
0100
0000
0001
0000
0010
0100
0010
0000
0100
1000
0010
0000
0000
0000
,
1001
0000
0000
0000
0001
0000
0000
0001
0010
0000
0100
0000
1000
0000
0001
0000
,
0100
0000
0001
0000
0010
0000
0100
0010
0100
0000
0010
0000
0001
0000
1000
0000
,
0010
0000
0100
0000
0001
0100
0001
0100
0010
0100
0010
0100
0010
1000
0010
1000
,
0010
1000
0001
1000
0001
0000
0010
1000
0000
0010
0001
0000
0100
0000
1000
0100
,
0000
0010
1000
0000
0001
0000
1000
0100
1000
0000
0001
0000
0010
0000
1000
0000
,
0010
0000
0100
0000
1000
0000
0010
0100
0010
0000
0100
0000
1000
0000
0100
0000
,
0001
0000
1000
0000
0001
0000
0100
0001
0100
0000
1000
0000
0100
0000
0001
0000
,
0100
0000
1000
0000
0001
0000
0010
0100
0010
0000
0100
0000
0001
0000
0100
0000
,
1000
0000
0001
0000
1000
0000
0001
0010
0100
0000
0010
0000
1000
0000
0010
0000
,
0001
0000
1000
0000
0010
0000
0100
0010
1000
0000
0010
0000
0001
0000
0010
0000
,
1000
0000
0001
0000
0010
0000
0100
0010
0001
0000
0010
0000
1000
0000
0010
0000
,
0100
0000
1000
0000
1100
0000
0000
1100
0000
0000
1000
0000
1001
0000
0000
1001
,
0000
0001
0000
0000
0000
0000
0000
0000
;

//--------------- dance-double - Pandemonium X ----------------
#NOTES:
     dance-double:
     Pandemonium X:
     Easy:
     5:
     0,0,0,0,0:
00000000
00000000
00000000
00000000
,
00000000
00000000
00000000
00000000
,
00000000
00000000
00000000
00000000
,
00000000
00000000
00000000
00000000
,
00001000
00000000
00010000
00000000
,
00000200
00000000
00010000
00000000
,
00010000
00000000
00010300
00000000
,
00011000
00000000
00000000
00000000
,
00001000
00000000
01000000
00000000
,
00010000
00000000
00100000
00000000
,
01000000
00000000
10000000
00000000
,
00010000
00000000
00100000
00001000
,
00010000
00000000
00000100
00000000
,
00001000
00000000
00000010
00000000
,
00000100
00000000
00000001
00000000
,
00001001
00000000
00000110
00000000
,
00000010
00000000
00001000
00000000
,
00000100
00000000
00010000
00000000
,
00001000
00000000
01000000
00000000
,
00010000
10000000
01100000
00000000
,
00010000
00000000
00100000
00000000
,
00001000
00010000
00001000
00000000
,
00010000
00000000
00000100
00000000
,
00001000
00000010
00001000
00000000
,
00000001
00000000
00001000
00000000
,
00000100
00000000
00010000
00000000
,
00001000
00000000
01000000
00000000
,
00020000
00000000
00230000
00000000
,
01300000
10000000
00100000
00000000
,
01000000
00010000
00100000
00000000
,
00010000
00000000
00000000
00100000
00000000
00000000
00002000
00000000
,
00000000
00000000
00000000
00003000
,
00010000
00000000
00000100
00000000
,
00001000
00000000
00000010
00000000
,
00000100
00000000
00001000
00000000
,
00000100
00000000
00000001
00000000
,
00001000
00000100
00001100
00000000
,
00000100
00010000
00010100
00000000
,
00010000
00001000
01000000
00100000
,
20000000
00000000
00000000
00000000
,
31000000
00100000
00000000
01000000
,
00000000
10000000
00000000
00010000
,
00000000
01000000
00000000
00001000
,
00000000
00010000
00000000
00000100
,
00001000
00000010
00000100
00000001
,
00000000
00000000
00000000
00001000
,
00000010
00001000
00000100
00010000
,
00001000
01000000
00100000
10000000
,
10010000
00010000
00000000
00100000
,
00000000
01000000
10000000
01000000
,
00000000
10000000
00000000
00010000
,
00000000
01000000
00010000
10010000
,
10010000
10000000
00000000
00010000
,
00000000
00100000
00001000
00100000
,
00000000
00001000
00000000
00010000
,
00000000
00000100
00001000
00000100
,
00001000
00000010
00000100
00000001
,
00000000
00001000
00000100
00010000
,
00000000
00001000
00100000
00010000
,
00000000
01000000
00100000
10010000
,
10010000
10000000
00010000
00100000
,
00000000
00010000
00100000
00001000
,
00000000
00020000
00000000
00000000
,
00030000
00011000
00000000
00001100
;

//--------------- dance-double - Pandemonium X ----------------
#NOTES:
     dance-double:
     Pandemonium X:
     Medium:
     8:
     0,0,0,0,0:
00000000
00000000
00000000
00000000
,
00000000
00000000
00000000
00000000
,
00000000
00000000
00000000
00000000
,
00000000
00000000
00000000
00000000
,
00000000
00000000
00000000
00000000
,
00040000
00004000
00000000
00000000
00000000
00000000
00000000
00000000
,
00000000
00000000
00000000
00000000
,
00033000
00000000
00000000
00000000
,
00010000
00000000
00001000
00000000
00010000
00001000
00010000
00000000
,
00001000
00000000
01000000
00000000
00001000
01000000
00001000
00000000
,
01000000
00000000
00100000
00000000
01000000
00100000
01000000
00000000
,
00100000
00000000
10000000
00000000
00100000
10000000
00100000
00000000
,
10000000
00000000
00010000
00000000
10000000
00010000
10000000
00000000
,
00010000
00000000
00100000
00000000
00010000
00100000
00010000
00000000
,
00100000
00000000
00001000
00000000
00100000
00001000
00100000
00000000
,
00101000
00000000
00010100
00000000
,
00000100
00000000
00001000
00000000
,
00000010
00000000
00000100
00000000
,
00000001
00000000
00001000
00000000
,
00001100
00011000
01010000
00000000
,
01000000
00010000
10000000
10000000
,
01000000
00100000
00001000
00001000
,
00010000
00000100
00001000
00001000
,
00000010
00000100
00000001
00000001
,
00000100
00000001
00000010
00000001
,
00001000
00000010
00000100
00000010
,
00001000
00000001
00000100
00000001
,
00001000
00000100
00010000
00001000
,
01000000
00000000
00010000
00100000
00100000
00000000
00010000
00000000
,
10000000
00000000
00100000
01000000
01000000
00000000
00100000
00000000
,
10000000
10000000
00000000
00010000
00010000
00000000
00100000
00200000
,
00000000
00000000
00000000
00300000
,
00100000
00001000
00100000
00010000
,
01000000
00100000
00010000
00100000
,
10000000
00010000
00100000
01000000
,
10000000
10000000
00010000
00010000
,
20000000
32000000
03200000
00320000
,
00032000
00003200
00000320
00000032
,
00002003
00003200
00000302
00000203
,
00020000
00000000
00000000
00000000
,
00030300
00000000
00000000
00000000
,
00000000
00000000
00000000
00010000
00000100
00010000
00000000
00000100
,
00000000
00001000
00000000
00000000
00000000
00000000
00001010
00000000
,
00000000
00000000
00000000
00000000
,
00000010
00000100
00000001
00001000
,
00000000
00000000
00000000
00000100
,
00010000
00001000
01000000
00100000
,
10000000
01000000
00100000
00010000
,
00011000
00000000
00001000
00000000
00010000
00000000
00000100
00010000
,
00000100
00000000
00010000
00000000
00000100
00000000
00001000
00000010
,
00001000
00000000
00000010
00000000
00000100
00000000
00000001
00000100
,
00000001
00001000
00000001
00000011
,
00001100
00000000
00000100
00000000
00010000
00000000
00001000
00010000
,
00001000
00000000
00010000
00000000
00001000
00000000
01000000
00010000
,
01000000
00000000
00010000
00000000
00100000
00000000
01000000
10000000
,
01000000
11000000
00000000
01010000
,
00000000
00000000
10010000
00000000
00010000
00000000
01000000
00010000
,
00100000
00001000
00010000
00000000
00000100
00000000
00001000
00000010
,
00000100
00000010
00001000
00000000
00000001
00000000
00000010
00000001
,
00000100
00000010
00001000
00000000
00000100
00000000
00001100
00000000
,
00011000
00000000
01010000
00000000
00010000
00000000
10000000
01000000
,
00100000
01000000
10000000
00000000
00010000
00000000
00100000
00010000
,
01000000
00010000
00100000
00000000
00001000
00000000
00010000
00000100
,
00001000
00000000
00000010
00000000
00000100
00000000
00000000
00000100
00000000
00000000
00000100
00000000
00000010
00000000
00000000
00000010
,
00000000
00000010
00000000
00000000
00000000
00000000
00000000
00000000
;

//--------------- dance-double - Pandemonium X ----------------
#NOTES:
     dance-double:
     Pandemonium X:
     Hard:
     14:
     0,0,0,0,0:
00000000
00000000
00000000
00000000
,
00000000
00000000
00000000
00000000
,
00000000
00000000
00000000
00000000
,
00000000
00000000
00000000
00000000
,
00002000
00003000
00200000
00300000
,
00020000
00030000
02000000
03000000
,
00200000
00300000
02000000
03000000
,
00022000
00000000
00000000
00033000
,
00010000
00000010
00000100
00001000
00000010
00010000
00001000
01000000
,
00010000
10000000
01000000
00100000
10000000
00100000
00010000
00001000
,
01000000
00010000
00100000
00001000
00010000
00000100
00000010
00000001
,
00000010
00000001
00000100
00000010
00000001
00000010
00001000
00000100
,
00010000
00001000
01000000
00010000
00100000
10000000
00100000
00010000
,
01000000
00001000
00010000
00000100
00001000
00000100
00000001
00000100
,
00001000
00000010
00000100
00001000
00000100
00000010
00010000
00001000
,
00011000
00000000
00000000
01001000
00000000
00000000
00000000
00000000
00011000
00000000
00000000
00010100
00000000
00000000
00000000
00000000
,
00011000
00000000
00000000
00010000
00001000
00000000
00010000
00000000
00001000
00000000
00000000
00010000
00001000
00000000
00010000
00000000
,
00001000
00000000
00000000
00010000
00001000
00000000
00010000
00000000
00001000
00000000
00000000
00010000
00001000
00000000
00010000
00001000
,
00010000
00000000
00000000
00001000
00010000
00000000
00001000
00000000
00010000
00000000
00000000
00001000
00010000
00000000
00001000
00000000
,
00011000
00000000
00000000
00000000
10010000
00000000
00000000
00010000
01000000
00000000
00000000
00000000
10200000
00000000
00000000
00000000
,
01300000
00000000
00010000
00000000
00100000
00000000
00001000
00000000
00010000
00001000
00010000
00001000
00010000
00000100
00010000
00000100
,
00001000
00000000
00000010
00000000
00000100
00000000
00000001
00000000
00000010
00000100
00000010
00000100
00001000
00000100
00001000
00000100
,
00010000
00000000
00001000
00000000
01000000
00000000
00010000
00000000
10000000
01000000
10000000
01000000
00100000
00010000
00100000
00010000
,
01000000
00000000
00010000
00000000
00100000
00000000
00001000
00000000
00010000
00000100
00010000
00000100
00001000
00000010
00001000
00000010
,
00000100
00000000
00000000
00000001
00000100
00000000
00000100
00000010
00000000
00000010
00001000
00000000
00000100
00000000
00010000
00000000
,
00001000
00000000
00000000
00010000
00001000
00000000
00001000
01000000
00000000
01000000
00010000
00000000
00010000
00000000
00100000
00000000
,
01000000
00000000
00000000
00100000
01000000
00000000
01000000
10000000
00000000
10000000
00100000
00000000
01000000
00000000
00010000
00000000
,
10000000
01000000
00000000
00100000
00001000
00000000
00010000
00000010
00000000
00000100
00000001
00000000
00000010
00000000
00000100
00000000
,
00001000
00000100
00000000
00010000
00001000
00000000
01000000
00010000
00000000
00100000
01000000
00000000
00100000
00000000
01000000
00000000
,
10000000
01000000
00000000
00100000
00010000
00000000
00100000
00001000
00000000
00010000
00000010
00000000
00000100
00000000
00000001
00000000
,
00001000
00000010
00000100
00000000
00000000
00000000
00000010
00010000
00001000
00000000
00000000
00000000
00010000
00001000
02000000
00000000
,
00000000
00000000
00000000
00000000
00000000
00000000
00000000
00000000
00000000
00000000
03100000
10000000
00010000
00000000
00000000
00000000
,
00200000
00320000
02030000
03002000
00023000
00030020
00000230
00002300
,
00003200
00020300
00032000
02003000
03200000
00320000
00230000
20300000
,
32000000
03200000
00302000
00023000
00030200
00002300
00003020
00000230
,
00000302
00000023
00000230
00002300
00003200
00020300
00032000
00023000
,
00030020
00200030
00301000
00011000
,
02000000
03000200
00010300
00011000
,
00000020
00200030
00302000
00203000
,
00304000
00040000
00000000
00000000
00000000
00000000
00000000
00000000
00000000
00000000
00000000
00000000
00000000
00000000
00000000
00000000
,
00033000
00000000
00110000
00000000
10000000
01000000
00100000
00000000
,
00100000
01000000
10000000
01000000
00100000
00010000
00000000
00001000
,
00000000
00010000
00001000
00000000
00010000
00000100
00010100
00000000
,
00001000
00000010
00000100
00000000
00000010
00001000
00001001
00000000
,
00001010
00001100
00010100
00011000
,
00001000
01000000
00100000
00000000
01000000
00000000
10010000
00000000
,
00110000
00101000
00011000
00010100
,
00001010
00000101
00001010
00010100
,
00011000
00000000
00000000
00000000
01001000
00000000
00000000
01000000
00010000
00000000
00100000
00000000
01000000
00000000
10000000
00000000
,
00010000
00000000
01000000
00000000
00001000
00000000
00000000
00010000
00000100
00000000
00001000
00000000
00000010
00000000
00000100
00000000
,
00000001
00000000
00001000
00000000
00000100
00000000
00000000
00010000
00001000
00000000
00010000
00000000
00000100
00000000
00001000
00000000
,
00000010
00000000
00000100
00000000
00000001
00000000
00000000
00001000
00000010
00000000
00001000
00000000
00001100
00000000
00000000
00000000
,
01010000
00000000
00000000
00000000
00011000
00000000
00000000
00001000
01000000
00000000
00100000
00000000
10000000
00000000
01000000
00000000
,
00100000
00000000
01000000
00000000
10000000
00000000
00000000
00010000
01000000
00000000
00010000
00000000
00100000
00000000
00010000
00000000
,
00001000
00000000
00000100
00000000
00010000
00000000
00000000
00000100
00001000
00000000
00000010
00000000
00000100
00000000
00000001
00000000
,
00000010
00000000
00000100
00000000
00001100
00000000
00000000
00001100
00000000
00000000
00000100
00000000
00010100
00000000
00000000
00010100
,
00000000
00000000
00010000
00000000
00012000
00000000
00000000
01003000
00010000
00000000
10000000
00000000
01000000
00000000
00010000
00000000
,
01000000
00000000
00100000
00000000
00010000
00000000
00000000
00100000
00001000
00000000
00010000
00000000
00000100
00000000
00001000
00000000
,
00010000
00000000
00100000
00000000
01000000
00000000
00000000
00100000
01000000
00000000
00010000
00000000
00100000
00000000
10000000
00000000
,
00100000
00000000
00010000
00000000
00001000
00000000
00000000
00010000
00000100
00000000
00001000
00000000
00001010
00000000
00000000
00000000
,
00110000
00000000
00000000
00000000
00011000
00000000
00000000
00010000
00000010
00000000
00000100
00000000
00001000
00000000
00000100
00000000
,
00000001
00000000
00001000
00000000
00000100
00000000
00000000
00000010
00000001
00000000
00000010
00000000
00001000
00000000
00000010
00000000
,
00000001
00000000
00000100
00000000
00000010
00000000
00000000
00000100
00000010
00000000
00010000
00000000
00001000
00000000
01000000
00000000
,
00100000
00000000
10000000
00000000
10100000
00000000
00000000
10010000
00000000
00000000
10000000
00000000
11000000
00000000
00000000
01100000
,
00000000
00010000
00000000
00000000
00000000
00000000
00000000
00000000
;
