#TITLE:SPACE FIGHT;
#SUBTITLE:;
#ARTIST:AKIRA YAMAOKA;
#TITLETRANSLIT:;
#SUBTITLETRANSLIT:;
#ARTISTTRANSLIT:;
#GENRE:;
#CREDIT:;
#MUSIC:SPACE FIGHT.ogg;
#BANNER:SPACE FIGHT-bn.png;
#BACKGROUND:SPACE FIGHT-bg.png;
#CDTITLE:;
#SAMPLESTART:59.108;
#SAMPLELENGTH:13.804;
#SELECTABLE:YES;
#OFFSET:1.324;
#BPMS:0.000=139.000;
#STOPS:;
#BGCHANGES:;
#FGCHANGES:;

//--------------- dance-single - Pandemonium X ----------------
#NOTES:
     dance-single:
     Pandemonium X:
     Beginner:
     3:
     0,0,0,0,0:
0000
0000
0000
0000
,
0000
0000
0000
0000
,
0000
0000
0000
0000
,
0010
0000
0000
0000
,
0100
0000
0000
0000
,
0001
0000
0000
0000
,
1000
0000
0000
0001
,
1000
0000
0000
0000
,
0100
0000
0000
0000
,
0010
0000
0000
0000
,
0200
0000
0300
0000
,
0010
0000
0000
0000
,
0001
0001
1000
0000
,
0000
0000
0000
0000
,
0001
0000
0000
0000
,
1000
0000
0010
0000
,
0100
0000
0001
0000
,
0010
0000
0100
0000
,
0010
0000
0001
0000
,
1000
0000
0000
0000
,
0001
0000
0000
0000
,
0010
0000
0000
0000
,
0100
0000
0000
0000
,
1000
0000
0000
0000
,
0010
0000
0000
0000
,
0100
0000
0000
0000
,
0020
0000
0030
0000
,
0000
0000
0000
0000
,
0000
1000
0000
0000
0000
1000
0000
0000
,
0000
0001
0000
0001
,
0000
0000
0001
0000
0000
0001
0000
0000
,
1000
0000
0000
0000
,
0000
0010
0000
0000
0000
0010
0000
0000
,
0000
0000
0100
0000
,
0000
0000
0000
0000
,
0001
0000
0001
0000
,
1000
0000
1000
0000
,
0001
0000
1000
0000
,
0010
0010
0010
0000
,
1000
0000
0001
0000
,
1000
0000
0001
0000
,
1000
0000
1000
0000
,
0200
0000
0300
0000
,
0010
0000
0000
0001
,
0000
0000
0000
0000
,
1000
0000
0000
0000
,
0001
0000
0100
0000
,
0010
0000
0000
0100
,
0000
0010
0010
0000
,
1000
1000
0001
0000
,
2000
0000
3000
0000
,
0001
0000
1000
0000
,
0001
0000
1000
0000
,
0001
0000
0001
0000
,
0010
0010
0010
0000
,
0001
0000
1000
0000
,
0001
0000
1000
0000
,
0100
0000
0100
0000
,
0020
0000
0030
0000
,
1001
0000
0000
0000
;

//--------------- dance-single - Pandemonium X ----------------
#NOTES:
     dance-single:
     Pandemonium X:
     Easy:
     6:
     0,0,0,0,0:
0000
0000
0000
0000
,
0000
0000
0000
0000
,
0000
0000
0000
0000
,
1001
0000
0000
0000
,
0001
0000
0000
0000
,
1000
0000
0000
0000
,
0010
0000
0000
1001
,
0001
0000
1000
0000
,
0100
0000
1000
0000
,
0010
0000
1000
0000
,
0200
0000
0310
1001
,
0001
1000
0100
0000
,
1000
1000
0001
0100
,
0001
0000
0010
0001
,
1000
0000
0000
0001
0000
0000
0100
0000
,
0001
0001
0010
0100
,
1000
1000
0100
1000
,
0010
0010
0100
0100
,
0010
0000
0000
0100
0000
0000
0001
0000
,
0000
0000
1000
0100
0000
0000
0000
0000
,
0000
0000
1000
0001
0000
0000
0000
0000
,
0000
0000
1000
0010
0000
0000
0000
0000
,
0000
0000
1000
0001
0000
0000
0000
0000
,
0000
0000
0001
0100
0000
0000
0000
0000
,
0000
0000
0001
1000
0000
0000
0000
0000
,
0000
0000
0001
0010
0000
0000
0000
0000
,
0002
0000
0000
0003
,
1000
0001
1000
0001
,
1000
0001
1000
0000
1000
0001
1000
0000
,
0001
0110
1000
0110
,
0001
0000
0110
0000
1000
0010
0000
0010
,
0100
1000
0100
0001
,
1000
0100
1000
0000
0100
1000
0100
0000
,
1000
0010
0110
0100
,
0020
0000
0000
0000
,
1030
0001
1000
0001
,
0100
0001
0100
0001
,
0100
1000
0100
0001
,
1000
0100
0010
0001
,
1000
0001
1000
0001
,
0010
0001
0010
0001
,
0010
1000
0010
0001
,
0200
0000
0300
0000
,
0010
0000
0100
0000
,
0010
0000
0000
1000
0000
0000
0000
0000
,
0001
1000
0001
0010
,
0100
1000
0100
1000
,
0010
0000
0100
0010
,
0000
0100
0000
0010
,
0100
0100
0010
1000
,
0002
0000
0003
0000
,
0001
1000
0001
1000
,
0010
1000
0010
1000
,
0010
0001
0010
1000
,
0001
0010
0100
1000
,
0001
1000
0001
1000
,
0100
1000
0100
1000
,
0100
0001
0100
1000
,
0020
0000
0000
0000
0000
0000
0000
0130
,
1001
0000
0000
0000
;

//--------------- dance-single - Pandemonium X ----------------
#NOTES:
     dance-single:
     Pandemonium X:
     Medium:
     8:
     0,0,0,0,0:
0000
0000
0000
0000
,
0000
0000
0000
0000
,
0000
0000
0000
0000
,
0000
0000
0000
0000
,
0000
0000
0000
0000
,
0000
0000
0000
0000
,
0000
0000
0000
1001
,
0001
1000
1100
0000
,
1000
0001
0101
0000
,
0001
1000
1010
0000
,
0020
0000
0130
1001
,
1000
0000
0001
0000
0010
0000
0100
0001
,
0100
1000
0002
0000
0103
0000
0001
0000
,
0010
0001
1000
0100
,
0020
0000
0000
0230
0000
0000
2300
0000
,
3001
0100
0001
0000
1000
0000
0001
0000
,
1000
0100
1000
0000
0001
0000
0010
0000
,
0001
0010
0001
0000
0100
0000
0010
0000
,
1000
0010
1000
0000
0001
0000
1000
0000
,
0001
0000
1000
0100
1000
0000
0001
0000
,
0100
0000
0010
1000
0010
0000
1000
0000
,
0100
0000
0010
0001
0010
0000
0001
0000
,
0100
0000
0001
0100
0001
0000
0100
0000
,
0001
1000
0100
0001
,
0100
0010
0011
0101
,
0000
0001
0100
1000
,
0200
0000
0000
0300
,
0001
1000
0001
1000
,
0000
0110
0000
0000
0000
0110
0000
0000
,
1000
1001
0000
1001
,
0000
0000
1001
0000
0000
1001
0000
0000
,
0001
0100
0010
1000
0001
0010
0100
1000
,
0000
0002
0000
0003
0000
0002
0000
0003
,
0000
0000
1001
0000
,
2000
0000
0000
3000
,
0001
0010
0001
0010
,
0100
1000
0100
1000
,
0001
0100
0001
0000
0100
1000
0100
0000
,
0001
0100
0001
0100
1000
0100
0001
1000
,
1000
0100
1000
0100
,
0010
0001
0010
0001
,
1000
0010
1000
0000
0010
0001
0010
0000
,
1000
0010
1000
0010
0001
0010
1000
0001
,
2000
0000
0000
3100
0000
1000
0000
0001
,
0000
0100
0000
0001
0010
0000
0100
0000
,
1000
0000
1100
0000
1100
0100
0010
0001
,
1000
0000
0001
0000
0101
0000
0011
0020
,
0100
0030
0110
0000
0010
0000
1001
0000
,
1000
0000
0020
0030
1010
0000
0001
0000
,
1100
1010
0001
0101
,
0200
0000
0000
0000
0010
0000
0310
0010
,
1000
0010
1000
0010
,
0100
0001
0100
0001
,
0100
0010
0100
0000
0001
1000
0001
0000
,
0100
0010
0100
0010
1000
0001
1000
0001
,
0001
0100
0001
0100
,
0010
1000
0010
1000
,
0010
0100
0010
0000
1000
0001
1000
0000
,
0010
0100
0010
0100
0001
1000
0001
1000
,
0020
0000
0000
0030
;

//--------------- dance-single - Pandemonium X ----------------
#NOTES:
     dance-single:
     Pandemonium X:
     Hard:
     10:
     0,0,0,0,0:
0000
0000
0000
0000
,
0000
0000
0000
0000
,
0000
0000
0000
0000
,
0001
1000
0001
1000
,
0010
0100
0010
0100
,
0001
0100
0001
0100
,
0010
1000
0010
1001
,
1000
0100
1100
0100
,
0010
0001
0011
0010
,
0001
0100
0101
0001
,
2000
0000
3010
1001
,
0001
0010
0001
0100
0000
0001
0000
1000
,
0001
1000
0001
0000
1000
0010
0100
0010
,
0000
2000
0000
0000
3010
0100
0001
0020
,
0000
0000
0000
0230
0000
0000
1300
0000
,
1000
0001
0100
0010
1000
0001
0010
0001
,
1000
0100
0010
0100
1000
0001
0010
0001
,
0100
0010
1000
0001
0010
0001
0100
0010
,
1000
0100
0010
0100
2000
0000
3002
0000
,
0103
0000
0001
0010
0100
0000
0010
0000
,
0001
0000
1000
0100
0010
0000
0100
0000
,
1000
0000
0100
1000
0010
0000
0100
0000
,
0010
0000
0100
0001
0010
0000
0100
0000
,
1000
0000
0001
0100
0001
0000
0010
0100
,
0010
0001
0100
0010
1000
0000
1100
0000
,
0000
0000
1000
0100
1000
0000
0100
0010
,
0200
0000
0000
0300
,
1000
0001
0100
0001
,
0010
0200
1000
0300
0001
0020
0100
0030
,
0100
1000
1010
0000
0010
0100
0101
0000
,
0001
0000
1000
0000
1001
0000
0000
0000
0000
0000
1001
0000
0001
0100
0001
0100
,
0001
0010
0100
0010
1000
0010
0001
1000
,
0100
0020
0200
0330
0100
0020
0200
0330
,
0010
0001
1000
0000
0101
0000
0001
1000
,
0020
0000
0000
0030
,
1000
1100
1000
1100
,
0100
0110
0010
0110
,
0001
0010
0001
0000
1000
0100
1000
0000
,
0001
0010
0001
1000
0100
1000
0001
1000
,
0001
0101
0100
0101
,
0001
0011
0010
0011
,
0010
0100
0010
0000
0100
0010
0100
0000
,
2000
0000
0000
0000
,
3001
0000
1000
0001
0000
0100
0000
0001
,
0000
0010
0000
0100
1000
0000
0001
2000
,
0100
3000
0011
0000
0011
0010
0010
0010
,
0001
1000
0100
0000
0010
0000
0100
1000
,
0001
0100
0110
0000
1000
0100
0110
0000
,
0100
0010
0001
0010
0110
0000
1000
0010
,
0110
0000
1001
0000
0001
1000
0001
0000
,
0002
0000
0000
0000
0000
0000
0000
0000
1000
0000
0000
0000
1003
0000
1000
0010
,
1000
0110
0010
0110
,
0100
0101
0001
0101
,
0001
0010
0001
0000
1000
0100
1000
0000
,
0001
0010
0001
1000
0100
1000
0001
0010
,
0100
1100
1000
1010
,
0010
0110
0100
0101
,
0001
0100
0001
0000
1000
0010
1000
0000
,
0001
0100
0001
1000
0010
1000
0100
0010
,
1001
0000
0000
0000
;

//--------------- dance-double - Pandemonium X ----------------
#NOTES:
     dance-double:
     Pandemonium X:
     Easy:
     6:
     0,0,0,0,0:
00000000
00000000
00000000
00000000
,
00000000
00000000
00000000
00000000
,
00000000
00000000
00000000
00000000
,
00000000
00000000
00000000
00000000
,
00000000
00000000
00000000
00000000
,
00000000
00000000
00000000
00000000
,
00000000
00000000
00000000
10010000
,
10000000
00010000
00110000
00000000
,
00010000
10000000
11000000
00000000
,
10000000
00010000
01010000
00000000
,
02010000
00000000
00001000
03010000
,
00100000
00001000
00010000
00000100
,
00001100
00001100
00001000
00000010
,
00000100
00000000
00000010
00000100
,
00000001
00000000
00000000
00001000
00000000
00000000
00000001
00000000
,
00000010
00000010
00000100
00001000
,
00000100
00000100
00010000
00001000
,
01000000
01000000
00010000
00010000
,
10000000
00000000
00000000
01000000
00000000
00000000
00100000
00000000
,
00000000
00000000
00001000
00010000
00000000
00000000
00000000
00000000
,
00000000
00000000
00000100
00001000
00000000
00000000
00000000
00000000
,
00000000
00000000
00000010
00000100
00000000
00000000
00000000
00000000
,
00000000
00000000
00000001
00001000
00000000
00000000
00000000
00000000
,
00000000
00000000
00000100
00010000
00000000
00000000
00000000
00000000
,
00000000
00000000
00001000
00010000
00000000
00000000
00000000
00000000
,
00000000
00000000
00001000
00100000
00000000
00000000
00000000
00000000
,
00020000
00000000
00000000
00030000
,
00000000
00000000
00000000
00000000
,
00000000
02000000
00000000
03000000
00000000
02000000
00000000
03000000
,
00000000
10010000
00000000
10010000
,
00000000
00000000
10010000
00000000
00000000
10010000
00000000
00000000
,
00100000
00001000
00010000
00000010
,
00000000
00000200
00000000
00000300
00000000
00000200
00000000
00000300
,
00000000
00000000
00001001
00000000
,
00000000
00000000
00000000
00000000
,
00001000
00000001
00001000
00000001
,
00001000
00000100
00001000
00000100
,
00010000
00001000
00010000
00001000
,
01000000
00010000
10000000
00100000
,
10000000
01000000
10000000
01000000
,
00100000
00010000
00100000
00010000
,
00100000
00001000
00100000
00001000
,
00020000
00000000
00000000
00000000
,
00030100
00000000
00000000
00001000
00000000
00001000
00000000
00000010
,
00000000
00000100
00000000
00000100
00000000
00000000
00000100
00000002
,
00001000
00000003
00001001
00000000
00001001
00001000
00000100
00001000
,
00000100
00010000
00001000
01000000
,
00010000
01100000
10000000
01100000
,
00010000
00100000
00011000
00010000
,
00001100
00000000
00000000
00000000
00000001
00000000
00000000
00000000
00001000
00000000
00000010
00000000
00000000
00000010
00000000
00000010
,
00000000
00000000
00000000
00000000
,
00000100
00000001
00000100
00000001
,
00001000
00000010
00001000
00000010
,
00001000
00000100
00010000
00001000
,
01000000
00010000
00100000
01000000
,
10000000
00010000
10000000
00010000
,
00100000
00010000
00100000
00010000
,
00100000
00001000
00010000
00000100
,
00002000
00000000
00000000
00000000
00000000
00000000
00000000
00000001
,
00003001
00000000
00000000
00000000
;

//--------------- dance-double - Pandemonium X ----------------
#NOTES:
     dance-double:
     Pandemonium X:
     Medium:
     9:
     0,0,0,0,0:
00000000
00000000
00000000
00000000
,
00000000
00000000
00000000
00000000
,
00000000
00000000
00000000
00000000
,
00010000
00001000
00010000
00001000
,
00010000
00001000
00010000
00001000
,
00010000
00001000
00010000
00001000
,
00010000
00001000
00010000
00011000
,
00001000
01000000
01100000
00000000
,
01000000
00010000
00110000
00000000
,
00100000
00001000
00010100
00000000
,
00001020
00000000
00000000
00000000
00000000
00000000
00000000
00000000
00000001
00000000
00000000
00000000
00001000
00000030
00000000
00000000
,
00000001
00000100
00000010
00000000
00001000
00000000
00000100
00010000
,
00001000
00010000
00001000
00000000
01000000
00000000
00010000
00100000
,
00000000
10000000
00000000
00000000
00100000
00010000
01000000
00002000
,
00000000
00000000
00000000
00023000
00000000
00000000
00030100
00000000
,
00001000
00000010
00001000
00000000
00000001
00000100
00000001
00000000
,
00001000
00000010
00000100
00000001
00000010
00000100
00001000
00000100
,
00010000
00001000
00010000
00000000
00001000
01000000
00001000
00000000
,
01000000
00010000
00100000
01000000
10000000
00000000
10010000
00000000
,
00010000
00000000
10000000
00100000
01000000
00000000
00010000
00000000
,
00100000
00000000
00001000
00010000
00000100
00000000
00001000
00000000
,
00000010
00000000
00000100
00000001
00000010
00000000
00000100
00000000
,
00001000
00000000
00000100
00010000
00001000
00000000
00010000
00000000
,
00000100
00000000
00001000
00000010
00000100
00000000
00000001
00000000
,
00000010
00000000
00000100
00010000
00001000
00000000
00010000
00000000
,
00001000
00000000
01000000
00010000
00100000
00000000
01000000
00000000
,
20000000
00000000
00000000
30000000
,
00010000
10000000
00100000
01000000
,
00000000
02020000
00000000
03030000
00000000
02020000
00000000
03030000
,
00010000
00011000
00001000
00011000
,
00010000
00011000
00001000
00011000
,
00010000
00000100
00010000
00001000
01000000
00001000
00010000
00000100
,
00000000
00002000
00000010
00003000
00000000
00002000
00000010
00003000
,
00000010
00000000
00000100
00000000
00001001
00000000
00000001
00000100
,
00000020
00000000
00000000
00000000
,
00000130
00001000
00010000
00100000
,
01000000
10000000
01000000
00100000
,
00010000
00100000
00010000
00000000
10000000
01000000
10000000
00000000
,
00010000
00100000
01000000
10000000
00010000
00100000
01000000
10000000
,
01000000
00100000
01000000
00100000
,
00010000
00001000
00000100
00000010
,
00000001
00001000
00000001
00000000
00000100
00000010
00000100
00000000
,
00000002
00000000
00000000
00000000
,
00001003
00000000
00000000
00000100
00000000
00010000
00000000
00001000
,
01000000
00000000
00010000
00100000
01000000
00000000
10000000
00000000
,
00010000
00000000
10010000
00000000
10010000
00010000
00100000
01000000
,
10000000
01000000
10000000
00100000
,
01000000
01010000
00010000
00110000
,
00100000
00001000
00011000
00000100
,
00001100
00001000
00000010
00000100
,
00000002
00000000
00000000
00000003
,
00001000
00000010
00000001
00000010
,
00000100
00001000
00010000
00100000
,
00010000
00100000
10000000
01000000
,
00010000
01000000
00100000
00010000
,
00001000
00000100
00000010
00000001
,
00000100
00001000
00000100
00000010
,
00000100
00001000
00010000
00001000
,
00200000
00000000
00000000
00000000
00000000
00000000
00000000
00301000
,
00020000
00000000
00000000
00000000
,
00030000
00000000
00000000
00000000
;

//--------------- dance-double - Pandemonium X ----------------
#NOTES:
     dance-double:
     Pandemonium X:
     Hard:
     10:
     0,0,0,0,0:
00000000
00000000
00000000
00000000
,
00000000
00000000
00000000
00000000
,
00000000
00000000
00000000
00000000
,
01010000
01000000
00010000
00100000
,
00001000
00010000
00000010
00000100
,
00000001
00001000
00000100
00000010
,
00000001
00001000
00000010
00100010
,
00001000
00000000
00100000
00010000
00110000
00000000
01000000
00000000
,
10000000
00000000
01000000
10000000
10100000
00000000
01000000
00000000
,
00010000
00000000
00000000
00000000
00100000
00000000
00001000
00010000
00000000
00000000
00000000
00000000
00000100
00000000
00000000
00000000
,
00020100
00000000
00001000
00030010
,
00001001
00000001
00000100
00000001
00000000
00000010
00000000
00001000
,
00000010
00000001
00000200
00000000
00000310
00001000
00000100
00010000
,
00000000
00001000
00000000
00000000
00010000
00001000
01000000
00200000
,
00000000
00000000
00000000
20300000
00000000
00000000
30010000
00000000
,
00010000
01000000
00010000
01000000
00010000
00100000
00001000
00010000
,
00000010
00010000
00000010
00010000
00000010
00001000
00000001
00000010
,
00000100
00010000
00000100
00001000
00000100
00010000
00001000
00100000
,
00020000
00000000
00000000
02030000
00000000
00000000
03200000
00000000
,
10300000
00000000
01000000
10000000
00100000
00000000
01000000
00000000
,
00010000
00000000
00100000
00001000
00010000
00000000
00000100
00000000
,
00001000
00000000
00000010
00010000
00001000
00000000
01000000
00000000
,
00010000
00000000
01000000
00001000
00010000
00000000
00001000
00000000
,
00010000
00000000
00000100
00001000
00000100
00000000
00001000
00000010
,
00000100
00001000
00000100
00000001
00001000
00000000
00001100
00000000
,
00000000
00000000
00010000
00000100
00010000
00000000
00001000
00010000
,
00000200
00000000
00000000
00000300
,
00010000
00001000
00010000
00001000
,
00000000
00202000
00000000
00303000
00000000
00202000
00000000
00303000
,
00010000
00010100
00000100
00010100
,
00010000
00000000
00000000
00000000
00010100
00000000
00000000
00000000
00000000
00000000
00010100
00000000
00010000
00001000
00010000
00001000
,
01000000
00001000
00010000
00000100
00010000
00001000
00100000
00010000
,
00000000
01000000
00002000
00003000
00000000
01000000
00002000
00003000
,
00100000
00000000
00001000
00000000
00011000
00000000
00010000
00000100
,
00000000
00000000
00001000
00000000
00000000
00001000
00000000
00000000
00000001
00000000
00000000
00000001
00000000
00000000
00000001
00000000
,
00000100
00001010
00001000
00010100
,
00010000
00011000
00001000
01001000
,
01000000
10000000
01000000
00000000
01000000
00010000
01000000
00000000
,
01000000
10000000
01000000
00010000
01000000
10000000
01000000
00010000
,
10000000
10010000
00010000
00110000
,
00100000
00101000
00001000
00010100
,
00000100
00001000
00000100
00000000
00000100
00000001
00000100
00000000
,
00002000
00000000
00000000
00003000
,
00000100
00000000
00010000
00001000
00000000
01000000
00000000
00100000
,
00000000
10000000
00000000
00010000
10000000
00000000
01000000
00200000
,
00301000
00000000
00011000
00000000
00011000
00010000
00000100
00001000
,
00000010
00001000
00000100
00000000
00000010
00000001
00000100
00000020
,
00001030
00000000
00001100
00000000
00000100
00010000
00011000
00000000
,
00001000
00000000
00100000
00000000
00110000
00010000
01000000
00000000
,
10100000
00000000
00010000
00000000
01000000
00001000
00010000
00000000
,
00021000
00000000
00000000
00000000
00000000
00000000
00000000
00000000
00001000
00000000
00000000
00000000
00031000
00000000
00001000
00010000
,
00001000
00110000
00001000
00110000
,
00010000
00001010
00010000
00001010
,
00000100
00010000
00000100
00000000
00010000
00001000
00010000
00000000
,
00001000
01000000
00010000
00100000
00001000
00010000
00000010
00010000
,
00001000
01010000
00001000
01010000
,
00010000
00001100
00010000
00001100
,
00010000
00000010
00000100
00000000
00000010
00001000
00000100
00000000
,
00000010
00000001
00000010
00000100
00001000
00000100
00010000
00001000
,
00020000
00000000
00000000
00030000
;
