#TITLE:SOLAR ECLIPSE;
#SUBTITLE:;
#ARTIST:Yuta Imai Vs. BEMANI Sound Team "Yvya";
#TITLETRANSLIT:;
#SUBTITLETRANSLIT:;
#ARTISTTRANSLIT:;
#GENRE:;
#CREDIT:;
#BANNER:SOLAR ECLIPSE.png;
#BACKGROUND:SOLAR ECLIPSE-bg.png;
#LYRICSPATH:;
#CDTITLE:;
#MUSIC:SOLAR ECLIPSE.ogg;
#OFFSET:1.078000;
#SAMPLESTART:77.691002;
#SAMPLELENGTH:19.378000;
#SELECTABLE:YES;
#BPMS:0.000000=195.000000
,192.000000=97.500000
,208.000000=195.000000
,368.000000=97.500000
;
#STOPS:
;
#BGCHANGES:0.000=SOLAR ECLIPSE.mp4=1.000=1=0=1===CrossFade==,
371.500=SOLAR ECLIPSE-bg.png=1.000=1=0=1===CrossFade==,
99999=-nosongbg-=1.000=0=0=0 // don't automatically add -songbackground-
;
#KEYSOUNDS:;
#ATTACKS:;

//---------------dance-double - ----------------
#NOTES:
     dance-double:
     :
     Challenge:
     17:
     0.804446,1.265453,0.322487,0.405176,0.574689,681.000000,642.000000,39.000000,49.000000,0.000000,0.000000,0.804446,1.265453,0.322487,0.405176,0.574689,681.000000,642.000000,39.000000,49.000000,0.000000,0.000000:
00000000
00000000
00000000
00000000
,
00000000
00000000
00000000
00000000
,
00000000
00000000
00000000
00000000
,
00000000
00000000
00000000
00000000
,
00000000
00000000
00000000
00000000
,
00000000
00000000
00000000
00000000
,
00010000
00000100
00000000
00001000
00000010
00000000
00000100
00000001
,
00000000
00000010
00000100
00000000
00000010
00000001
00000100
00000010
,
00001000
00000100
00000000
00010000
00001000
00000000
00100000
00010000
,
10000000
01000000
00100000
00000000
01000000
10000000
00100000
00000000
,
01000000
10000000
01000000
00010000
00100000
00001000
00010000
00000100
,
00001000
00000010
00000100
00000001
00001001
00000000
00000001
00000001
,
00000010
00000001
00000100
00001000
00000100
00000010
00001000
00000100
,
00010000
00001000
00010000
00001000
01000000
00001000
01000000
00100000
01000000
00100000
10000000
00100000
10000000
00010000
10000000
00010000
,
00100000
01000000
10000000
00100000
01000000
00010000
00100000
00001000
,
00010000
00000010
00000100
00000001
00000010
00000100
00001000
00000100
,
00010000
00001000
00010000
00001000
01000000
00001000
00010000
00001000
00010000
00000100
00010000
00000100
00001000
00000010
00000100
00000001
,
00000100
00001000
00010000
00100000
02000000
00000000
00000000
00000000
,
03000000
00000000
00000000
00000000
,
00000000
00000000
00000000
00011000
,
02000100
03001000
00100000
00010000
,
10000000
01000000
00100000
00001000
,
00010000
00000100
00001000
00000010
00000100
00000000
00000000
00000000
00000010
00000000
00000000
00000000
00000100
00000000
00000000
00000000
,
00000001
00001000
00000001
00000000
00000011
00000000
00000000
00000000
00001100
00000000
00000000
00000000
00000011
00000000
00000000
00000000
,
00000000
00001001
00000010
00001000
,
00000100
00010000
00000000
00001000
00010000
00000000
00001000
00000000
01000000
00000000
00000000
00000000
00010000
00000000
00000000
00000000
,
00100000
00110000
00001010
00110000
,
00001010
00000000
00000000
00000000
00011000
00000000
00000000
00000000
00010000
00001000
00010000
00001000
00010000
00000000
00000000
00000000
,
01001000
00000000
01100000
00000000
,
10010000
00000000
00000000
00000000
00000000
00000000
00000000
00000000
00110000
00000000
00000000
00000000
00100000
00010000
01000000
00010000
,
10000000
01000000
10000000
00000000
00010000
01000000
00010000
00000000
00100000
00010000
00100000
00000000
01000000
10000000
01000000
00000000
,
00200000
00320000
00032000
00003020
00000000
00000000
00010030
00000000
,
00011000
00000000
00000000
00000000
00001000
01000000
00001000
00000000
00010000
00000010
00001000
00000100
00000000
00010000
00000000
00001000
,
01000000
00010000
00100000
00000000
00010000
00000000
10000000
01000000
00000000
10000000
00100000
00000000
02010000
00000000
00010000
00000000
,
03100000
10000000
00010000
00100000
00010000
00100000
00000000
01000000
10000000
00000000
01000000
00100000
00000000
01000000
00001000
00000000
,
00010000
00000100
00000000
00000100
00001000
00000000
00000001
00000000
00002000
00000000
00000100
00000000
00003001
00000000
00000000
00000000
,
00001000
00000000
00000000
00000000
00010000
00000000
00000000
00000000
00100000
00000000
00000000
00000000
01000000
00000000
00000000
00000000
00000000
00000000
00010000
00000000
00000000
00000000
00000000
00000000
00100000
00000000
00000000
01000000
00000000
00000000
00100000
00000000
00000000
00001000
00000000
00000000
00000000
00000000
00000000
00010000
00000000
00000000
00000000
00000000
00000000
00000100
00000000
00000000
,
00001000
00000001
00001000
00000000
00000010
00000000
00000100
00000001
00000000
00000010
00000100
00000000
00020000
00000000
00000000
00000000
,
00030100
00001000
00000100
00000000
00001000
00000000
00000010
00000100
00000000
00000001
00000010
00000000
00000100
00000000
00010000
00000000
,
00002000
00000000
01003000
00010000
00100000
00001000
00020000
00000000
,
00030100
00001000
00000010
00000100
00000001
00000000
00000010
00000000
00000100
00000000
00000000
00000000
00001000
00000000
00000100
00000000
,
00000000
00000000
00010000
00000000
00000000
00000000
00001000
00000000
00011000
00000000
00000000
00000000
00001000
01000000
00010000
00100000
,
00001000
00000000
00000000
00000000
00010000
00001000
01000000
00000000
00100000
00000000
10000000
00000000
00010000
00100000
01000000
00100000
,
00010000
01000000
00001000
00010000
00000100
00000000
00001000
00000100
,
00000010
00000000
00000001
00000000
00000100
00000000
00001000
00000000
00010000
00000000
00100000
00000000
00010000
00000000
00000000
00000000
00000000
00000000
10000000
00000000
00000000
01000000
00000000
00000000
,
00010000
01000000
00100000
00001000
00010000
00000000
00001000
00010000
,
00000100
00001000
00000100
00001000
00000010
00001000
00000010
00001000
00000010
00000100
00000010
00000100
00000001
00000100
00000001
00000100
,
00000001
00000100
00000010
00001000
00000100
00010000
00001000
01000000
00001000
00010000
00100000
01000000
10000000
01000000
00100000
00001000
,
00020000
00000000
00000000
00000000
,
00030100
00000000
00000100
00001000
00000010
00000100
00000001
00000000
00000010
00000000
00000010
00000100
00001000
00000000
00000100
00000000
,
00020100
00000000
00000000
00000000
00001000
00000000
00000000
00000100
00000000
00000000
00001000
00000000
00030100
00000000
00000000
00000000
,
00102000
00000000
00000000
00000000
00000000
00000000
00000000
00000000
00010000
00000000
00000000
00000000
00000000
00000000
00100000
00000000
00000000
00000000
00010000
00000000
00003000
00000000
00100000
00010000
02000000
00000000
00000000
00000000
00000000
00000000
00000000
00000000
,
03100000
10000000
01000000
00100000
00010000
00000000
00100000
00001000
00010000
00000010
00000100
00000000
00000000
00000000
00000000
00000000
,
00000010
00000100
00000001
00001000
00000100
00000000
00001000
00000100
00010000
00001000
01000000
00000000
00000000
00000000
00000000
00000000
,
00100000
01000000
00010000
00100000
00001000
00000000
00010000
00000100
00001000
00000010
00001000
00000000
00000000
00000000
00000000
00000000
,
00000001
00000100
00001000
00010000
00100000
01000000
10000000
00000000
,
00010000
01000000
00010000
01000000
00010000
00100000
00010000
00100000
,
00001000
00100000
00001000
00100000
00001000
00010000
00001000
00010000
,
00000100
00001000
00000100
00000000
00001000
00000010
00001000
00000000
00000001
00000100
00000001
00000000
00000010
00000001
00000010
00000000
,
00000002
00000203
00002300
00023000
00000000
00000000
00031000
00000000
,
00210000
00000000
01300000
00100000
00010000
00001000
00000020
00000000
,
00000130
00000000
00001000
00000010
00000002
00000000
00000023
00000000
,
00000130
00000000
00000101
00000000
00001001
00001000
00000100
00000001
,
00000100
00001000
00000100
00010000
00011000
00110000
00011000
00000000
,
02001000
00000000
00000000
00000000
03100000
00000000
00010000
00000000
00100000
00000000
10000000
00000000
01000000
00000000
00000000
00010000
,
01000000
00100000
00001000
00010000
00000020
00000000
00000130
00001000
,
00020000
00000000
00032000
00000000
01003000
00010000
00200000
00000000
,
10300000
01000000
00100000
00000000
01000000
10000000
00000000
00100000
10000000
00010000
10000000
00010000
10000000
00010000
00100000
00000000
,
11000000
00000000
00110000
00000000
10010000
00000000
10000000
00010000
01000000
00000000
00001000
00000000
00020000
00000000
00000000
00000000
,
00030200
00000000
00000310
00000001
00000200
00000000
00020300
00000000
,
00032000
00000000
02003000
00000000
03100000
00010000
00100000
10000000
,
01000000
00100000
00010000
00001000
00000100
00000010
00000001
00000000
,
00001001
00000000
00000001
00000100
00001000
00010000
00001000
00000000
,
00010200
00002300
00003020
00000000
,
00000130
00000000
00000001
00000000
00000010
00000000
00000100
00000000
00001000
00000100
00010000
00001000
01000000
00001000
00010000
00100000
,
02000000
00000000
03000000
00011000
,
00010000
00001000
00100000
00001000
00010000
00000010
00000200
00000000
,
00000000
00000000
00001300
00000100
00000001
00001000
00000100
00010000
,
00001000
00100000
00001000
00010000
00000010
00010000
00002000
00000000
,
00000000
00000000
00013000
01000000
00100000
00010000
00200000
01000000
,
01300000
00000000
00010000
00100000
00010000
00100000
00010000
00000000
10000000
01000000
10000000
01000000
10000000
00000000
00010000
00000000
,
02000000
03010000
00110000
00001010
,
00000001
00000000
00000001
00000000
00001000
00000000
00001000
00000000
00000010
00000100
00000010
00000100
00000001
00001000
00000010
00001000
,
00000100
00000000
00001000
00000100
00000000
00010000
00001000
00000000
01000000
00010000
00000000
00100000
01000000
00000000
00100000
00000000
,
00002000
00000000
01003000
00000000
00020000
00000000
00130000
00000000
00002000
00000000
00013000
00000000
00000100
00000010
00000001
00001000
,
00000010
00000000
00000001
00000100
00001000
00000100
00000010
00010000
,
00001000
01000000
00100000
00010000
00100000
10000000
02000000
00000000
,
00000000
00000000
03100000
00010000
00001000
00000100
00020000
00000000
,
00030100
00000000
00001000
00000010
00000100
00000001
00001000
00000000
00000100
00010000
00001000
00100000
00001000
00000000
00010000
00001000
,
01000000
00000000
00100000
00010000
00100000
10000000
01000000
00000000
,
10010000
00000000
00110000
00000000
00100000
00010000
00001000
00000000
,
00022000
00000000
00000000
00000000
,
00030000
00000000
00000000
00003000
;

//---------------dance-single - ----------------
#NOTES:
     dance-single:
     :
     Beginner:
     6:
     0.232711,0.380370,0.074420,0.074420,0.000000,197.000000,188.000000,9.000000,9.000000,0.000000,0.000000,0.232711,0.380370,0.074420,0.074420,0.000000,197.000000,188.000000,9.000000,9.000000,0.000000,0.000000:
// measure 0
0000
0000
0000
0000
,  // measure 1
0000
0000
0000
0000
,  // measure 2
0000
0000
0000
0000
,  // measure 3
0000
0000
0000
0000
,  // measure 4
0000
0000
0000
0000
,  // measure 5
0000
0000
0000
0000
,  // measure 6
0001
0000
0000
0001
0000
0000
0001
0000
,  // measure 7
0000
0001
0000
0000
0001
0000
0001
0000
,  // measure 8
1000
0000
0000
1000
0000
0000
1000
0000
,  // measure 9
0000
1000
0000
0000
1000
0000
1000
0000
,  // measure 10
0010
0000
0100
0000
,  // measure 11
0001
0000
1000
0000
,  // measure 12
0001
0000
0010
0000
,  // measure 13
0100
0100
0100
0000
,  // measure 14
0010
0000
0001
0000
,  // measure 15
1000
0000
0100
0000
,  // measure 16
1000
0000
0010
0000
,  // measure 17
0200
0000
0000
0000
,  // measure 18
0300
0000
0000
0000
,  // measure 19
0000
0000
0000
0010
,  // measure 20
1001
1001
0000
0000
,  // measure 21
0001
0000
0001
0000
,  // measure 22
0000
1000
0000
0000
,  // measure 23
1000
0000
1000
0000
,  // measure 24
0000
0010
0010
0010
,  // measure 25
0100
0000
0100
0000
,  // measure 26
0010
0000
1000
1000
,  // measure 27
0001
0001
1000
0000
,  // measure 28
0010
0000
0010
0000
,  // measure 29
0100
0000
0100
0000
,  // measure 30
0001
0000
0001
0000
,  // measure 31
2000
0000
0000
0000
0000
3000
0000
0000
,  // measure 32
0001
0000
0100
0000
,  // measure 33
0010
0000
1000
0000
,  // measure 34
0100
0000
1000
0000
,  // measure 35
0001
0000
0100
0100
,  // measure 36
0010
1001
1000
0000
,  // measure 37
0001
0000
0010
0000
,  // measure 38
0100
0000
1000
0000
,  // measure 39
0001
0000
0000
0000
,  // measure 40
0100
0000
0000
0010
,  // measure 41
0000
0000
1000
0000
,  // measure 42
0001
0000
0000
0010
,  // measure 43
0000
0000
0100
0000
,  // measure 44
2000
0000
3000
0000
,  // measure 45
0001
0000
1000
0000
,  // measure 46
0010
0000
0100
0000
,  // measure 47
0001
0000
1000
0000
,  // measure 48
1001
0000
0000
0000
,  // measure 49
0000
0000
0000
0000
,  // measure 50
0002
0000
0000
0003
,  // measure 51
2000
0000
3002
0000
,  // measure 52
0103
0000
0000
0100
0000
0000
0000
0000
,  // measure 53
0010
0000
0000
0010
0000
0000
0000
0000
,  // measure 54
1000
0000
0000
1000
0000
0000
0000
0000
,  // measure 55
0001
0001
1000
1000
,  // measure 56
0010
0000
0100
0000
,  // measure 57
0001
0000
1000
0000
,  // measure 58
0010
0000
0100
0000
,  // measure 59
0002
0000
0000
0000
0000
0003
0000
0000
,  // measure 60
1001
0000
0001
0000
,  // measure 61
1000
0100
1000
0000
,  // measure 62
0010
0000
0100
0000
,  // measure 63
0001
0010
0001
0001
,  // measure 64
1000
0000
0001
0000
,  // measure 65
0100
0010
0100
0000
,  // measure 66
0001
0000
1000
0000
,  // measure 67
0100
1000
0100
1000
,  // measure 68
0001
0000
0100
0000
,  // measure 69
0010
0100
0001
0000
,  // measure 70
0100
0000
0010
0000
,  // measure 71
1000
0001
0010
0001
,  // measure 72
1000
0000
0100
0000
,  // measure 73
0010
0000
0100
0000
,  // measure 74
0110
0000
1001
0000
,  // measure 75
0110
0000
0000
0000
,  // measure 76
0001
0000
1000
0000
,  // measure 77
0100
0000
1000
0000
,  // measure 78
0010
0000
0100
0000
,  // measure 79
0001
0000
0010
0000
,  // measure 80
0100
0000
0000
0100
0000
0000
0100
0000
,  // measure 81
1000
0000
0001
1000
,  // measure 82
0010
0000
0000
0100
,  // measure 83
0100
0000
0010
0000
,  // measure 84
1000
1000
1000
1000
,  // measure 85
0001
0000
1000
0000
,  // measure 86
0100
0100
0100
0100
,  // measure 87
0000
0010
0010
0010
,  // measure 88
0100
0000
0000
1000
0000
0000
0010
0000
,  // measure 89
0100
0001
1000
0100
,  // measure 90
0010
0100
1000
0001
,  // measure 91
0220
0000
0000
0000
,  // measure 92
0330
0000
0000
0000
;

//---------------dance-single - ----------------
#NOTES:
     dance-single:
     :
     Easy:
     9:
     0.386276,0.494481,0.272874,0.206723,0.000000,327.000000,294.000000,33.000000,25.000000,0.000000,0.000000,0.386276,0.494481,0.272874,0.206723,0.000000,327.000000,294.000000,33.000000,25.000000,0.000000,0.000000:
0000
0000
0000
0000
,
0000
0000
0000
0000
,
0000
0000
0000
0000
,
0000
0000
0000
0000
,
0000
0000
0000
0000
,
0000
0000
0000
0000
,
0001
0000
0000
1000
0000
0000
0010
0000
,
0000
1000
0000
0000
0100
0000
1000
0000
,
0001
0000
0000
1000
0000
0000
0010
0000
,
0000
0100
0000
0000
0001
0000
1000
0000
,
0001
0001
1000
1000
,
0010
0100
0101
0001
,
0100
0100
0010
0010
,
1000
0100
0110
0010
,
0001
0001
1000
1000
,
0010
0010
0100
0100
,
0001
0100
0010
1000
,
0001
0010
0100
1000
0002
0000
0000
0000
,
0003
0000
0000
0000
,
0000
0000
0000
0000
,
0100
1001
0001
1001
,
1000
1001
0001
1001
,
0000
0110
0100
0110
,
0010
0110
0100
0000
,
0000
0101
0100
0110
,
0010
1010
1000
0000
,
0001
1100
0021
0130
,
0021
0130
2100
3001
,
1000
0000
1000
0000
,
1000
0000
1000
0000
,
1000
1000
1000
1000
,
0002
0203
0320
2000
3030
0000
0000
0000
,
0001
1000
0010
1000
,
0100
0010
0100
2100
,
3001
0100
0001
0010
,
0100
0000
0010
0000
0001
1000
0001
0000
,
0000
0101
0001
0010
,
0001
1000
0100
0120
,
0130
1000
0010
0100
,
0001
0100
1000
0100
,
0001
1000
0100
0010
,
0100
0100
0100
0010
,
0001
0100
0010
1000
,
0001
0001
0001
1000
,
0020
0000
0130
0001
,
0010
0001
1000
0001
,
1000
0100
0010
0001
,
0010
0100
0010
0001
,
2000
0000
0000
0000
,
3000
0000
0000
0000
,
0002
0000
0000
0003
,
2000
0000
0000
3000
,
1001
0000
0000
0101
0000
0000
0000
0000
,
1001
0000
0000
1100
0000
0000
0000
0000
,
1001
0000
0000
1010
0000
0000
0000
0000
,
1001
0000
1001
0000
0001
1000
0001
0000
,
1000
1000
0100
0100
,
0010
0010
0001
0001
,
1000
0100
0010
0001
,
0001
0010
0100
1000
0000
0000
0000
0000
,
0001
1000
0010
1000
,
0001
0010
0100
0010
,
0001
0001
1000
1000
,
0001
0000
0100
0000
0010
1000
0010
0000
,
1000
0001
0010
0001
,
1000
0100
0010
0100
,
1000
0001
0010
0100
,
1000
0100
0010
0001
,
0100
0001
1000
0100
,
1000
0001
0100
0001
,
0010
0010
0100
0100
,
0010
0000
0001
0000
1000
0001
1000
0000
,
0001
0010
0001
0100
,
0010
1000
0002
0000
,
0013
0000
0100
0000
1000
0100
0010
0000
,
0022
0000
0000
0033
,
0001
0100
0001
2000
,
0000
3001
0010
0001
,
1000
0010
1000
0200
,
0000
0310
0100
1000
,
0001
0000
0000
1000
0000
0000
0020
0000
,
0000
1030
0100
1000
,
0002
0000
0000
0103
,
0001
0010
0100
1000
,
1001
1001
1001
1002
,
0000
1003
0010
1000
,
0001
0010
0100
0020
,
0000
0031
0010
0001
,
0100
0000
0000
0001
0000
0000
1000
0000
,
0100
1000
0010
0100
,
0001
0000
1000
0000
0100
0010
0001
0000
,
2002
0000
0000
0000
,
3003
0000
0000
0000
;

//---------------dance-single - ----------------
#NOTES:
     dance-single:
     :
     Medium:
     13:
     0.601268,0.798776,0.239798,0.628437,0.124034,509.000000,480.000000,29.000000,76.000000,0.000000,0.000000,0.601268,0.798776,0.239798,0.628437,0.124034,509.000000,480.000000,29.000000,76.000000,0.000000,0.000000:
0000
0000
0000
0000
,
0000
0000
0000
0000
,
0000
0000
0000
0000
,
0000
0000
0000
0000
,
0000
0000
0000
0000
,
0000
0000
0000
0000
,
0001
0100
0000
0010
1000
0000
0001
0100
,
0000
0010
1000
0000
0001
1000
0100
0010
,
0001
0010
0000
0100
1000
0000
0001
0010
,
0000
0100
1000
0000
0001
0010
0100
1000
,
0001
1000
0010
0100
,
1000
0100
0001
1000
0100
0000
0010
0100
,
1000
0100
0001
0100
,
0010
1000
0010
0001
1000
0000
1001
0000
,
0001
0010
0100
1000
,
0100
1000
0001
1000
0100
0000
0010
0100
,
1000
0010
0100
0001
,
2000
3200
0320
0032
2000
0000
0000
0000
,
3003
0000
0000
0000
,
0000
0000
0000
0000
,
0010
1001
0101
1001
,
1100
1001
1010
1001
,
0002
0103
1010
1100
,
0001
0100
0001
0000
1001
0000
0000
0000
1100
0000
0000
0000
0200
0000
0000
0000
,
0310
1100
0110
0011
,
0001
0100
0000
0010
1000
0000
0000
0000
1001
0000
0000
0000
2000
0000
0000
0000
,
3010
0101
0021
0130
,
0210
0000
0000
0000
1300
0000
0000
0000
0001
1000
0001
1000
0001
0000
0000
0000
,
1000
0000
1000
0000
,
1000
0000
1000
0000
,
1000
1000
1000
1000
,
0002
0203
0320
2000
0000
0000
3030
0000
,
0002
0000
0013
0000
0100
1000
0001
0000
,
1000
0000
0010
0000
1000
0001
0020
0000
,
0130
0000
0010
0000
0001
0100
0010
0000
,
1000
0000
0001
0000
1200
1000
1300
0000
,
1000
0000
0100
0000
1000
0000
0001
0000
0000
0000
0000
0000
1000
0000
0000
0001
0000
0000
0010
0000
0000
0000
0000
0000
,
0001
0000
0100
0000
0010
1000
0002
0000
,
0013
0000
0100
0000
0010
0001
1000
0000
,
0002
0000
1003
0100
0010
0100
2000
0000
,
3001
0100
0010
1000
0001
0010
0100
0010
,
0001
0100
0010
1000
0001
0000
1000
0100
,
0010
0100
1000
0001
0010
0100
0010
0001
,
0100
0010
1000
0001
0010
0000
0001
0100
,
0010
0000
0100
0000
0010
0000
0100
0000
0010
0000
0100
0000
0010
0000
0000
0100
0000
0000
0001
0000
0000
1000
0000
0000
,
0100
0010
0100
1000
0001
0000
1000
0000
,
0001
0001
0100
0100
0010
0010
1000
1000
,
0001
0010
1000
0010
0001
0100
1000
0100
,
0002
0000
0000
0000
,
1003
0000
1000
0100
0010
0001
0010
0000
0100
0000
0100
0010
0001
0000
1000
0000
,
0002
0100
0000
0100
,
2003
0100
0000
3002
,
1003
0001
1000
0000
0000
0000
0001
1000
0001
0000
0000
0000
0000
0000
0000
0000
,
1000
0010
1000
0000
0000
0000
0001
0100
0001
0000
0000
0000
0000
0000
0000
0000
,
0010
0001
0010
0000
0000
0000
0100
1000
0100
0000
0000
0000
0000
0000
0000
0000
,
1000
0010
1000
0000
0001
0100
0001
0000
1000
0000
0001
0000
0110
0000
0000
0000
,
1000
0100
1000
0100
0010
0001
0010
0001
,
1000
0100
0010
0001
1000
0100
0010
0001
,
1000
0010
0100
1000
0100
0001
1000
0100
,
0020
0230
2300
0002
0000
0000
3003
0000
,
2001
0000
3001
0100
1000
0100
0002
0000
,
2003
0000
3100
0010
0002
0000
0023
0000
,
0230
0000
0302
0000
0103
1000
0010
0001
,
0010
0100
0010
1000
0001
1000
0100
0000
,
0020
0000
0130
0010
0001
0100
0002
0000
,
1003
0100
0010
0001
2000
0000
3001
1000
,
0020
0000
0230
0000
0310
0100
0002
0000
,
2003
3020
0230
0302
,
2003
0000
3100
0010
0100
1000
0002
0000
,
2003
0000
3001
0010
0200
0000
0320
0000
,
0032
0000
0023
0000
1030
0010
0001
0100
,
1000
0100
0001
1000
0100
0001
0100
0000
,
2000
0000
3100
0010
0100
1000
0002
0000
,
2003
0000
3020
0000
0230
0000
0000
1300
,
0200
0000
0302
0000
0013
0100
1000
0000
,
0220
0000
0000
0330
,
0001
0100
0010
1000
0001
0010
0200
0000
,
0000
0000
0310
0001
0100
0001
1000
0100
,
0010
0100
1000
0010
0100
0001
1000
2000
,
0000
0000
3001
0010
0001
1000
0002
0000
,
0103
0000
0001
1000
0001
0000
0010
0000
0100
1000
0100
0000
1000
0000
0010
0000
,
0200
0302
0023
2030
,
3020
0001
0001
0000
0100
0000
0032
0000
,
1003
0010
0001
0010
0100
0001
1000
0000
,
1001
0110
1001
0110
,
0002
0000
1003
1000
0100
0010
0100
0010
,
0001
0010
0100
0010
0001
1000
0020
0000
,
0000
0000
0130
1000
0100
0001
2000
0000
,
3100
0000
0010
0001
0010
0001
0010
0000
0001
0100
0001
0100
0001
0000
1000
0000
,
0100
0000
0000
0000
0010
0100
0010
0100
1000
0000
0000
0000
0020
0000
0000
0000
,
0130
0000
1001
0000
1000
0100
0010
0000
,
2200
0000
0000
0000
,
3300
0000
0000
0000
;

//---------------dance-single - ----------------
#NOTES:
     dance-single:
     :
     Hard:
     17:
     0.838703,1.268863,0.289412,0.570554,0.644975,710.000000,675.000000,35.000000,69.000000,0.000000,0.000000,0.838703,1.268863,0.289412,0.570554,0.644975,710.000000,675.000000,35.000000,69.000000,0.000000,0.000000:
0000
0000
0000
0000
,
0000
0000
0000
0000
,
0000
0000
0000
0000
,
0000
0000
0000
0000
,
0000
0000
0000
0000
,
0000
0000
0000
0000
,
0001
0001
0000
0100
0100
0000
0010
0010
,
1000
0100
0001
0000
0001
0100
1000
0001
,
0100
0100
0000
0010
0010
0000
1000
1000
,
0001
0001
0001
0100
0010
1000
0100
0010
,
0001
1000
0010
0001
0100
1000
0100
0010
,
0001
0010
1000
0001
1001
0000
0001
0001
,
1000
0100
0001
0100
0010
1000
0010
0100
,
0001
0010
0001
1000
0010
1000
0001
1000
0001
1000
0100
0010
0001
0000
0001
0000
,
1000
0100
0001
0100
0010
1000
0010
0001
,
0100
1000
0100
0010
1000
0001
0010
0100
,
1000
0100
1000
0100
0010
0001
0010
0001
0100
0001
0100
0001
1000
0010
1000
0010
,
0200
2300
3200
0302
2000
0000
0000
0000
,
3003
0000
0000
0000
,
0000
0000
0000
0000
,
0001
0201
0010
0001
,
0010
0001
0010
0301
,
0001
0010
0000
0100
2000
0000
0000
0000
0100
0000
0000
0000
0010
0000
0000
0000
,
3001
0100
0001
0000
1200
0000
0000
0000
0010
0000
0000
0000
1300
0000
0000
0000
,
0001
1000
0001
0000
0021
0000
0000
0000
0100
0000
0000
0000
0001
0000
0000
0000
,
0130
1000
0000
0001
0100
0000
0001
0000
2001
0000
0000
0000
3100
0000
0000
0000
,
0120
0000
0000
0000
0031
0000
1000
0010
0200
0000
0000
0000
0301
0000
0000
0000
,
1002
0000
0000
0000
0013
0000
0000
0000
0001
0100
0001
1000
0100
0000
0000
0000
,
0011
0001
1001
1000
,
1010
0000
0010
0000
0110
0000
0010
1000
,
0100
0010
0100
0000
0010
0001
0010
0000
0001
0100
0001
0000
1000
0010
1000
0000
,
0002
0203
0320
2030
0000
0000
3000
0000
,
0002
0000
0000
0000
0013
0100
0000
0000
1000
0001
1000
0001
0000
0010
0000
0001
,
0100
0001
1000
0000
0100
0000
1000
0100
0000
0100
0010
0000
0002
0000
0000
0000
,
0103
0010
1000
0001
1000
0000
0001
0000
0010
0100
1000
0100
0000
1000
0000
0010
,
0100
1000
0100
0001
0020
0000
1000
0000
,
0031
0000
0000
0000
1100
0000
0000
0000
0100
0010
0100
1000
0000
0010
0000
0010
,
1000
0001
0100
0000
0001
0000
1000
0000
0100
1000
0001
0000
0200
0000
0000
0000
,
0310
0000
0100
0000
0010
0000
1000
0000
0001
0010
0001
0010
0001
0010
0001
0010
,
0002
0000
0103
1000
0100
0001
2000
0000
,
3010
0100
0001
0100
0001
0000
1000
0000
1001
0000
0000
0000
1000
0000
1100
0000
,
0000
0000
0011
0000
0000
0000
1000
0000
1001
0000
0000
0000
0001
0010
0001
0010
,
0001
0000
0000
0000
1000
0010
0100
0000
0001
0000
0001
1000
0010
0100
0010
0100
,
0001
0010
0100
1000
1001
0000
0110
0000
,
0001
0100
0010
1000
0001
1000
0100
0000
0000
0020
0000
0000
,
0130
0001
0100
1000
0010
0000
0100
1000
,
0100
0001
1000
0001
0010
0001
1000
0100
0010
0001
0010
0001
0100
0001
1000
0010
,
0100
0001
1000
0001
0010
0100
1000
0001
0100
0010
1000
0100
0010
0001
0010
0100
,
2000
0000
0000
0000
,
3001
0000
0010
0001
0100
0010
1000
0000
0001
0000
0001
0010
0100
0000
0010
0000
,
0002
0100
1003
0000
2000
0100
3001
0000
,
2000
0010
3001
0000
0002
0010
2003
0000
,
3001
0100
0001
0100
0001
0000
0100
0001
0100
0001
0100
0000
0000
0000
0000
0000
,
0010
1000
0010
1000
0010
0000
1000
0010
1000
0010
1000
0000
0000
0000
0000
0000
,
0001
0010
0001
0010
0001
0000
0010
0001
0010
0001
0010
0000
0000
0000
0000
0000
,
0100
1000
0100
1000
0100
0000
1000
0100
1000
0100
1000
0000
1001
0000
0000
0000
,
0001
0100
0010
1000
0001
0010
0100
1000
,
0001
0010
0001
1000
0010
1000
0100
0010
,
0001
0100
0001
1000
0010
1000
0010
0100
0001
0100
0001
1000
0010
1000
0010
0100
,
0002
0203
0320
2030
0000
0000
3001
0000
,
0011
0000
0000
0010
0100
0000
0001
0000
0100
0000
1000
0000
0020
0000
0000
0000
,
0130
0000
0000
0000
1010
0000
0010
0100
0001
0000
1000
0000
0100
0010
0001
1000
,
0020
0000
0000
0000
0230
0000
0000
0000
1300
0000
0100
0000
0001
0000
0010
0100
,
1000
0000
0100
0000
0010
0000
0001
0000
1000
0000
0100
0000
1000
0001
1000
0001
,
0020
0000
1030
0010
0100
1000
0020
0000
,
0130
0000
1000
0000
0100
0000
0001
0000
0020
0000
0000
0000
0130
0000
0010
0001
,
1000
0010
0100
0000
0001
0000
0001
0000
0001
0000
0001
0000
1000
0100
1000
0100
,
0020
0001
0100
0031
,
1100
0000
1100
0000
1100
0000
0000
1000
0010
0000
0100
0000
2000
0000
0000
0000
,
3200
0000
0000
0000
0310
0000
1000
0001
0200
0000
0000
0000
0302
0000
0000
0000
,
0023
0000
2030
0000
3010
0100
1000
0010
,
0110
0000
0000
0000
0000
0000
0000
0000
0000
0101
0000
0000
0000
0000
0000
0000
0000
0000
0011
0000
0000
0000
0000
0000
0001
0000
0000
0010
0000
0000
0100
0000
0000
1000
0000
0000
0001
0000
0000
0000
1000
0000
0000
0000
0010
0000
0000
0000
,
0100
0000
0001
0100
0001
0100
0020
0000
,
0230
0000
0000
0000
2300
0000
0000
0000
3200
0000
0000
0000
0000
0000
0000
0310
,
1000
0000
0100
0010
0001
0000
0010
0100
1000
0000
0000
1100
0000
0000
0011
0000
,
2002
0000
0000
3003
,
1001
0001
0020
0001
0031
1000
0020
0100
,
0130
0000
0010
1000
0100
0010
0100
1000
,
0002
0010
0013
0100
0200
1000
1300
0020
,
0100
0000
0130
0010
1000
0001
1001
1001
,
0001
0000
0100
0001
0100
0000
0001
0000
1000
0100
1000
0000
0100
0010
0100
0010
,
0200
0000
0000
0000
1300
0000
0000
0100
0010
0000
0001
0000
0010
0100
1000
0010
,
0100
0000
0100
0000
0100
0000
0100
0000
0100
0010
0100
0010
0100
0010
0100
0010
,
0100
0000
0010
1000
0100
0000
0010
0001
1000
0000
0010
0000
1001
0000
0000
0000
,
0002
0000
0203
0000
2300
0000
3200
0000
0302
0000
2003
0000
3100
0010
0001
0010
,
0200
0000
1300
1000
0001
0100
0001
0010
,
0100
0001
0100
1000
0010
0100
2000
0000
,
3000
0000
0100
1000
0100
0001
1001
0000
,
1000
0000
0001
0010
0001
0000
1000
0000
0100
0010
0100
0000
0010
0000
0001
1000
,
0001
0000
0000
0000
0100
0010
1000
0001
0010
0100
1000
0001
1000
0000
0000
0000
,
0001
0100
0010
1000
0100
0000
0010
0001
1000
0100
0010
0000
0100
1000
0001
0100
,
0020
0000
0000
0000
,
0200
0000
0000
0030
,
0300
0000
0000
0000
;

//---------------dance-single - ----------------
#NOTES:
     dance-single:
     :
     Challenge:
     18:
     0.975731,1.268863,0.545748,0.818622,0.967462,826.000000,760.000000,66.000000,99.000000,20.000000,0.000000,0.975731,1.268863,0.545748,0.818622,0.967462,826.000000,760.000000,66.000000,99.000000,20.000000,0.000000:
0000
0000
0000
0000
,
0000
0000
0000
0000
,
0000
0000
0000
0000
,
0000
0000
0000
0000
,
0000
0000
0000
0000
,
0000
0000
0000
0000
,
0101
0101
0000
1010
1010
0000
1100
1100
,
0000
0011
0011
0000
0110
0000
1001
0000
,
1010
1010
0000
0101
0101
0000
1001
1001
,
0001
1000
0001
1000
0001
1000
0001
1000
0001
1000
0001
1000
0001
1000
0001
1000
,
0001
0000
0000
0000
0020
0030
0000
0000
0020
0030
0000
0000
1000
0000
0000
0000
0001
0000
0000
0000
0200
0300
0000
0000
0200
0300
0000
0000
1000
0000
0000
0000
,
0200
0300
0000
0000
0200
0300
0000
0000
0001
0000
0000
0000
1000
0000
0000
0000
1001
0000
0000
0000
0000
0000
0000
0000
1000
0000
0000
0000
0001
0000
0000
0000
,
1000
0000
0000
0000
0200
0300
0000
0000
0200
0300
0000
0000
0001
0000
0000
0000
1000
0000
0000
0000
0020
0030
0000
0000
0020
0030
0000
0000
0001
0000
0000
0000
,
1000
0010
1000
0010
0100
0010
0100
0001
0100
0001
0010
0001
1000
0100
0010
0001
,
1000
1000
1000
1000
0001
0001
0001
0001
,
0001
0100
0001
0100
0010
1000
0010
1000
0100
1000
0100
1000
0100
0010
0100
0010
,
0001
0010
0100
0010
0001
0100
0010
1000
0001
0010
0001
0100
0010
1000
0100
1000
,
0002
0023
0230
2300
0002
0000
0000
3003
,
0001
0100
0010
1000
0100
0010
0100
1000
,
0010
1000
0001
0010
0001
1000
MMMM
0000
,
1020
0230
1000
0010
,
0001
0010
1000
0010
,
0301
1000
0100
0010
0002
0000
0000
0000
0010
0000
0000
0000
0100
0000
0000
0000
,
1003
0100
0010
0000
0021
0000
0000
0000
0100
0000
0000
0000
0031
0000
0000
0000
,
1000
0001
0100
0010
2000
0000
0000
0000
0010
0000
0000
0000
0001
0000
0000
0000
,
3100
0010
0000
0100
1000
0000
0001
0000
0201
0000
0000
0000
0010
0000
0000
0000
,
0302
0000
0000
0000
0000
0000
0000
0000
0000
0000
0000
0000
0000
0000
0000
0000
0000
0000
0000
0000
0000
0000
0000
0000
1003
0000
0000
0000
0000
0000
0000
0000
0000
0000
0000
0000
0100
0000
0000
0000
0000
0000
0010
0000
0000
0000
0000
0000
0002
0000
0000
0000
0000
0000
0000
0000
0000
0000
0000
0000
0000
0000
0000
0000
0000
0000
0000
0000
0000
0000
0000
0003
0022
0000
0000
0000
0000
0000
0000
0000
0000
0000
0000
0000
0000
0000
0000
0000
0000
0000
0000
0000
0000
0000
0000
0033
,
0220
0000
0000
0000
0000
0000
0000
0000
0000
0000
0000
0000
0000
0000
0000
0000
0000
0000
0000
0000
0000
0000
0000
0330
0022
0000
0000
0000
0000
0000
0000
0000
0000
0000
0000
0000
0000
0000
0000
0000
0000
0000
0000
0000
0000
0000
0003
0000
0031
0000
0000
0000
0000
0000
1000
0000
0000
0000
0000
0000
0100
0000
0000
0000
0000
0000
1000
0000
0000
0000
0000
0000
0010
0000
0000
0000
0000
0000
0000
0000
0000
0000
0000
0000
0000
0000
0000
0000
0000
0000
0000
0000
0000
0000
0000
0000
,
2010
0000
3001
1000
0110
0000
1000
0001
,
0110
0000
0000
0000
0001
0000
1000
0000
0110
0000
0000
0000
1000
0001
1000
0000
,
0001
0100
0001
0000
1000
0010
1000
0000
0100
0010
0100
0000
0010
0001
0010
0000
,
0002
0000
0000
0000
0000
0000
0020
0000
0003
0000
0000
0000
0200
0000
0000
0030
0000
0000
2000
0000
0000
0000
0000
0000
0000
0000
0000
0000
0000
0000
3300
0000
0000
0000
0000
0000
MMMM
0000
0000
0000
0000
0000
0000
0000
0000
0000
0000
0000
,
0000
0000
0001
1000
0100
0000
0010
0000
0100
1000
0001
0100
0000
0001
0000
0010
,
0100
0010
0001
1000
0001
0000
1000
0100
1000
0001
0000
1000
0002
0000
0010
0000
,
0013
0100
1000
0100
0010
0001
0100
0001
1000
0100
1000
0000
0001
0000
1000
0000
,
0010
0000
0100
0001
0010
0000
0100
0000
2000
0000
3001
0000
1002
0000
0000
0000
,
0103
0000
0000
0000
0100
0000
0000
0000
0010
0000
0000
0000
0100
0000
0000
0000
0000
0000
0001
0000
0000
0010
0000
0000
0100
0000
0000
0010
0000
0000
0001
0000
0000
1000
0000
0000
0001
0000
0000
1000
0000
0000
0000
0000
0000
1000
0000
0000
,
0100
0010
0001
0000
1100
0000
1000
0001
0000
0100
0001
0000
0020
0000
0100
0000
,
0130
1000
0001
0100
0001
1000
0000
0001
0010
0100
1000
0001
1000
0000
0000
0000
,
0002
0000
0103
1000
0100
0010
2000
0000
,
3100
0010
0001
1000
0001
0000
0100
0000
0001
0000
1000
0000
1100
0000
1100
0000
,
1000
0000
1001
0000
0001
0000
0101
0000
0101
0000
0000
0000
0001
0100
0001
1000
,
0100
0000
0110
0000
0010
0100
1000
0001
0100
0000
0001
0100
0010
0100
0010
0100
,
0001
0010
1000
0010
0021
0000
0100
0000
,
0031
0001
0001
1000
1000
1000
0010
0000
0000
0200
0000
0000
,
0301
1000
0010
1000
0001
0000
1000
0000
,
0001
0010
0001
0100
0010
1000
0010
0100
0001
0010
0100
1000
0100
1000
0010
0100
,
0001
0010
0001
0100
0010
1000
0001
0010
0100
1000
0100
0010
0100
1000
0100
0010
,
0002
0010
0010
0000
0100
0100
0000
1000
1000
0000
0100
0103
0001
0100
1000
0100
,
0020
0000
0230
2300
3200
0302
0203
0000
2300
0000
3200
2300
3020
0000
0230
0000
,
0302
0000
0000
0000
1000
0000
0000
0100
0000
0000
0100
0000
1003
0000
0000
0000
,
2001
0000
0000
0000
0000
0000
0000
0000
0010
0000
0000
0000
0000
0000
0001
0000
0000
0000
0001
0000
0000
0000
3001
1000
2002
0000
0000
0000
0000
0000
0003
0000
,
3010
0001
0010
1000
0001
0000
1000
0100
0001
0100
1000
0000
0000
0000
0000
0000
,
0001
0010
0100
0010
1000
0000
0010
0001
1000
0001
0100
0000
0000
0000
0000
0000
,
0001
0100
0010
0001
0010
0000
0100
1000
0100
0001
1000
0000
0000
0000
0000
0000
,
0001
0010
0001
0000
1000
0010
1000
0000
1001
0000
0110
0000
1001
0000
0000
0000
,
0001
0001
0100
0100
0010
0010
1000
1000
,
0001
0001
1000
1000
0010
0010
1000
1000
,
0001
0100
0001
0100
0010
0100
0010
0100
0010
1000
0010
1000
0001
1000
0001
1000
,
0200
0000
0020
0300
0002
0030
2000
0000
0000
0000
3003
0000
MMMM
0000
0000
0000
,
1001
0000
0000
0001
0100
0000
0000
0100
0010
0000
1000
0000
0200
0000
0000
0000
,
0320
0000
0000
0000
0031
0000
0000
0010
0100
0000
1000
0000
0100
0010
0100
1000
,
0002
0000
0000
0000
2003
0000
0000
0000
3200
0000
0010
0000
0320
0000
0130
1000
,
0001
0000
0100
0000
1000
0000
0100
0010
1000
0000
1001
0000
1000
0001
0010
0001
,
2000
0000
0000
0000
3010
0000
0001
0000
0010
0000
0100
0000
0002
0000
0013
0100
,
1000
0000
0100
0000
0010
0000
0001
0000
2000
0000
0000
0000
3001
0000
1000
0100
,
0010
0100
1000
0000
1001
0000
1001
0000
0101
0000
1010
0000
0001
0100
0010
1000
,
0001
0010
0001
0010
0001
0010
0001
0010
0001
0010
0001
0010
0001
0010
0001
0010
,
0001
0000
0011
0000
1100
0000
1000
0100
0010
0000
0001
0000
2001
0000
0000
0000
,
3020
0000
0000
0000
0031
0000
0010
0000
0100
0000
0001
0000
1000
0000
0100
0010
,
0002
0000
0023
0000
1030
0010
0100
1000
,
1002
0000
0000
1003
0000
0000
0002
0000
0000
1003
0000
0000
2001
0000
0000
3010
0000
0000
1000
0000
0100
0000
0010
0000
,
0002
0000
0000
0000
0013
0000
1000
0000
0010
0000
0001
0000
0200
0000
0000
0300
,
2020
0000
0000
3000
0200
0000
0300
0000
2000
0000
0000
0000
0030
0000
3001
0100
,
0001
0000
0011
0000
0010
0100
1000
0001
1000
0000
0000
0110
0000
0000
1001
0000
,
2002
0000
0000
0000
0000
3003
MMMM
0000
,
0011
0010
1000
0010
0001
1000
0020
0000
,
0100
0000
0000
0000
1030
0000
0100
0000
0001
0000
0100
0000
1000
0001
0100
0001
,
0010
0000
1000
0000
0010
0000
0001
0000
0010
0000
1000
0000
0010
0000
0100
1000
,
0001
0000
0100
1000
0100
0001
1000
0001
,
1000
0000
0100
1000
0100
1000
0100
0000
0010
0001
0010
0001
0010
0000
0001
0000
,
0200
0000
0000
0000
0001
0000
0000
0310
1000
0000
0100
0000
1000
0001
0100
0001
,
0010
0000
0011
0000
1100
0000
0011
0000
0001
0100
0010
1000
0001
0100
0010
1000
,
0100
0000
0000
0000
1000
0000
0020
0030
0000
0000
0020
0030
0001
0000
1000
0000
0001
0000
0000
0000
1000
0000
0000
0000
MMMM
0000
0000
0000
0000
0000
0000
0000
,
1002
0000
1003
0000
2001
0000
3001
0000
1002
0000
1003
0000
1000
0100
0010
0001
,
1000
0000
0010
0001
0010
0100
0001
1000
,
0100
0000
0001
0000
0100
0000
0010
0000
1000
0000
0010
0000
0001
0010
0000
0100
,
1000
0000
0000
0000
0001
0000
0010
0100
1000
0000
0100
0000
0012
0000
0000
0000
,
1003
0000
0100
0010
0001
1000
0010
0000
0100
0001
0010
0001
1000
0000
0100
0010
,
0002
0000
0000
0000
0103
0010
1000
0010
0100
0001
0010
0100
2000
0000
0000
0000
,
3001
0010
0100
0010
0001
0000
0100
0010
1000
0001
0010
0000
0100
0010
0001
1000
,
0020
0000
0000
0030
,
2002
0000
0000
3000
,
0003
0000
0000
0000
;
