#TITLE:SCREAM SQUAD;
#SUBTITLE:;
#ARTIST:CALF;
#MUSIC:SCREAM SQUAD.ogg;
#BANNER:;
#BACKGROUND:;
#LYRICSPATH:;
#CDTITLE:;
#SAMPLESTART:0.389;
#SAMPLELENGTH:17.477;
#OFFSET:0.702;
#BPMS:0.000000=220.000000;
#STOPS:176.000000=0.136000,
176.500000=0.136000,
177.000000=0.136000,
177.500000=0.136000,
223.000000=0.136000,
224.500000=0.136000,
289.000000=1.909000
;
#TIMESIGNATURES:;
#BGCHANGES:;
#FGCHANGES:;
#ATTACKS:;
#SPEEDS:;
#SCROLLS:;

//---------------dance-single - Pandemonium X---------------
#NOTES:
     dance-single:
     Pandemonium X:
     Beginner:
     6:
     0,0,0,0,0:
// measure 0
0000
0000
0000
0000
,  // measure 1
0000
0000
0000
0000
,  // measure 2
0000
0000
0000
0000
,  // measure 3
0000
0000
0000
0000
,  // measure 4
0000
0000
0000
0000
,  // measure 5
0000
0000
0000
0000
,  // measure 6
0000
0000
0000
0000
,  // measure 7
0000
0000
0000
0000
,  // measure 8
0000
0000
0000
0000
,  // measure 9
0001
0000
0001
0000
,  // measure 10
0001
0000
0000
0000
,  // measure 11
1000
0000
1000
0000
,  // measure 12
1000
0000
0000
0000
,  // measure 13
0001
0000
1000
0000
,  // measure 14
0001
0000
1000
0000
,  // measure 15
0010
0000
0010
0000
,  // measure 16
0100
0000
0100
0000
,  // measure 17
0001
0000
0001
0000
,  // measure 18
0001
0000
0001
1000
,  // measure 19
0010
0000
0000
0000
,  // measure 20
0100
0000
0000
0000
,  // measure 21
0010
0000
0100
0000
,  // measure 22
0001
0000
1000
0000
,  // measure 23
0001
0001
0001
0000
,  // measure 24
1000
1000
1000
0000
,  // measure 25
0001
0100
0010
1000
,  // measure 26
0001
0010
0100
0000
,  // measure 27
1000
0000
0000
0000
,  // measure 28
0001
0000
0000
0000
,  // measure 29
0100
0000
0000
0000
,  // measure 30
0010
0000
0000
0000
,  // measure 31
0100
0000
0001
0000
,  // measure 32
1000
0100
1000
0000
,  // measure 33
0002
0000
0000
0000
,  // measure 34
1003
0000
0000
0000
,  // measure 35
2000
0000
0000
0000
,  // measure 36
3001
0000
0000
0000
,  // measure 37
0200
0000
0000
0000
,  // measure 38
0310
0000
0010
0000
,  // measure 39
0100
0000
0001
0000
,  // measure 40
1000
0001
1000
0000
,  // measure 41
0001
0000
0100
0000
,  // measure 42
0010
0000
1000
0000
,  // measure 43
0001
0000
0100
0000
,  // measure 44
0010
0000
0100
0000
,  // measure 45
0010
0000
1000
0000
,  // measure 46
0001
0000
0100
0000
,  // measure 47
0010
0000
1000
0000
,  // measure 48
0001
0000
0000
1000
,  // measure 49
0000
0001
0000
1000
,  // measure 50
0000
0001
0000
0100
,  // measure 51
0000
0010
0000
0100
,  // measure 52
0000
0010
0000
1000
,  // measure 53
0000
0010
0000
1000
,  // measure 54
0000
0010
0000
0100
,  // measure 55
0000
0000
0001
0000
1000
0000
0000
0001
,  // measure 56
0000
1000
0000
0000
,  // measure 57
0000
0100
0000
0000
,  // measure 58
0000
1000
0000
0000
,  // measure 59
0000
0001
0000
0000
,  // measure 60
0000
0100
0000
0000
,  // measure 61
0000
0010
0000
0000
,  // measure 62
0000
0100
0000
0000
,  // measure 63
0000
0001
0000
0000
,  // measure 64
0000
1000
0000
0001
,  // measure 65
0000
0100
0000
0000
,  // measure 66
0000
0010
0000
0000
,  // measure 67
0000
0100
0000
0000
,  // measure 68
0000
0001
0000
0000
,  // measure 69
0000
1000
0000
0000
,  // measure 70
0000
0100
0000
0000
,  // measure 71
0000
0010
0000
0001
,  // measure 72
0000
1001
0002
0000
,  // measure 73
0000
0000
1003
0000
,  // measure 74
0000
0000
2000
0000
,  // measure 75
0000
0000
3001
0000
,  // measure 76
0000
0000
0200
0000
,  // measure 77
0000
0000
0310
0000
,  // measure 78
0010
0000
0100
0000
,  // measure 79
0001
0000
1000
0001
,  // measure 80
1001
0000
1000
0000
,  // measure 81
1000
0000
1000
0000
,  // measure 82
1000
0001
0100
0000
,  // measure 83
0000
0000
0010
0000
,  // measure 84
0000
0000
0100
0000
,  // measure 85
0010
0000
1000
0000
,  // measure 86
0001
0000
1000
1000
,  // measure 87
1000
0000
0001
0001
,  // measure 88
0001
0000
1000
0010
,  // measure 89
0100
0001
1000
0100
,  // measure 90
0010
0000
0001
0000
,  // measure 91
0000
0000
1000
0000
,  // measure 92
0000
0000
0010
0000
,  // measure 93
0000
0000
0100
0000
,  // measure 94
0000
0000
0010
0000
,  // measure 95
1000
0000
0001
0010
,  // measure 96
0001
0100
0020
0000
,  // measure 97
0000
0030
0000
0000
;

//---------------dance-single - Pandemonium X---------------
#NOTES:
     dance-single:
     Pandemonium X:
     Easy:
     10:
     0,0,0,0,0:
// measure 0
0000
0000
0000
0000
,  // measure 1
0000
0000
0000
0000
,  // measure 2
0000
0000
0000
0000
,  // measure 3
0000
0000
0000
0000
,  // measure 4
0000
0000
0000
0000
,  // measure 5
0000
0000
0000
0000
,  // measure 6
0000
0000
0000
0000
,  // measure 7
0000
0000
0000
0000
,  // measure 8
0000
0000
0000
0000
,  // measure 9
1000
0000
1000
0000
,  // measure 10
0001
0000
0001
0000
,  // measure 11
1000
0000
1000
0000
,  // measure 12
0001
0000
0010
0000
,  // measure 13
0100
0000
0010
0000
,  // measure 14
0001
0000
1000
0000
,  // measure 15
0001
0001
1000
1000
,  // measure 16
0010
0010
0100
0100
,  // measure 17
0001
1000
0100
1000
,  // measure 18
0001
0010
0100
1100
,  // measure 19
1000
0010
1000
0001
,  // measure 20
0000
1000
0001
0010
,  // measure 21
0100
0100
0010
0010
,  // measure 22
0001
0001
1000
1000
,  // measure 23
0001
0100
0010
1000
,  // measure 24
0100
0010
0001
0010
,  // measure 25
0001
0010
0100
1000
,  // measure 26
0001
0000
0010
0000
0100
1000
0000
0000
,  // measure 27
0010
1000
0001
0000
,  // measure 28
1000
0001
0010
0000
,  // measure 29
0100
0000
0010
0000
,  // measure 30
0100
1000
0001
0000
,  // measure 31
1000
0010
1000
0001
,  // measure 32
0100
0010
1000
0001
,  // measure 33
2000
0000
0000
3002
0000
0000
0000
0000
,  // measure 34
0023
0000
0000
0230
0000
1000
1300
0000
,  // measure 35
0100
1000
0001
0000
,  // measure 36
1000
0000
0001
0000
0100
0010
0100
0000
,  // measure 37
0010
0100
0001
0000
,  // measure 38
1000
1000
1000
1000
,  // measure 39
0001
0001
1000
0000
,  // measure 40
0001
0000
1000
0000
0010
0100
0010
0000
,  // measure 41
2000
3020
0230
0302
,  // measure 42
2003
3020
0230
0302
,  // measure 43
2003
3020
0230
0302
,  // measure 44
1003
0110
1001
0110
0002
0000
0023
0000
,  // measure 45
0230
2300
3002
0023
,  // measure 46
0230
2300
3002
2003
,  // measure 47
3020
0230
0301
1010
,  // measure 48
1000
0011
0000
1000
,  // measure 49
0010
0100
0000
0010
,  // measure 50
0100
0001
0000
0010
,  // measure 51
0100
1000
0000
0100
,  // measure 52
0010
0001
0000
1000
,  // measure 53
0001
0010
0000
0001
,  // measure 54
1000
0100
0000
1000
,  // measure 55
0001
0000
0010
0000
0001
1000
0001
1000
,  // measure 56
0001
1000
0001
0000
1000
0000
0100
0000
,  // measure 57
0010
0100
1000
0001
,  // measure 58
0100
0001
1000
0100
,  // measure 59
0010
0100
1000
0001
,  // measure 60
0100
0001
1000
0010
,  // measure 61
1000
0001
0010
0001
,  // measure 62
1000
0001
1000
0100
,  // measure 63
1000
0001
1000
0001
,  // measure 64
0100
0001
0001
1000
,  // measure 65
1000
0000
0001
0001
0000
0100
0000
0000
,  // measure 66
0010
0000
0100
0001
0000
1000
0000
0000
,  // measure 67
0100
0010
0000
0001
0001
0000
1000
0000
,  // measure 68
0001
0000
1000
0000
0000
0010
0000
0000
,  // measure 69
0100
0000
0001
0000
0000
0010
0000
0000
,  // measure 70
0100
0010
0001
0100
,  // measure 71
0010
1000
0100
0010
,  // measure 72
0001
0000
1001
0000
2000
0000
0000
3002
,  // measure 73
0000
0000
0000
0000
0023
0000
0000
0230
,  // measure 74
0000
1000
1300
0000
0100
0000
1000
0000
,  // measure 75
0001
0000
1000
0001
,  // measure 76
0100
0010
0100
0000
0010
0000
0100
0000
,  // measure 77
0001
0000
1000
1000
,  // measure 78
1000
1000
0001
0001
,  // measure 79
1000
0000
0001
1000
,  // measure 80
0010
0100
0010
0000
0100
0000
0001
0000
,  // measure 81
0010
0100
0100
1000
,  // measure 82
0001
1001
1000
0100
,  // measure 83
1000
0001
0000
1000
,  // measure 84
0001
0100
0010
0010
,  // measure 85
0100
0100
0001
0001
,  // measure 86
1000
1000
0001
0010
,  // measure 87
0100
1000
0010
0100
,  // measure 88
0001
0100
0001
0100
,  // measure 89
0010
1000
0001
0100
,  // measure 90
0010
1000
0000
0000
0100
0000
1000
0000
,  // measure 91
0001
1000
1000
0001
,  // measure 92
0100
0010
0010
0000
,  // measure 93
0100
0000
0010
1000
,  // measure 94
0001
0000
1000
0100
,  // measure 95
1000
0001
0010
0100
,  // measure 96
1000
1001
0110
0000
;

//---------------dance-single - Pandemonium X---------------
#NOTES:
     dance-single:
     Pandemonium X:
     Medium:
     14:
     0,0,0,0,0:
// measure 0
0000
0000
0000
0000
,  // measure 1
0000
0000
0000
0000
,  // measure 2
0000
0000
0000
0000
,  // measure 3
0000
0000
0000
0000
,  // measure 4
0000
0000
0000
0000
,  // measure 5
0000
0000
0000
0000
,  // measure 6
0000
0000
0000
0000
,  // measure 7
0000
0000
0000
0000
,  // measure 8
0000
0000
0000
0000
,  // measure 9
0001
0100
0001
0100
,  // measure 10
0010
0000
0010
0000
,  // measure 11
1000
0100
1000
0100
,  // measure 12
0010
0000
0010
0000
,  // measure 13
0001
0000
0010
0000
0001
0000
1000
0000
0100
0000
1000
0000
,  // measure 14
0010
0000
1000
0000
0010
0000
0100
0000
0001
0000
0100
0000
,  // measure 15
0010
1010
1000
1100
,  // measure 16
0001
0011
1000
0110
,  // measure 17
0001
0100
0010
1000
0001
0010
0001
1000
,  // measure 18
0001
1000
0100
0010
0001
1000
0010
0100
,  // measure 19
0001
0000
0010
0100
0010
0001
0100
0010
,  // measure 20
0000
0010
1000
0100
0010
0100
0010
0001
,  // measure 21
2000
3100
0020
0031
,  // measure 22
0002
0103
0020
1030
,  // measure 23
0100
0010
0100
0010
0001
1000
0001
1000
,  // measure 24
0001
0010
0100
1000
0001
0010
0100
1000
,  // measure 25
0001
0001
1000
0010
0100
0100
0001
0010
,  // measure 26
1000
0010
0001
0100
0010
0001
0000
0000
,  // measure 27
0010
0000
0100
0001
1000
0100
0000
0000
,  // measure 28
0011
0000
0000
0010
0001
0100
0000
0000
,  // measure 29
0010
0100
0010
0000
0100
0001
0100
0000
,  // measure 30
0010
1000
0010
1000
0100
1000
0000
0000
,  // measure 31
0100
0100
0010
0001
1000
1000
0001
0010
,  // measure 32
0100
0001
0100
1000
0010
0100
1000
0100
,  // measure 33
0002
0000
0000
1000
0000
0000
0010
0000
,  // measure 34
2003
0000
0000
0100
0000
3001
0000
0000
,  // measure 35
0010
0100
1000
0010
0000
0010
0000
0010
,  // measure 36
0100
0001
0010
0100
0000
0100
1000
0000
,  // measure 37
0001
0010
0001
1000
0000
0001
0000
0100
,  // measure 38
0010
0010
0010
0010
,  // measure 39
0100
0000
0100
0000
0010
0010
0000
1000
,  // measure 40
0001
0000
0010
0000
0100
0000
0000
0010
0000
0000
0001
0000
1001
0000
0000
0000
,  // measure 41
1000
0100
1000
0100
0010
0001
0010
0001
,  // measure 42
0100
0010
0100
0010
1000
0001
1000
0001
,  // measure 43
0010
0001
0010
0001
1000
0100
1000
0100
,  // measure 44
0020
0032
2003
3200
0310
0100
0010
0100
,  // measure 45
1000
0001
1000
0001
1000
0010
1000
0010
,  // measure 46
0100
0001
0100
0001
1000
0100
0010
0001
,  // measure 47
1000
0100
0010
0001
1000
0010
0100
0001
,  // measure 48
1000
0010
0100
0001
0000
0000
1100
0000
,  // measure 49
0000
1010
0000
0101
,  // measure 50
0000
0011
0000
1001
,  // measure 51
0000
0101
0000
1010
,  // measure 52
0000
1100
0000
0011
,  // measure 53
0000
0110
0000
1100
,  // measure 54
0000
1010
0000
0110
,  // measure 55
0000
0000
0101
0000
1000
0001
0100
0001
,  // measure 56
1000
0100
0010
0000
0001
0000
0100
0010
,  // measure 57
0100
0000
0001
0000
1000
0000
0100
0010
,  // measure 58
0100
0000
0010
0000
0001
0000
1000
0001
,  // measure 59
1000
0000
0100
0000
1000
0000
0001
1000
,  // measure 60
0001
0000
0100
0000
0001
0000
0010
0100
,  // measure 61
0010
0000
0100
0000
1000
0000
0010
0100
,  // measure 62
0010
0000
0100
0000
0001
0000
0010
0100
,  // measure 63
0010
0000
0100
0000
1000
0000
0010
0100
,  // measure 64
0010
0100
0001
1000
,  // measure 65
0100
0000
0010
0010
0000
0100
0000
0000
,  // measure 66
0010
0000
0001
0100
0000
0010
0000
0100
,  // measure 67
0001
0010
0000
0100
0100
0000
0100
0000
,  // measure 68
1000
0000
0020
0000
0000
0230
0000
0000
,  // measure 69
0302
0000
0000
2003
0000
0000
3200
0000
,  // measure 70
0310
0000
0100
0000
1000
0000
0001
0100
,  // measure 71
0020
0000
1030
0000
0001
0000
0010
0001
,  // measure 72
2000
0000
3001
0000
2000
0000
0000
0001
,  // measure 73
0000
0000
0100
0000
3002
0000
0000
0010
,  // measure 74
0000
1003
0000
0000
0100
0010
0001
0100
,  // measure 75
0000
0100
0000
0100
0010
1000
0100
0010
,  // measure 76
0000
0010
0001
0000
1000
0100
1000
0001
,  // measure 77
0000
1000
0000
0010
0100
0000
0100
0000
,  // measure 78
0100
0100
0010
0010
,  // measure 79
0100
0000
0100
0000
0000
0000
0001
0000
1000
0000
0100
0000
0010
0000
0000
0010
,  // measure 80
0000
0001
1001
0000
1000
0010
0100
0001
,  // measure 81
1000
0100
1000
0001
1000
0001
0010
0100
,  // measure 82
1000
0001
0100
0010
1000
0000
0100
0010
,  // measure 83
0100
1000
0010
0100
0000
0100
0001
0010
,  // measure 84
0100
0010
0100
1000
0002
0000
0013
0000
,  // measure 85
0200
1300
2000
3010
,  // measure 86
0200
0000
0301
0000
0010
0100
0010
0100
,  // measure 87
1000
0001
1000
0001
1000
0100
0010
0001
,  // measure 88
1000
0100
0010
0001
1000
1000
0001
1000
,  // measure 89
0010
0010
0100
0001
0010
0100
1000
0010
,  // measure 90
0100
1000
0000
0000
0100
0000
0010
1000
,  // measure 91
0001
0010
0000
0000
1100
0000
0000
0100
,  // measure 92
1000
0010
0000
0000
0100
0010
0100
0000
,  // measure 93
0010
1000
0010
0000
0100
0001
0100
0001
,  // measure 94
0010
0001
0000
0000
0010
0010
0100
1000
,  // measure 95
0001
0001
1000
0100
0010
1000
0010
0001
,  // measure 96
0100
0010
0001
1000
0100
0000
0000
0000
;

//---------------dance-single - Pandemonium X---------------
#NOTES:
     dance-single:
     Pandemonium X:
     Hard:
     17:
     0,0,0,0,0:
// measure 0
0000
0000
0000
0000
,  // measure 1
0000
0000
0000
0000
,  // measure 2
0000
0000
0000
0000
,  // measure 3
0000
0000
0000
0000
,  // measure 4
0000
0000
0000
0000
,  // measure 5
0000
0000
0000
0000
,  // measure 6
0000
0000
0000
0000
,  // measure 7
0000
0000
0000
0000
,  // measure 8
0000
0000
0000
0000
,  // measure 9
0201
0310
1020
0130
,  // measure 10
0102
0000
2000
3003
,  // measure 11
1200
0310
0021
0130
,  // measure 12
2100
0000
3002
0000
,  // measure 13
0103
0000
0100
0000
0100
0000
0010
0000
0010
0000
0010
0000
,  // measure 14
1000
0000
1000
0000
0001
0000
0010
0000
0010
0000
0100
0000
,  // measure 15
1100
0101
1100
0101
,  // measure 16
0011
1010
1001
1001
,  // measure 17
0001
0100
0001
0000
1000
0001
1000
0000
0100
1000
0100
0000
0010
0100
0010
0000
,  // measure 18
0001
0000
1000
0010
1000
0000
0100
0000
0001
0000
0010
0100
0010
0000
0100
0000
,  // measure 19
1000
0000
0001
0100
1000
0100
0001
1000
,  // measure 20
0000
0100
0001
0100
1000
0010
0100
0001
,  // measure 21
0020
1000
0100
0031
,  // measure 22
0200
0001
0010
1300
,  // measure 23
1000
0010
0001
0010
1000
0100
0010
0001
,  // measure 24
1000
0010
1000
0000
0001
0010
0001
0000
1000
0100
1000
0000
0001
0100
0001
0000
,  // measure 25
1000
0010
1000
0010
1000
0000
0010
0000
0100
0001
0100
0001
0100
0000
0001
0000
,  // measure 26
1000
0001
1000
0000
0010
0100
0010
0000
1000
0001
2000
0000
0000
0000
0000
0000
,  // measure 27
3100
0000
0001
0010
1000
0010
0000
0000
,  // measure 28
0011
0000
0000
0001
0100
1000
0000
0000
,  // measure 29
0100
1000
0100
0001
1000
0100
0001
0100
,  // measure 30
0010
1000
0010
0001
1000
0010
1000
0000
,  // measure 31
0001
0010
0001
0100
0010
1000
0010
0100
,  // measure 32
0001
0010
0001
0000
0010
0100
0010
0000
0100
1000
0100
0000
1000
0010
1000
0000
,  // measure 33
0001
1000
0001
0020
0000
0000
0000
0000
,  // measure 34
0130
1000
0010
0200
0000
0301
0101
0000
,  // measure 35
0001
1000
0100
0010
0000
1001
0000
1000
,  // measure 36
0100
0000
0010
0000
0001
0000
0100
0000
0000
0000
0001
1000
0001
0000
0000
0000
,  // measure 37
1000
0001
1000
0010
0000
1001
0000
1000
,  // measure 38
1010
1010
1010
1010
,  // measure 39
1001
0000
1001
0000
0001
0001
0000
1000
,  // measure 40
1000
0000
0001
0000
1000
0000
0000
0001
0000
0000
1001
0000
1001
0000
0000
0000
,  // measure 41
0001
0100
0001
0000
1000
0010
1000
0000
0001
0100
0001
0000
1000
0010
1000
0000
,  // measure 42
0001
0000
1000
0001
1000
0000
0001
0000
1000
0001
1000
0000
0001
0000
1000
0000
,  // measure 43
0100
1000
0100
1000
0001
0100
0001
0100
0001
1000
0001
1000
0100
0010
0100
0010
,  // measure 44
0002
0003
0022
0033
2200
3300
2002
3003
0001
0000
0001
0000
1000
0000
1000
0000
,  // measure 45
0010
0010
0100
0100
0001
0001
1000
1000
,  // measure 46
0010
0010
0100
0100
0001
0001
0001
0001
,  // measure 47
1000
0000
1000
0000
1000
0000
1000
0000
0010
0100
0010
0100
0010
0100
0010
0100
,  // measure 48
0010
0100
0010
0100
0010
0100
0010
0100
0000
0000
0000
0100
0001
0000
0000
0000
,  // measure 49
0001
0000
0000
0001
0010
0000
0000
0000
0010
0000
0000
0010
0100
0000
0000
0000
,  // measure 50
0100
0000
0000
0100
1000
0000
0000
0000
1000
0000
0000
1000
0001
0000
0000
0000
,  // measure 51
0001
0000
0000
0001
0100
0000
0000
0000
0100
0000
0000
0100
0010
0000
0000
0000
,  // measure 52
0010
0000
0000
0010
1000
0000
0000
0000
1000
0000
0000
1000
0100
0000
0000
0000
,  // measure 53
0100
0000
0000
0100
0010
0000
0000
0000
0010
0000
0000
0010
0001
0000
0000
0000
,  // measure 54
0100
0000
0000
0100
0010
0000
0000
0000
1000
0000
0000
1000
0001
0000
0000
0000
,  // measure 55
0010
0000
0000
0010
0100
0000
0000
0000
1000
0100
1000
0100
0010
0000
0001
0010
,  // measure 56
0001
0010
0100
0000
1000
0000
0100
0000
0010
0000
0001
0000
1000
0000
0100
0000
,  // measure 57
0010
0000
0000
0010
0100
0000
1000
0000
0100
0000
0010
0000
0001
0000
0100
0000
,  // measure 58
0010
0000
0000
0010
0100
0000
0001
0000
0010
0000
0100
0000
1000
0000
0001
0000
,  // measure 59
1000
0000
0000
1000
0001
0000
1000
0000
0100
0000
0010
0000
0001
0000
0100
0000
,  // measure 60
0001
0000
0000
0001
0100
0000
0010
0000
1000
0000
0100
0000
0010
0000
0100
0000
,  // measure 61
1000
0000
0000
1000
0001
0000
1000
0000
0001
0000
0010
0000
0100
0000
0010
0000
,  // measure 62
0001
0000
0000
0001
0100
0000
0010
0000
1000
0000
0001
0000
1000
0000
0100
0000
,  // measure 63
0010
0000
0000
0010
0100
0000
0010
0000
0001
0000
0100
0000
0001
0000
1000
0000
,  // measure 64
0001
1020
0100
1000
,  // measure 65
1030
0000
0001
0001
0000
1200
0000
0010
,  // measure 66
0310
0000
0001
0200
0000
0000
0010
0010
,  // measure 67
0310
0000
2000
0001
0001
0000
3001
0000
,  // measure 68
1001
0000
0001
0010
1000
0010
0001
0100
,  // measure 69
0110
0000
1000
0100
0001
0100
1000
0010
,  // measure 70
0110
0000
1000
0100
0010
0001
0010
0100
,  // measure 71
1000
0000
0000
1000
0001
0000
0010
0000
0100
0000
1000
0000
0100
0000
0010
0000
,  // measure 72
0001
0000
0000
0002
0003
0000
0000
0000
1000
0000
0001
0000
1000
0000
0200
0000
,  // measure 73
0000
0000
0000
0000
0310
0001
0100
0020
,  // measure 74
0000
1030
1010
0000
1000
0001
0010
0100
,  // measure 75
0000
1001
0000
0001
0010
0100
1000
0010
,  // measure 76
0000
0000
1000
0001
1000
0000
0000
0000
0001
0000
1000
0000
0001
0000
0100
0000
,  // measure 77
0000
1001
0000
0001
0101
0000
0101
0000
,  // measure 78
0101
0101
1001
1001
,  // measure 79
1000
0000
1000
0000
0000
0000
0001
0000
0001
0000
1000
0000
0001
0000
0000
1000
,  // measure 80
0000
0000
1001
0000
1001
0000
0000
0000
1000
0010
1000
0000
0001
0100
0001
0000
,  // measure 81
0010
0100
0010
0000
0100
0000
1000
0100
1000
0000
0001
0000
1000
0010
1000
0000
,  // measure 82
0001
1000
0001
0000
1000
0000
0000
0000
1001
0000
0000
0000
1000
0000
0100
0000
,  // measure 83
0001
0100
1000
0001
0000
0100
1000
0100
,  // measure 84
0001
0010
0100
1000
0001
0100
0020
0000
,  // measure 85
0100
0000
1030
0000
1000
0100
0020
0000
,  // measure 86
0100
0000
0031
0000
0001
0010
1000
0010
,  // measure 87
0001
0000
0100
0000
0010
0000
1000
0000
0001
0010
0001
0000
1000
0010
1000
0000
,  // measure 88
0001
0100
0001
0000
1000
0100
1000
0000
0001
0100
0001
0100
0001
0000
0100
0000
,  // measure 89
0010
1000
0010
1000
0010
0000
1000
0000
0001
1000
0001
1000
0001
1000
0001
1000
,  // measure 90
0001
0100
0000
0000
0210
0000
0301
1000
,  // measure 91
0100
0001
0100
1000
0010
0100
1000
0100
,  // measure 92
0001
1000
0000
0000
1000
0010
0001
0010
,  // measure 93
0100
0001
1000
0100
0010
0001
0100
1000
,  // measure 94
0100
0000
0010
0000
1000
0000
0000
0000
0001
0100
0001
0000
0100
0010
0100
0000
,  // measure 95
0010
1000
0010
0000
1000
0100
1000
0000
0001
0010
0001
0010
0100
1000
0100
1000
,  // measure 96
0001
0100
0001
0100
0010
1000
0010
1000
0100
0000
0000
0000
0000
0000
0000
0000
;
