#TITLE:Round and Round;
#SUBTITLE:;
#ARTIST:Masayoshi Minoshima feat. 綾倉盟;
#TITLETRANSLIT:;
#SUBTITLETRANSLIT:;
#ARTISTTRANSLIT:;
#GENRE:;
#CREDIT:;
#MUSIC:Round and Round.ogg;
#BANNER:Round and Round.png;
#BACKGROUND:Round and Round-bg.png;
#CDTITLE:;
#SAMPLESTART:81.544;
#SAMPLELENGTH:13.259;
#SELECTABLE:YES;
#OFFSET:1.215;
#BPMS:0.000=145.000;
#STOPS:;
#BGCHANGES:;
#FGCHANGES:;

//--------------- dance-single - Pandemonium X ----------------
#NOTES:
     dance-single:
     Pandemonium X:
     Beginner:
     4:
     0,0,0,0,0:
0000
0000
0000
0000
,
0000
0000
0000
0000
,
0000
0000
0000
0000
,
0000
0000
0000
0000
,
0000
0000
0000
0000
,
0000
0000
0000
0000
,
0000
0000
0000
0000
,
0000
0000
0000
0000
,
0000
0000
0000
0000
,
1000
0000
0001
0000
,
1000
0000
0001
0000
,
1000
0000
0001
0000
,
1000
0000
0001
1000
,
0001
0000
1000
0000
,
0001
0000
1000
0000
,
0001
0000
1000
0000
,
0001
0000
1000
1000
,
0010
0000
0000
0000
,
0000
0100
0000
0000
0000
0010
0000
0000
,
0000
1000
0000
0000
0000
0001
0000
0000
,
0000
0010
0000
0000
0000
0000
0000
0000
,
0100
0000
0000
0000
,
0000
0010
0000
0000
0000
0001
0000
0000
,
0000
1000
0000
0000
0000
0010
0000
0000
,
0000
0000
0000
0000
,
0100
0000
0010
0000
,
0000
1000
0000
0000
0000
1000
0000
0000
,
0000
0001
0000
0000
0000
0001
0000
0000
,
0000
1000
0000
0000
0010
0000
0010
0000
,
0100
0000
0010
0000
,
0000
0100
0000
0000
0000
0001
0000
0000
,
0000
1000
0000
0000
0000
0100
0000
0000
,
0000
0010
0000
0000
0001
0000
0001
0000
,
1000
0000
0000
0001
,
0000
0000
0100
0000
,
0000
0010
0000
0000
,
0100
0000
0010
0000
,
1000
0000
0000
0100
,
0000
0000
0010
0000
,
0000
0001
0000
0000
,
1000
0000
0001
0000
,
0100
0000
0000
0010
,
0000
0000
1000
0000
,
0000
0001
0000
0000
,
0010
0000
0100
0000
,
1000
0000
0000
0001
,
0000
0000
0100
0000
,
0000
0010
0000
0000
,
0100
0000
0010
0000
,
2000
0000
0000
0000
,
3001
0000
1000
0000
,
0010
0000
1000
1000
,
0001
0000
1000
0000
,
0100
0000
0010
0010
,
0001
0000
0010
0000
,
0001
0000
0100
0100
,
0010
0000
0000
0000
,
0110
0000
0000
0000
,
1000
0000
0001
0000
,
0010
0000
0100
0100
,
1000
0000
0001
0000
,
0010
0000
0001
0001
,
0100
0000
0010
0000
,
1000
0000
0001
0001
,
1000
0000
0000
0000
,
0001
0000
1000
0000
,
0010
0000
0100
0000
,
0001
0000
1000
0000
,
0100
0000
0010
0000
,
0001
0000
1000
0001
,
1000
0000
0010
0000
,
0100
0000
0001
0000
,
0010
0000
0100
0000
,
1000
0000
0001
1000
,
0110
0000
0000
0000
;

//--------------- dance-single - Pandemonium X ----------------
#NOTES:
     dance-single:
     Pandemonium X:
     Easy:
     8:
     0,0,0,0,0:
0000
0000
0000
0000
,
0000
0000
0000
0000
,
0000
0000
0000
0000
,
0000
0000
0000
0000
,
0000
0000
0000
0000
,
0001
0000
1000
0000
,
0001
0000
1000
0000
,
0001
0000
1000
0000
,
0001
0000
0200
0000
,
0310
1000
0010
0000
,
0100
0001
0100
0000
,
0001
0010
0001
0000
,
1000
0100
1000
0001
,
0100
0010
0100
0000
,
0001
0100
0001
0000
,
1000
0100
1000
0000
,
0001
0000
2000
3200
,
0310
0100
1000
0001
,
0000
0100
0000
0010
,
0000
1000
0000
0001
,
0000
1000
0001
0010
,
0100
0010
0001
0100
,
0000
0010
0000
1000
,
0000
0100
0000
0010
,
0000
0001
1001
0110
,
0001
1000
0100
1000
,
0000
0001
0000
0100
,
0000
0010
0000
1000
,
0000
0000
0010
0000
0100
0001
0100
0000
,
0001
1000
0100
0010
,
0000
0100
0000
1000
,
0000
0010
0000
0100
,
0000
0000
0010
0000
0100
0001
0100
0001
,
1000
0000
0000
0001
,
0000
0000
0010
0000
,
0000
0100
0000
0000
,
1000
0001
0100
0010
,
1000
0000
0000
0010
,
0000
0000
0100
0000
,
0000
0001
0000
0000
,
0010
0001
0010
0100
,
1100
1100
1100
0101
,
0101
0101
1100
1100
,
1100
0101
0101
0101
,
1100
0101
1001
1100
,
0011
0011
0011
1010
,
1010
1010
0011
0011
,
0011
1010
1010
1010
,
0011
0011
1010
1010
,
0020
0030
1001
0110
,
1001
0001
1000
1000
,
0100
0100
0010
0100
,
1000
1000
0001
0001
,
0100
0001
0010
0100
,
1000
1000
0001
0001
,
0010
0010
0100
0010
,
0002
0000
0000
1003
,
0001
0100
1000
0100
,
0001
0100
0010
1000
,
0010
0100
0001
0010
,
0100
0001
0100
1000
,
0100
0010
0001
0010
,
0001
0100
0001
1000
,
0001
0010
0100
1000
,
0020
0000
0030
0100
,
1000
0100
0001
1000
,
0001
0010
0100
1000
,
0100
1000
0010
0100
,
0001
0010
0100
1000
,
0001
0100
0010
1000
,
0001
1000
0100
0010
,
0001
0010
0100
0010
,
0001
0100
0010
1000
,
0001
0010
1001
0110
,
2002
0000
3003
0000
;

//--------------- dance-single - Pandemonium X ----------------
#NOTES:
     dance-single:
     Pandemonium X:
     Medium:
     10:
     0,0,0,0,0:
0000
0000
0000
0000
,
0000
0000
0000
0000
,
0000
0000
0000
0000
,
0000
0000
0000
0000
,
0000
0000
0000
0000
,
0001
1000
0001
1000
,
0010
0100
0010
0100
,
0000
0101
0000
0101
0000
1100
0000
2001
,
3002
2003
0002
3000
,
1003
0100
0000
1000
0010
1000
0000
1000
,
0010
1000
0000
1000
0010
1000
0000
1000
,
0010
1000
0000
1000
0010
1000
0000
1000
,
0010
1000
0000
1000
0010
0100
0001
0000
,
1000
0001
0000
0001
0010
0001
0000
0001
,
0010
0001
0000
0001
0010
0001
0000
0001
,
0010
0001
0000
0001
0010
0001
0000
0001
,
0020
0000
0000
0000
0130
0010
0001
1000
,
0010
0000
1000
0000
0001
0000
0010
0100
,
0000
0100
1000
0100
0000
1000
0010
1000
,
0000
0010
0100
0010
0000
0100
0001
0100
,
0000
0001
1000
0001
0010
0010
0010
0000
,
0100
0000
1000
0000
0001
0000
0100
0001
,
0000
0010
0100
0010
0000
0100
1000
0100
,
0000
1000
0010
1000
0000
0010
0100
0010
,
0000
0100
0001
1000
0001
0001
1000
1000
,
0001
0000
0100
0000
0010
0000
1000
0010
,
0000
1000
0100
1000
0000
0100
0010
0100
,
0000
0010
0001
0010
0000
0001
0100
0001
,
0000
0100
0010
0100
0001
0001
0001
0000
,
1000
0000
0001
0000
0010
0000
0100
0010
,
0000
0100
1000
0100
0000
1000
0010
1000
,
0000
0010
0100
0010
0000
0100
0001
0100
,
0000
0001
0100
0001
0100
0010
1000
0001
,
0010
0100
1000
0100
,
1000
0001
0100
0001
,
0010
0100
0010
0001
,
1000
0100
0001
0100
,
1000
0010
0100
1000
,
0100
0001
0010
1000
,
0010
0001
0010
0001
,
0100
1000
0100
0001
,
1000
0010
0100
0001
1000
0000
1000
0010
,
0100
0001
1000
0000
1000
0010
0100
0001
,
1000
0000
1000
0010
0100
0001
1000
0000
,
1000
0010
0100
0001
1000
0010
0100
0001
,
1000
0100
0010
0001
1000
0000
1000
0100
,
0010
0001
1000
0000
1000
0100
0010
0001
,
1000
0000
1000
0100
0010
0001
1000
0000
,
1000
0100
0010
0001
1000
0100
0010
0001
,
2000
0000
0000
0000
0000
0000
3001
0100
0001
0100
0001
0100
,
0001
1010
1000
1100
,
0100
0000
0110
0000
0100
1000
0001
0000
,
0100
0101
0001
0011
,
0010
0000
0110
0000
0010
0001
0100
0000
,
0001
1001
1000
1010
,
0010
0000
0110
0000
0100
0010
1000
0001
,
0020
0000
0030
0100
,
1000
0000
0001
0000
0000
1000
0000
0001
0000
1000
0000
0000
0001
0000
0000
0000
,
1000
1100
0010
0110
,
1000
0000
1010
0000
0001
0010
0100
1000
,
0100
0110
0010
0101
,
1000
0000
1001
0000
1000
0001
0100
0001
,
1000
0011
0001
1010
,
0010
0000
0110
0000
0001
1000
0001
1000
,
0020
0000
0030
2000
,
3200
0320
0032
0203
,
0302
0000
1003
0100
1000
0000
0100
0010
,
0100
0000
0010
0001
0010
0000
0001
0100
,
0001
0000
0100
0010
0100
0000
0010
1000
,
0010
0000
1000
0001
1000
0000
1001
0000
,
0001
0000
0100
0001
0010
0000
0100
1000
,
0010
0000
0100
0001
1000
0000
0100
0010
,
0001
0000
0010
0100
1000
0000
0100
1000
,
0010
0000
0100
0010
1010
0000
0101
0000
,
2002
0000
3003
0000
;

//--------------- dance-single - Pandemonium X ----------------
#NOTES:
     dance-single:
     Pandemonium X:
     Hard:
     12:
     0,0,0,0,0:
0000
0000
0000
0000
,
0000
0000
0000
0000
,
0000
0000
0000
0000
,
0000
0000
0000
0000
,
0000
0000
0000
0000
,
0001
1000
0001
1000
0001
1000
0001
1000
,
0010
0100
0010
0100
0010
0100
0010
0100
,
0010
1000
0100
1000
0010
1000
0100
1000
,
0010
0000
1001
0000
0002
0023
0230
2300
,
3001
0100
0000
0010
1000
0010
0000
1000
,
0100
1000
0000
0100
0010
0100
0000
0010
,
0001
0010
0000
0001
0100
0001
0000
1000
,
0001
1000
0000
1000
0100
0010
0001
0010
,
0100
0010
0000
0100
1000
0100
0000
1000
,
0010
1000
0000
0010
0100
0010
0000
0100
,
0001
0100
0000
0001
0010
0001
0000
0010
,
0100
0010
0000
0100
2000
0000
3002
0000
,
0103
0000
0001
0000
0010
0000
0100
1000
,
0000
0001
0001
0100
0000
0010
0010
1000
,
0000
0100
0100
0010
0000
0001
0001
1000
,
0000
0001
0001
1000
0100
0100
0010
0000
,
0100
0000
1000
0000
0010
0000
0100
0001
,
0000
1000
1000
0010
0000
0100
0100
0001
,
0000
0010
0010
0100
0000
0010
0010
0001
,
0000
0010
0100
1000
0001
1000
0010
1000
,
0100
0000
1000
0000
0010
0000
0100
0010
,
0000
0100
0001
0010
0000
0100
1000
0010
,
0000
0100
0001
0010
0000
0100
1000
0010
,
0000
0100
0001
0010
0110
0110
0110
0000
,
1000
0000
0001
0000
0100
0000
0001
1000
,
0000
0001
1000
0010
0000
1000
0001
0010
,
0000
0001
1000
0010
0000
1000
0001
0010
,
0000
0001
1000
0010
0100
0100
0010
0010
,
1001
1000
0100
1000
,
0001
0100
0001
1000
,
0100
1000
0001
0100
,
0001
1000
0001
1000
,
0001
1000
0010
1000
,
0001
0010
0001
1000
,
0010
1000
0001
0010
,
0001
1000
0010
1000
,
0001
0001
0001
0001
0001
0000
1000
1000
,
1000
1000
1000
0000
0010
0010
0010
0010
,
0010
0000
0100
0100
0100
0100
0100
0000
,
0010
0010
0010
0010
1000
1000
0001
0001
,
1000
1000
1000
1000
1000
0000
0001
0001
,
0001
0001
0001
0000
0010
0010
0010
0010
,
0010
0000
0100
0100
0100
0100
0100
0000
,
1000
1000
1000
1000
0001
0001
1000
1000
,
0002
0000
0000
0000
0000
0000
0013
0100
1000
0100
0010
0001
,
1000
0000
0000
0100
0000
0000
0000
0000
1000
0000
0000
0010
0000
0000
0100
0000
,
0001
0000
0000
0010
0000
0000
0001
0000
1000
0000
0100
0000
0010
0000
0001
0000
,
0100
0000
0000
0001
0000
0000
1000
0000
0010
0000
0000
1000
0000
0000
0001
0000
,
1000
0000
0000
0100
0000
1000
0000
0000
0010
0000
0001
0000
0010
0000
1000
0000
,
0001
0000
0000
0010
0000
0000
0001
0000
1000
0000
0000
0100
0000
0000
1000
0000
,
0010
0000
0000
0100
0000
0000
0001
0000
1000
0000
0100
0000
0010
0000
0100
0000
,
2000
0001
0010
3001
,
1000
0000
0001
0000
0000
1000
0000
0001
0000
1000
0000
0001
1000
0000
0001
0000
,
1000
0000
0000
0010
0000
0000
0000
0000
0100
0000
0000
0001
0000
0000
0010
0000
,
0001
0000
0000
1000
0000
0000
0100
0000
1000
0000
0100
0000
0010
0000
0001
0000
,
0010
0000
0000
0001
0000
0000
0100
0000
0001
0000
0000
1000
0000
0000
0100
0000
,
1000
0000
0000
0001
0000
0100
0000
0000
0001
0000
0010
0000
1000
0000
0010
0000
,
0001
0000
0000
1000
0000
0000
0001
0000
0010
0000
0000
0100
0000
0000
0010
0000
,
0001
0000
0000
0100
0000
0000
0010
0000
0100
0000
0001
0000
1000
0000
0100
0000
,
0020
0001
0100
0032
,
2003
3200
0320
0032
,
1003
0010
0100
0010
1000
0010
0100
0010
,
1000
0001
0010
0001
1000
0001
0010
0100
,
1000
0001
0100
0001
1000
0001
0100
0001
,
1000
0000
0100
0000
0010
0000
0001
0000
0010
0000
0100
1000
0100
0000
1000
0000
,
0001
0010
0100
0010
0001
1000
0010
0100
,
0001
0010
0100
1000
0001
1000
0010
0100
,
0001
0010
0100
0010
0001
1000
0100
0010
,
0001
0000
0010
0000
0100
0000
1000
0000
0010
0000
1000
0001
1000
0000
0001
1000
,
0002
0000
0003
0000
;

//--------------- dance-single - Pandy as "Spin2Win" ----------------
#NOTES:
     dance-single:
     Pandy as "Spin2Win":
     Challenge:
     15:
     0,0,0,0,0:
0000
0000
0000
0000
,
0000
0000
0000
0000
,
0000
0000
0000
0000
,
0000
0000
0000
0000
,
0000
0000
0000
0000
,
0001
0100
0001
0100
0001
0100
0001
0100
,
0010
1000
0010
1000
0010
1000
0010
1000
,
0001
1001
1000
1001
0001
1001
1000
1001
,
0001
0000
0100
0001
0020
0000
1000
0000
,
0031
0000
1000
0100
1000
0000
0001
0000
0000
0100
0000
0100
0000
0100
0001
0000
,
0010
0000
0100
0000
0010
0000
0100
0000
0000
0000
0000
0000
1000
0000
0000
0000
0000
0000
0001
0000
0000
0000
0000
0000
1000
0000
0000
0000
0000
0000
0000
0000
0000
0001
0000
0000
0000
0000
0000
0001
0000
0000
0100
0000
0000
0000
0000
0000
,
0010
0000
1000
0000
0100
0010
0100
1000
0001
0000
0001
1000
0001
0010
0001
0100
,
0001
0010
0000
0100
1000
0100
1000
0001
1000
0100
0010
0100
1000
0001
0010
0100
,
1000
0000
0000
0000
0000
0000
0000
0000
0001
0000
0100
0000
0001
0000
0000
0000
0000
0000
1000
0000
0000
0000
0000
0000
0000
0000
0000
0100
0000
0000
0000
0000
0000
0100
0000
0000
0000
0000
0000
0100
0000
0000
1000
0000
0000
0000
0000
0000
,
0010
0000
0100
0000
0010
0000
0100
0000
0000
0000
0000
0000
0001
0000
0000
0000
0000
0000
0010
0000
0000
0000
0000
0000
0001
0000
0000
0000
0000
0000
0000
0000
0000
0100
0000
0000
0000
0000
0000
0100
0000
0000
0000
0000
0000
0100
0000
0000
,
0010
0000
0000
0000
0000
0000
0100
0000
0000
0000
0000
0000
0010
0000
1000
0000
0010
0000
1000
0000
0000
0010
0000
0000
1000
0000
0000
0000
0000
0000
0001
0000
0000
1000
0000
0000
0100
0000
0000
0010
0000
0000
0100
0000
0000
0010
0000
0000
,
0001
0000
1000
0000
0001
0000
1000
0000
0000
0000
0000
0000
0001
0000
0000
0010
0000
0000
0100
0000
0000
1000
0000
0000
0001
0000
0000
0010
0000
0000
0100
0000
0000
0010
0000
0000
0001
0000
0000
1000
0000
0000
0010
0000
0000
1000
0000
0000
,
0100
0000
1010
0000
0110
0000
1000
0001
,
0000
0001
0010
0100
0000
0001
0010
0100
,
0000
0001
0010
0100
0000
0001
0010
0100
,
0000
0001
0010
0100
0001
0010
0100
0000
,
0101
0000
1001
0000
0110
0000
0001
1000
,
0000
1000
0100
0010
0000
1000
0100
0010
,
0000
1000
0100
0010
0000
1000
0100
0010
,
0000
0000
1000
0000
0100
0000
0010
0000
0001
0000
0001
1000
0000
1000
0010
1000
,
0010
0000
0100
0000
0001
0000
0010
0001
0100
0000
0001
0000
1000
0000
0100
1000
,
0010
0000
0100
0000
0001
0000
1000
0100
0010
0000
0100
0000
1000
0000
0001
0010
,
0100
0000
0010
0000
0001
0000
0100
0001
1000
0000
0100
0000
0010
0000
0100
1000
,
0001
0100
0001
1000
1001
0110
1001
0000
,
0001
0000
0100
0000
0010
0000
1000
0100
0010
0000
0100
0000
1000
0000
0001
0010
,
0100
0000
0010
0000
0001
0000
1000
0010
0100
0000
0001
0000
1000
0000
0001
0100
,
0010
0000
0100
0000
0001
0000
1000
0001
0010
0000
0100
0000
1000
0000
0100
1000
,
0001
0010
0001
1000
1010
0101
1010
0101
,
0001
0100
0010
0100
1000
0000
0100
0010
,
1000
0001
1000
0000
1000
0010
0100
0010
,
0001
0000
0010
0100
0001
1000
0001
0000
,
1000
0100
0010
0100
0001
0100
1000
0010
,
1000
0100
0010
0100
0001
0000
0100
0010
,
0001
1000
0001
0000
0001
0010
0100
0010
,
1000
0000
0010
0100
1000
0001
1000
0000
,
0001
0100
0010
0100
1000
0100
0001
1000
,
0001
0100
1000
0010
0001
0000
0001
0100
,
1000
0010
0001
0000
0001
0100
1000
0010
,
0001
0000
0001
0100
1000
0010
0001
0000
,
0001
0100
1000
0010
0001
0100
1010
1001
,
1000
0100
0001
0010
1000
0000
1000
0100
,
0001
0010
1000
0000
1000
0100
0001
0010
,
1000
0000
1000
0100
0001
0010
1000
0000
,
1000
0100
0001
0010
1000
0100
0001
0010
,
2000
0000
0000
0000
0000
0000
3001
0001
0001
1000
1000
1000
,
0001
0000
0001
0100
0000
0000
0000
0000
0001
0000
0100
0001
0000
0001
0010
0000
,
0010
0000
0010
0100
0000
0100
1000
0000
0001
0000
0100
0000
0001
0000
1000
0000
,
0100
0000
1000
0100
0000
0100
0010
0000
0001
0000
0010
0001
0000
0001
0100
0000
,
0100
0000
0100
0010
0000
2000
0000
0000
3001
0000
0010
0000
0100
0000
1000
0000
,
0001
0000
0001
0010
0000
0010
0001
0000
0100
0000
0100
0010
0000
0010
0100
0000
,
0001
0000
0010
0100
0000
0100
0010
0000
0001
0000
0010
0000
0100
0000
1000
0000
,
0020
1000
0100
2030
,
3001
0000
0000
0000
0000
0000
1001
0000
0000
0000
0000
0000
0000
0000
0000
1100
0000
0000
0000
0000
0000
0110
0000
0000
0000
0000
0000
1100
0000
0000
0000
0000
0000
0001
0000
0000
1000
0000
0000
0000
0000
0000
0001
0000
0100
0000
0001
0000
,
1000
0100
0001
0010
1000
0000
1001
0000
,
0001
0100
1000
0010
0001
0100
1000
0100
,
0001
0010
1000
0100
0001
0000
1001
0000
,
0001
0000
0100
0000
1000
0000
0010
0000
0001
0000
1000
0001
1000
0000
0100
0000
,
0010
0000
0001
0100
0000
0100
1000
0000
1001
0000
1000
0010
0000
0010
0001
0000
,
1001
0000
0001
0100
0000
0100
1000
0000
0010
0000
0001
0000
0010
0000
1000
0000
,
0200
1000
0010
0301
,
1100
0011
1100
0011
,
0001
0100
1000
0010
0001
0100
0010
1000
,
0001
0100
1000
0010
0001
0100
0010
1000
,
0001
0100
1000
0010
0001
0100
0010
1000
,
0001
0000
0000
0100
0000
0000
1000
0000
0000
0010
0000
0000
0001
0000
0000
1000
0001
1000
0001
0000
0000
0001
0000
0000
,
1000
0100
0001
0010
1000
0010
0100
0001
,
1000
0100
0001
0010
1000
0010
0100
0001
,
1000
0100
0001
0010
1000
0010
0100
0001
,
1000
0000
0000
0100
0000
0000
0001
0000
0000
0010
0000
0000
1000
0000
0000
0010
0100
0010
0100
0000
0000
0001
1000
0001
,
2000
0000
3000
0000
;

//--------------- dance-double - Pandemonium X ----------------
#NOTES:
     dance-double:
     Pandemonium X:
     Challenge:
     11:
     0,0,0,0,0:
00000000
00000000
00000000
00000000
,
00000000
00000000
00000000
00000000
,
00000000
00000000
00000000
00000000
,
00000000
00000000
00000000
00000000
,
00000000
00000000
00000000
00000000
,
00010000
00000100
00010000
00000100
00010000
00000100
00010000
00000100
,
00001000
00000100
00001000
00000100
00001000
00000100
00001000
00000100
,
00001000
00001100
00000000
00011000
00000000
01010000
00000000
01000000
,
00100000
10000000
00000000
01000000
00200000
20300000
30200000
00320000
,
01030000
00010000
00000000
00100000
00001000
00100000
00000000
00001000
,
00010000
00001000
00000000
00010000
00000100
00010000
00000000
00000010
,
00001000
00000010
00000000
00000100
00000001
00000100
00000000
00000001
,
00001000
00000001
00000000
00001000
00000010
00000100
00001000
00010000
,
00001000
01000000
00000000
00100000
01000000
00100000
00000000
01000000
,
00010000
01000000
00000000
00010000
00100000
00010000
00000000
00100000
,
01000000
00100000
00000000
01000000
10000000
01000000
00000000
10000000
,
00010000
10000000
00000000
01000000
00100000
00010000
00001000
00000100
,
00001000
00000000
00000010
00000000
00000100
00000000
00000001
00001000
,
00000000
00000100
00001000
00000100
00000000
00001000
00000100
00001000
,
00000000
00000100
00001000
00000100
00000000
00001000
00000100
00001000
,
00000000
00000100
00001000
00000100
00010000
00001000
00010000
00000000
,
00001000
00000000
01000000
00000000
00100000
00000000
10000000
01000000
,
00000000
00100000
00010000
00100000
00000000
00010000
00100000
00010000
,
00000000
00100000
00010000
00100000
00000000
00010000
00100000
00010000
,
00000000
00000000
00100000
00000000
01000000
00000000
10000000
00000000
00010000
00000000
10000000
00100000
00000000
01000000
00100000
00000000
,
10000000
00000000
01000000
00000000
00100000
00000000
00010000
01000000
,
00000000
00001000
01000000
00001000
00000000
00010000
00001000
00010000
,
00000000
00001000
01000000
00001000
00000000
00010000
00001000
00010000
,
00000000
00001000
01000000
00001000
00010000
00010000
00011000
00000000
,
00010000
00000000
00000100
00000000
00001000
00000000
00000010
00000100
,
00000000
00000010
00010000
00000010
00000000
00010000
00001000
00010000
,
00000000
00000010
00010000
00000010
00000000
00010000
00001000
00010000
,
00000000
00010000
00000010
00000100
00000101
00001001
00000101
00001001
,
00001000
00000100
00001100
00000100
,
00010000
00011000
00001000
01000000
,
01010000
00010000
00100000
01100000
,
01000000
00000000
10000000
00000000
00100000
01000000
00010000
10000000
,
01000000
00100000
00110000
00100000
,
00001000
00011000
00010000
00000010
,
00000110
00000100
00000001
00001001
,
00000001
00000100
00000010
00000100
,
00000100
00001000
00010000
00100000
01000000
00000000
00100000
01000000
,
10000000
01000000
00100000
00000000
00010000
00100000
00010000
00001000
,
00000100
00000000
00000100
00001000
00000010
00000100
00000001
00000000
,
00000001
00000100
00001000
00010000
00100000
10000000
01000000
00100000
,
00010000
00100000
10000000
00100000
00010000
00000000
00100000
00010000
,
00001000
00000100
00000010
00000000
00000100
00000010
00000001
00000100
,
00001000
00000000
00001000
00010000
00100000
01000000
10000000
00000000
,
00010000
00100000
01000000
10000000
01000000
00100000
00001000
00010000
,
00022000
00000000
00000000
00003000
00000000
00000000
00030100
00010000
00001000
01000000
00001000
00010000
,
00001000
00000000
00000000
00010000
00000000
00000000
00000000
00000000
00000100
00000000
00000000
00001000
00000000
00000000
00000010
00000000
,
00000100
00000000
00000000
00000001
00000000
00000000
00000010
00000000
00000100
00000000
00000010
00000000
00000001
00000000
00000100
00000000
,
00000010
00000000
00000000
00000010
00000000
00000000
00001000
00000000
00000100
00000000
00000000
00000100
00000000
00000000
00010000
00000000
,
00001000
00000000
00000000
00100000
00000000
00020000
00000000
00000000
00130000
00000000
10000000
00000000
00100000
00000000
00010000
00000000
,
10000000
00000000
00000000
00100000
00000000
00000000
01000000
00000000
00010000
00000000
00000000
00100000
00000000
00000000
00001000
00000000
,
00010000
00000000
00000000
00000100
00000000
00000000
00001000
00000000
00000010
00000000
00000001
00000000
00000010
00000000
00000100
00000000
,
00000002
00000000
00000003
00000100
,
00000010
00000000
00001010
00000000
00000000
00000010
00000000
00010000
00000000
00001000
00000000
00100000
00010000
00000000
10000000
01000000
,
00100000
00000000
00000000
01000000
00000000
00000000
00000000
00000000
10000000
00000000
00000000
00100000
00000000
00000000
01000000
00000000
,
00010000
00000000
00000000
00100000
00000000
00000000
00001000
00000000
00010000
00000000
00000100
00000000
00001000
00000000
00000010
00000000
,
00000100
00000000
00000000
00000001
00000000
00000000
00000010
00000000
00000100
00000000
00000000
00000010
00000000
00000000
00000001
00000000
,
00001000
00000000
00000000
00000100
00000000
00020000
00000000
00000000
00031000
00000000
00100000
00000000
00010000
00000000
10000000
00000000
,
01000000
00000000
00000000
10000000
00000000
00000000
00010000
00000000
00100000
00000000
00000000
00001000
00000000
00000000
00010000
00000000
,
00001000
00000000
00000000
00010000
00000000
00000000
00000010
00000000
00000100
00000000
00001000
00000000
00000100
00000000
00000001
00000000
,
00000020
00000000
00000030
00000001
,
00000011
00000110
00001100
00011000
,
01001000
00000000
01000000
00100000
01100000
00000000
00100000
10000000
,
10100000
00000000
00010000
00100000
00110000
00000000
00100000
00001000
,
00101000
00000000
00010000
00000100
00001100
00000000
00001000
00000010
,
00001010
00000000
00000100
00000010
00000110
00001000
00000100
00000010
,
00000001
00000000
00000001
00000010
00000110
00000000
00000100
00010000
,
00011000
00000000
00010000
00001000
01001000
00000000
00010000
00100000
,
01100000
00000000
01000000
10000000
10100000
00000000
00100000
01000000
,
01010000
00000000
01000000
00010000
00100000
00201000
00301000
00012000
,
00020000
00000000
00033000
00000000
;
