#TITLE:Rome Needs No Mother (PX Respect For FF Edit);
#SUBTITLE:;
#ARTIST:Bingy Fireball the III;
#TITLETRANSLIT:;
#SUBTITLETRANSLIT:;
#ARTISTTRANSLIT:;
#GENRE:;
#CREDIT:;
#MUSIC:Rome Needs No Mother (PX Respect For FF Edit).ogg;
#BANNER:Rome Needs No Mother (PX Respect For FF Edit).png;
#BACKGROUND:Rome Needs No Mother (PX Respect For FF Edit)-bg.png;
#CDTITLE:;
#SAMPLESTART:104.607;
#SAMPLELENGTH:13.732;
#SELECTABLE:YES;
#OFFSET:-0.045;
#BPMS:0.000=140.000
,39.500=144.200
,40.000=140.000
,92.000=140.420
,95.000=140.000
;
#STOPS:;
#DISPLAYBPM:140.000;
#BGCHANGES:;
#FGCHANGES:;

//--------------- dance-single - PX respects FF ----------------
#NOTES:
     dance-single:
     PX respects FF:
     Beginner:
     4:
     0,0,0,0,0:
0000
0000
0000
0000
,
0000
0000
0000
0000
,
0000
0000
0000
0000
,
0000
0000
0000
0000
,
0001
0000
0000
0000
,
1000
0000
0000
0000
,
0001
0001
0001
0000
,
0100
0000
0000
0000
,
0010
0000
0000
0000
,
1000
0000
0000
0000
,
0100
0000
0000
0000
,
0010
0000
0000
0000
,
0001
0000
0000
0000
,
1000
0000
0000
0000
,
0000
0000
0000
0000
,
0010
0000
0010
0000
,
0010
0000
0010
0010
,
0100
0000
0100
0000
,
0100
0000
0100
0100
,
0001
0000
0001
0000
,
0001
0000
0001
0001
,
1000
0000
1000
0000
,
1000
0000
1000
1000
,
0001
0000
0100
0000
,
0010
0000
1000
0000
,
0100
0000
0010
0000
,
0001
0000
1000
0000
,
0002
0000
0000
0000
,
0000
0000
0000
0003
,
2000
0000
0000
0000
,
0000
0000
0000
3000
,
0020
0000
0000
0030
,
0200
0000
0000
0300
,
2002
0000
0000
0000
,
0000
0000
0000
3003
,
0001
0000
0100
0000
,
0001
0000
1000
0000
,
0100
0000
0010
0000
,
0001
0000
1000
0000
,
0010
0000
0100
0100
,
0000
0000
0100
0100
,
1001
0001
1000
0000
,
0001
0010
0001
0000
,
1000
0010
1000
0000
,
0001
0010
0001
0000
,
1001
0000
0001
0000
,
1000
0000
0100
0000
,
1000
0000
0010
0000
,
0100
0000
0001
0000
,
1000
0000
0000
0000
,
0001
0000
0000
0000
,
1000
0000
0000
0000
,
0001
0000
0000
0000
,
0100
0000
0010
0000
,
1000
0000
0100
0000
,
1000
0000
0001
0000
,
0010
0000
0100
0000
,
0020
0000
0000
0030
,
0200
0000
0000
0300
,
1000
0000
0001
0000
,
0100
0010
0100
0000
,
0001
0000
1000
0000
,
0100
0100
0100
0000
,
1000
0000
0001
0000
,
0010
0020
0000
0000
,
0130
0100
0100
0000
,
1000
1000
1000
0000
,
0001
0001
0001
0000
,
0100
0000
0010
0000
,
1000
0000
0001
0000
,
0010
0000
0001
0000
,
1000
0000
0100
0000
,
1000
0000
0010
0000
,
0200
0000
0000
0000
,
0000
0000
0000
0300
,
0020
0000
0000
0000
,
0000
0000
0000
0030
,
2000
0000
0000
0000
,
3000
0000
0000
0000
;

//--------------- dance-single - PX respects FF ----------------
#NOTES:
     dance-single:
     PX respects FF:
     Easy:
     8:
     0,0,0,0,0:
0000
0000
0000
0000
,
0000
0000
0000
0000
,
0000
0000
0000
0000
,
0000
0000
0000
0000
,
0001
0000
0000
0001
0000
0000
0000
0000
,
1000
0000
0000
1000
0000
0000
0000
0000
,
0010
0000
0000
0010
0000
0000
0010
0000
0000
0000
0000
0000
0000
0000
0000
0000
,
0100
0000
0010
0000
1000
0001
1000
0000
,
0001
0000
0010
0000
0100
1000
0100
0000
,
1000
0000
0010
0000
0100
0001
0100
0000
,
0001
0000
1000
0000
0001
0100
0001
0000
,
0010
0000
0100
0000
0010
0001
0010
0000
,
0001
0000
0100
0000
0010
1000
0010
0000
,
0100
0000
0001
0000
1000
0100
1000
0000
,
0020
0000
0000
0000
,
0130
0000
0001
0000
0010
0100
1000
0000
,
0100
0000
1000
0000
0010
1000
0001
0000
,
0010
0000
0001
0000
0010
0001
0100
0000
,
0010
0000
1000
0000
0001
1000
0100
0000
,
0010
0000
0100
0000
0010
0001
0100
0000
,
0010
0000
1000
0000
0010
0100
0001
0000
,
1000
0000
0100
0000
0010
0100
1000
0000
,
0100
0000
0010
0000
0100
0010
0001
0000
,
1000
0000
0001
0000
0100
0001
0011
0000
,
0001
0000
0100
0000
0010
1000
1100
0000
,
1000
0000
0010
0000
0100
0001
0011
0000
,
0001
0000
0100
0000
0010
1000
1010
0000
,
2000
3002
0023
0230
,
0300
0000
0010
0001
0000
0001
0100
0000
,
0002
2003
3200
0320
,
0030
0000
0100
1000
0000
1000
0010
0000
,
0200
0010
0001
0310
,
0020
1000
0100
1030
,
1002
0010
0203
0000
,
0310
0100
0002
0000
,
0013
0000
0001
0000
0100
0100
0100
0000
,
0010
0000
1000
0000
0010
0010
0010
0000
,
1000
0000
0001
0000
1000
1000
1000
0000
,
0010
0000
0100
0000
0001
0001
0001
0000
,
2000
0000
3100
0010
,
0002
0000
0000
0000
,
1003
0000
0001
0000
0100
0010
1000
0000
,
0100
0000
0010
0000
0100
1000
0010
0000
,
0100
0000
0001
0000
0010
0001
0100
0000
,
0001
0000
1000
0000
0100
1000
0010
0000
,
0100
0000
0010
0000
0100
0010
1000
0000
,
0001
0000
0010
0000
0100
0010
0001
0000
,
0010
0000
0001
0000
1000
0010
0100
0000
,
0010
0000
1000
0000
0001
0010
0100
0000
,
0000
2000
0000
0000
0000
0000
0000
3000
,
0000
0002
0000
0000
0000
0000
0000
0003
,
0000
0200
0000
0000
0000
0000
0000
0300
,
0000
0020
0000
0000
0000
0000
0000
0030
,
1001
1001
0110
0110
,
1001
1001
0110
0110
,
1001
0101
1001
1010
,
1001
1100
1001
0101
,
2000
0000
0000
3000
,
0002
0000
0000
0003
,
0010
0000
0100
0000
,
0010
0010
0010
0000
,
0100
0000
1000
0000
0010
0100
0001
0000
,
0010
0000
0100
0000
0010
0001
1000
0000
,
0100
0000
1000
0000
0010
0100
0001
0000
,
1002
0200
0000
0303
,
1001
0000
1000
0000
0100
1000
0001
0000
,
0100
0000
0010
0000
1000
0001
0010
0000
,
0100
0000
0010
0000
0001
1000
0100
0000
,
0010
0000
0100
0000
0010
0001
0100
0000
,
0010
0000
1000
0000
0001
0010
0001
0000
,
0010
0000
0100
0000
1000
0010
0100
0000
,
0010
0000
1000
0000
0001
1000
0100
0000
,
0010
0000
0100
0000
0010
0001
0100
0000
,
0020
0000
0000
0030
,
2000
0000
0000
3000
,
0002
0000
0000
0003
,
0200
0000
0000
0300
,
0020
0000
0000
0000
0000
0000
0000
0000
0000
0000
0000
0000
0000
0000
0000
0030
;

//--------------- dance-single - PX respects FF ----------------
#NOTES:
     dance-single:
     PX respects FF:
     Medium:
     12:
     0,0,0,0,0:
0000
0000
0000
0000
,
0000
0000
0000
0000
,
0000
0000
0000
0000
,
0000
0000
0000
0000
,
0201
0000
0000
0310
0000
0000
0000
0000
,
2010
0000
0000
3001
0000
0000
0000
0000
,
2100
0000
0000
3020
0000
0000
0130
0000
0001
0000
0001
0000
0001
0000
0000
0000
,
1001
0000
1100
0000
1000
0010
0110
0000
,
0101
0000
0011
0000
0001
0010
0110
0000
,
1001
0000
0011
0000
0001
1000
1010
0000
,
0101
0000
0011
0000
0100
0010
0011
0000
,
0000
0001
0100
0010
1000
0001
0010
0100
,
0000
1000
0010
0100
0001
1000
0100
0010
,
0000
0100
1000
0010
0100
0010
1000
0001
,
0000
0000
0000
0000
,
1000
0000
0001
0000
0001
0000
0001
0000
0001
0000
0000
0010
0000
0000
0100
0000
,
0010
0000
0000
0001
0000
0000
1000
0000
0010
0000
0010
0000
0100
0000
0100
0000
,
0010
1000
1000
1000
0100
0010
0010
0010
,
0001
0000
0000
1000
0000
0000
0100
0000
0010
0000
0000
0001
0000
0000
0001
0000
,
0000
0000
0100
0000
0010
0000
0000
1000
0000
0001
0000
0000
0010
0000
0100
0000
,
1000
1000
0001
0010
0100
0100
0100
0100
,
0010
0001
0001
0001
0100
0010
0010
0010
,
0100
0000
0000
0001
0000
0000
0010
0000
1000
0000
0010
0000
0001
0000
0100
0000
,
0110
0000
1010
0000
1000
0100
0110
0000
,
0011
0000
0110
0000
0100
0010
0011
0000
,
0101
0000
1010
0000
0001
1000
1010
0000
,
1010
0000
0011
0000
1000
0001
1001
0000
,
1000
0100
0001
0100
0010
0001
0100
1000
,
0000
0000
0100
0110
0000
0010
1001
0000
,
1000
0001
0100
1000
0100
0010
1000
0001
,
0000
0000
0010
0110
0000
0100
1001
0000
,
2001
0000
0010
0000
0001
0001
3001
0000
,
1002
0000
0100
0000
1000
1000
1003
0000
,
0102
0000
0023
0000
0031
0010
0011
0000
,
1200
0000
0010
0000
1300
0001
1001
0000
,
0001
0000
1000
0000
0100
0010
0100
0000
,
0010
0000
0001
0000
0100
0010
0100
0000
,
0010
0000
1000
0000
0001
0010
0001
0000
,
1000
0000
0010
0000
0100
0001
0100
0000
,
0002
0000
0000
0000
0000
0000
0000
0000
1003
0000
0000
0100
0000
0000
0010
0000
,
0200
0000
0000
0000
0000
0000
0000
0000
0310
0000
0000
0010
0000
0000
0010
0000
,
0011
0000
1100
0000
0011
1100
0011
0000
,
0101
0000
1010
0000
0101
1010
0101
0000
,
1001
0000
0110
0000
1001
0110
1001
0000
,
1100
0000
0110
0000
0011
0110
1100
0000
,
0000
0000
1000
0000
1000
0000
1000
0000
0001
0000
0000
0100
0000
0000
0010
0000
,
0000
0000
0100
0000
0100
0000
0100
0000
0100
0000
0000
0010
0000
1000
0000
0000
,
0000
0000
0001
0000
0001
0000
0001
0000
0001
0000
0000
1000
0000
0000
0100
0000
,
0010
0000
0000
0100
0000
0000
0010
0000
0001
0000
0100
0000
0010
0000
1000
0000
,
0000
0001
0010
0100
1000
0100
0010
0001
,
0000
0001
0010
0100
1000
0100
0010
0001
,
0000
0001
0010
0100
1000
0100
0010
0001
,
0000
0001
0010
0100
1000
0100
0010
0100
,
1000
0000
1000
0001
0000
0000
0001
0000
0001
0000
0001
1000
0000
0000
1000
0000
,
1000
0000
1000
0001
0000
0000
0001
0000
0001
0000
0001
1000
0000
0000
0010
0000
,
0010
0000
0010
0100
0000
0000
0100
0000
0100
0000
0100
0010
0000
0000
0010
0000
,
0010
0000
0010
0100
0000
0000
0100
0000
0100
0000
0100
0010
0000
0000
0100
0000
,
1002
0000
0000
0010
0000
1003
0000
0000
,
2001
0000
0000
0010
0000
3100
0000
0000
,
1001
0000
0000
0001
0000
0100
0000
0010
,
0110
0000
0000
1001
0000
0000
1001
0000
0000
0000
0110
0000
0000
0000
0000
0000
,
1001
0000
0001
0010
0000
0010
0001
0000
1000
0000
0010
0000
0100
0000
0000
0000
,
0110
0010
1000
0001
0010
0100
1100
0000
,
1000
0000
1000
0100
0000
0100
0010
0000
0010
0001
0000
0001
0100
0000
0010
0000
,
1000
0001
0020
0000
0001
0000
0130
0000
,
0011
0000
1100
0000
1000
0010
0110
0000
,
0101
0000
1001
0000
0001
0100
0101
0000
,
1001
0000
1010
0000
0010
0100
0101
0000
,
1001
0000
0011
0000
0010
0100
1100
0000
,
1000
0000
0000
0100
0000
0000
1000
0000
0010
0000
0010
0000
0010
0000
0010
0000
,
0100
0000
0010
0000
1000
0000
1000
0000
1000
0000
0000
0001
0000
0000
0010
0000
,
0100
0000
0000
0010
0000
0000
0001
0000
0100
0000
0100
0000
0010
0000
0000
0000
,
1010
0000
0101
0000
1010
0110
0101
0000
,
0000
0000
0001
0000
1000
0000
0100
0000
0010
0000
0000
0100
0000
0000
0100
0000
,
0000
0000
0010
0000
0001
0000
0100
0000
0010
0000
0000
1000
0000
1000
0000
0000
,
0000
0000
0001
0000
0100
0000
0010
0000
1000
0000
0000
0100
0000
0000
1000
0000
,
0010
0000
0100
0000
0001
0000
0100
0000
0010
0000
0000
1000
0000
0000
0001
0000
,
1000
0000
0100
0010
0000
0010
0100
0000
0100
0000
0100
0000
0100
0000
0100
0000
;

//--------------- dance-single - PX respects FF ----------------
#NOTES:
     dance-single:
     PX respects FF:
     Hard:
     16:
     0,0,0,0,0:
0000
0000
0000
0000
,
0000
0000
0000
0000
,
0000
0000
0000
0000
,
0000
0000
0000
0000
,
0201
0000
0000
1300
0000
0000
0000
0000
,
1200
0000
0000
0301
0000
0000
0000
0000
,
0021
0000
0000
0100
0000
0000
0031
0000
1000
0000
1000
0000
1000
0000
0000
0000
,
0000
0001
0100
1000
0100
0010
1000
0001
,
0000
1000
0100
0001
0100
0010
0001
1000
,
0000
0010
0001
0010
0100
0010
1000
0001
,
0000
0010
1000
0010
0100
0010
0001
1000
,
0000
0001
0010
0100
0010
0001
1000
0010
,
0000
0100
0010
1000
0001
0010
0100
1000
,
0000
0100
1000
0010
0100
0010
1000
0001
,
0000
0001
0010
0100
1000
0100
0010
0001
,
1001
0000
0001
0010
0001
1000
0001
1000
0100
0000
0100
0010
0000
0010
0100
1000
,
0001
0100
0000
0010
0000
0100
0010
1000
0001
0010
0001
0010
0100
1000
0100
1000
,
0010
0000
0100
0010
1000
0010
0100
0010
1000
0000
0001
0010
0100
0010
0001
1000
,
0100
0000
0010
0100
0000
0100
0010
0001
1000
0010
1000
0010
0000
0010
1000
0010
,
0000
0100
0010
1000
0001
1000
0001
0010
0000
0010
0100
0000
0010
0001
0100
0001
,
1000
0100
1000
0000
0010
0100
0010
1000
0100
0010
0100
0010
0001
0010
0001
0010
,
0100
0000
0010
0001
0100
0001
1000
0001
0100
0000
0010
1000
0100
1000
0010
1000
,
0100
0010
0100
0010
0000
0100
0010
0001
0100
0010
0100
0010
0100
0010
0100
0010
,
1000
0100
1000
0000
0001
0100
0001
0000
1001
0000
1010
0000
1001
0000
0000
0000
,
0001
0010
0001
0000
1000
0010
1000
0000
1100
0000
0011
0000
1001
0000
0000
0000
,
0001
0010
1000
0000
1000
0010
0001
0000
0011
0000
1100
0000
1001
0000
0000
0000
,
0001
0100
1000
0000
1000
0100
0001
0000
0101
0000
1010
0000
1001
0000
0000
0000
,
0001
0100
1000
0100
0010
1000
0001
0010
,
0000
0000
0100
1001
0000
0010
1001
0000
,
1000
0100
0001
0100
0010
0001
0100
0010
,
0000
0000
0100
1001
0000
0010
1001
0000
,
0201
0000
0010
0000
0001
0001
0301
0000
,
0012
0000
0100
0000
1000
1000
1003
0000
,
2001
0000
0000
0000
3010
0100
0000
0100
0002
0000
1000
0000
1003
0000
0000
0000
,
2010
0000
0100
0000
0001
0001
3001
0000
,
0100
0000
0000
0000
0010
0000
0000
0000
1000
0000
1000
0100
0000
1000
0100
0000
,
0010
0000
0000
0000
0001
0000
0000
0000
0100
0000
0100
0010
0000
0100
0010
0000
,
1000
0000
0000
0000
0001
0000
0000
0000
0010
0000
0010
0100
0000
0010
0100
0000
,
1000
0000
0000
0000
0001
0000
0000
0000
1000
0000
1000
0100
0000
1000
0100
0000
,
1001
0000
0000
0000
1100
0000
0000
0000
1000
0000
0100
0010
0000
0010
0001
0000
,
0000
0000
0000
0000
,
1000
0001
1000
0000
0001
0100
0001
0000
1010
0000
1100
0000
0011
0000
0000
0000
,
0001
0010
0001
0000
1000
0100
1000
0000
0011
0000
0110
0000
1001
0000
0000
0000
,
0001
0100
0010
0000
0100
0010
1000
0000
1001
0000
0011
0000
1100
0000
0000
0000
,
1000
0100
0010
0000
0100
1000
0010
0000
0110
0000
1001
0000
1010
0000
0000
0000
,
1001
0000
0001
0010
0100
0010
0100
1000
0001
0000
1000
0010
0000
0010
0100
0010
,
0000
0000
0100
0010
1000
0001
1000
0001
1000
0000
0001
0100
0000
0001
0000
0000
,
0000
0000
0010
0100
0010
0100
1000
0100
1000
0000
0100
0010
0000
0010
0001
0100
,
0001
0100
0000
0010
0000
0010
1000
0100
0010
0100
1000
0010
0100
0001
1000
0001
,
0000
1000
0001
0001
0010
0100
1000
0001
,
0000
1000
0001
0001
0010
0100
1000
0001
,
0000
1000
0010
0010
0100
0001
0010
0100
,
0000
0010
0100
0100
1000
0100
0010
0001
,
1001
0000
0001
0100
0000
0000
1001
0000
1001
0000
1000
0100
0000
0000
1001
0000
,
1001
0000
1000
0010
0000
0000
1001
0000
1001
0000
0001
0010
0000
0000
1001
0000
,
0101
0000
0010
1000
0000
0000
1100
0000
0011
0000
1000
0100
0000
0000
0110
0000
,
0011
0000
0100
1000
0000
0000
1010
0000
0101
0000
1000
0001
0000
0000
1001
0000
,
0001
0100
0010
0000
0010
0000
0010
1000
0000
1000
0100
0000
0100
0000
0000
0000
,
1000
0010
0100
0000
0100
0000
0100
0001
0000
0001
0010
0000
0010
0000
0000
0000
,
1001
0000
0000
0201
0000
1000
0000
0301
,
1002
0000
0000
0010
0000
0000
2003
0000
0000
0000
3001
0000
0000
0000
0000
0000
,
1001
0000
0000
0000
0000
0000
1000
0000
0000
0020
0030
0000
0000
0000
0000
0020
0030
0000
0001
0000
0000
0000
0000
0000
1001
0000
0000
0000
0000
0000
0101
0000
0000
0000
0000
0000
1001
0000
0000
0000
0000
0000
0000
0000
0000
0000
0000
0000
,
1001
0001
0101
1010
1000
1100
0011
0000
,
1000
0000
0000
0000
0000
0000
0000
0000
0000
0000
0000
0000
1000
0000
0000
0000
0000
0000
0020
0000
0030
0000
0000
0000
0000
0000
0000
0000
0000
0000
0020
0000
0030
0000
0000
0000
0001
0000
0000
0000
0000
0000
0000
0000
0000
0000
0000
0000
0001
0000
0000
0000
0000
0000
0020
0000
0000
0030
0000
0000
0000
0000
0000
0000
0000
0000
0020
0000
0000
0030
0000
0000
1000
0000
0000
0000
0000
0000
0000
0000
0000
0000
0000
0000
0001
0000
0000
0000
0000
0000
0000
0000
0000
0000
0000
0000
,
1001
0000
1000
0001
2000
0000
0000
0000
0100
0000
0000
0000
3010
0000
1000
0000
,
1001
0001
1001
1000
1010
0101
1010
1000
,
1100
0010
0011
0010
0110
1100
0011
0001
,
1001
0100
0101
0001
0101
1001
0101
0100
,
0110
0010
1010
1000
1001
0011
1001
1000
,
0100
0010
0000
0100
0000
0010
0001
0100
0010
0100
0010
0100
0010
1000
0010
1000
,
0001
0000
1000
0100
0010
0100
0010
0001
1000
0000
0010
0100
0000
0100
0001
1000
,
0100
0010
0100
0010
0000
0100
1000
0001
0100
0001
0100
0000
1001
0000
0000
0000
,
1100
0100
0011
0001
0011
1100
0011
0000
,
0000
0001
0100
0010
1000
0100
0010
0100
,
0000
0010
0001
0100
0001
1000
0100
0010
,
0000
0100
1000
0010
0100
0001
0010
0100
,
0000
0010
0001
1000
0100
1000
0010
0100
,
0001
1000
0001
1000
0000
0001
1000
0001
1000
0001
1000
0001
1000
0001
1000
0001
;
