#TITLE:RIZING YOU UP;
#SUBTITLE:;
#ARTIST:Ryu☆;
#MUSIC:RIZING YOU UP.ogg;
#BANNER:;
#BACKGROUND:RIZING YOU UP-bg.png;
#LYRICSPATH:;
#CDTITLE:;
#SAMPLESTART:33.989;
#SAMPLELENGTH:11.398;
#OFFSET:0.757;
#BPMS:0.000000=177.000000;
#STOPS:;
#TIMESIGNATURES:;
#BGCHANGES:;
#FGCHANGES:;
#ATTACKS:;
#SPEEDS:;
#SCROLLS:;

//---------------dance-single - Pandemonium X---------------
#NOTES:
     dance-single:
     Pandemonium X:
     Beginner:
     5:
     0,0,0,0,0:
// measure 0
0000
0000
0000
0000
,  // measure 1
0000
0000
0000
0000
,  // measure 2
0000
0000
0000
0000
,  // measure 3
0000
0000
0000
0000
,  // measure 4
0000
0000
0000
0000
,  // measure 5
0000
0000
0000
0000
,  // measure 6
0001
0000
0000
0000
,  // measure 7
0001
0000
0000
0000
,  // measure 8
0001
0000
0000
0000
,  // measure 9
1001
0000
0000
0000
,  // measure 10
0100
0000
0000
0000
,  // measure 11
0100
0000
0010
0000
,  // measure 12
1000
0000
0000
0000
,  // measure 13
0001
0000
1000
0000
,  // measure 14
0100
0000
0000
0000
,  // measure 15
0010
0000
0100
0000
,  // measure 16
1000
0000
0000
0000
,  // measure 17
0001
0000
1000
0000
,  // measure 18
0010
0000
0000
0010
,  // measure 19
0010
0000
0100
0000
,  // measure 20
0001
0000
1000
0000
,  // measure 21
0100
0000
0010
0000
,  // measure 22
0100
0000
0000
0100
,  // measure 23
0100
0000
1000
0000
,  // measure 24
0001
0000
0000
0000
,  // measure 25
1001
0000
0000
0000
,  // measure 26
0001
0000
1000
0000
,  // measure 27
0100
0100
0100
0000
,  // measure 28
1000
0000
0001
0000
,  // measure 29
0010
0010
0010
0000
,  // measure 30
0001
0000
0010
0000
,  // measure 31
0100
0100
0100
0000
,  // measure 32
1000
0000
0010
0000
,  // measure 33
1000
0000
0001
0000
,  // measure 34
1000
0000
0100
0000
,  // measure 35
0010
0010
0010
0000
,  // measure 36
0100
0000
1000
0000
,  // measure 37
0001
0001
0001
1000
,  // measure 38
0001
0000
0100
0000
,  // measure 39
0010
0010
0010
0000
,  // measure 40
0100
0000
0001
0000
,  // measure 41
1000
0000
0100
0000
,  // measure 42
0000
1000
0100
1000
,  // measure 43
0100
1000
0100
1000
,  // measure 44
0000
0000
0000
0000
,  // measure 45
0000
0000
0000
0000
,  // measure 46
0001
0010
0001
0010
,  // measure 47
0001
0010
0001
0010
,  // measure 48
0000
0000
0000
0000
,  // measure 49
0000
0001
0000
1000
,  // measure 50
1001
0000
0000
0000
,  // measure 51
0000
0000
1000
1000
,  // measure 52
1000
0000
0000
0000
,  // measure 53
0010
0000
0000
0000
,  // measure 54
0100
0000
0000
0000
,  // measure 55
0100
0000
0001
0001
,  // measure 56
0001
0000
0000
0000
,  // measure 57
0000
1000
0000
0000
0000
0001
0000
0000
,  // measure 58
0100
0000
0000
0100
,  // measure 59
0100
0000
0010
0000
,  // measure 60
1001
0000
0001
0000
,  // measure 61
1000
0000
0100
0000
,  // measure 62
0010
0000
0000
0010
0000
0000
0001
0000
,  // measure 63
0001
1000
1000
0010
,  // measure 64
0110
0000
0100
0000
,  // measure 65
1001
0000
0000
0000
,  // measure 66
0020
0000
0000
0030
0000
0000
0000
0000
,  // measure 67
1000
0000
0100
0000
,  // measure 68
1000
0000
0010
0000
,  // measure 69
0100
0000
0001
0000
,  // measure 70
0010
0000
0001
1000
,  // measure 71
0100
0000
1000
0000
,  // measure 72
0010
0000
0100
0000
,  // measure 73
0001
0000
0010
0000
,  // measure 74
0100
0100
0000
0100
,  // measure 75
0010
0000
0001
0000
,  // measure 76
1000
0000
0010
0000
,  // measure 77
1000
0000
0100
0000
,  // measure 78
1000
0000
0001
0000
,  // measure 79
0100
0000
0001
0000
,  // measure 80
0010
0000
0001
0000
,  // measure 81
1000
0000
0001
0000
,  // measure 82
0100
0100
0000
0100
,  // measure 83
1001
0000
0000
0000
;

//---------------dance-single - Pandemonium X---------------
#NOTES:
     dance-single:
     Pandemonium X:
     Easy:
     9:
     0,0,0,0,0:
// measure 0
0000
0000
0000
0000
,  // measure 1
0000
0000
0000
0000
,  // measure 2
0000
0000
0000
0000
,  // measure 3
0000
0000
0000
0000
,  // measure 4
0000
0000
0000
0000
,  // measure 5
0000
0000
0000
0000
,  // measure 6
0000
1000
0000
1000
0000
1000
0100
1000
,  // measure 7
0000
0001
0000
0001
0000
0001
0100
0001
,  // measure 8
0000
1000
0000
1000
0000
1000
0000
1000
,  // measure 9
0000
1000
0010
1000
0000
0001
1001
0000
,  // measure 10
0001
0000
0000
0100
0000
0000
0001
0000
,  // measure 11
1000
0000
0100
0000
,  // measure 12
0010
0000
0100
0100
,  // measure 13
1000
1000
0010
0010
,  // measure 14
0100
0000
0000
0001
0000
0000
0010
0000
,  // measure 15
0100
0000
0010
0000
,  // measure 16
0001
0000
1000
0000
,  // measure 17
0001
0000
1000
0000
,  // measure 18
0001
0100
0001
0010
,  // measure 19
0100
1000
0100
0100
,  // measure 20
0100
0010
0001
1000
,  // measure 21
0010
1000
0001
0010
,  // measure 22
0100
0010
0001
1000
,  // measure 23
0010
0100
0001
1000
,  // measure 24
2002
0000
0000
3003
,  // measure 25
1000
0100
0010
0001
0000
0000
0000
0000
,  // measure 26
0010
0001
0100
0001
,  // measure 27
1000
0010
0110
0101
,  // measure 28
0001
1000
0100
1000
,  // measure 29
0010
0100
0110
1010
,  // measure 30
0010
0100
0001
1000
,  // measure 31
0100
0010
0011
0101
,  // measure 32
0001
0100
0010
1000
,  // measure 33
0100
0020
0000
0000
,  // measure 34
0130
1000
0010
0100
,  // measure 35
0001
1000
1010
1100
,  // measure 36
1000
0100
1000
0001
,  // measure 37
0100
0010
0110
0101
,  // measure 38
0001
1000
0010
1000
,  // measure 39
0100
0010
0011
0110
,  // measure 40
0100
1000
0001
0100
,  // measure 41
0010
0000
1000
0200
0000
0000
0000
0000
,  // measure 42
0300
0010
0001
0100
,  // measure 43
0010
0000
1000
0000
0001
0000
0010
0200
,  // measure 44
0000
0010
0000
0010
0000
0010
0000
0010
,  // measure 45
0000
0010
0000
0010
0000
0010
0310
0000
,  // measure 46
0100
1000
0001
0100
,  // measure 47
0010
0000
1000
0000
0001
0000
1000
0020
,  // measure 48
0000
0100
0000
0100
0000
0100
0000
0100
,  // measure 49
0000
0130
0001
1000
0000
1000
0001
0000
,  // measure 50
2000
0000
0000
3001
0000
0000
2000
0000
,  // measure 51
3001
0000
0100
0001
,  // measure 52
0010
0000
0100
0010
,  // measure 53
0001
1000
0100
1000
,  // measure 54
0002
0000
0000
1003
0000
0000
0002
0000
,  // measure 55
1003
0000
0100
1000
,  // measure 56
0010
0000
0000
0000
0100
0000
0000
0001
,  // measure 57
0000
1000
0000
0001
,  // measure 58
1001
1000
1000
1100
,  // measure 59
1001
1000
1010
0001
,  // measure 60
0101
0001
0011
0011
,  // measure 61
0110
0110
1100
1100
,  // measure 62
1001
1001
0101
0101
,  // measure 63
1010
1010
1001
0110
,  // measure 64
1002
0000
1000
1003
,  // measure 65
0022
0000
0000
0033
,  // measure 66
0001
0010
0100
1000
0000
0000
0000
0000
,  // measure 67
0002
0103
0020
1030
,  // measure 68
0020
0130
0002
0013
,  // measure 69
0200
0310
0002
0013
,  // measure 70
0200
1300
0200
2300
,  // measure 71
3020
0130
0002
0013
,  // measure 72
0200
0310
0002
0103
,  // measure 73
0020
0130
0002
1003
,  // measure 74
0001
0100
0001
0100
0000
0000
0000
0000
,  // measure 75
0002
1003
0020
1030
,  // measure 76
0002
0013
0002
1003
,  // measure 77
0200
0310
0200
1300
,  // measure 78
0020
0130
0002
2003
,  // measure 79
3020
0130
0002
0013
,  // measure 80
0200
0310
0200
1300
,  // measure 81
0200
0310
0200
1300
,  // measure 82
0001
0100
0000
0001
0000
1000
0100
0010
,  // measure 83
0001
0000
0000
0000
;

//---------------dance-single - Pandemonium X---------------
#NOTES:
     dance-single:
     Pandemonium X:
     Medium:
     12:
     0,0,0,0,0:
// measure 0
0000
0000
0000
0000
,  // measure 1
0000
0000
0000
0000
,  // measure 2
0000
0000
0000
0000
,  // measure 3
0000
0000
0000
0000
,  // measure 4
0000
0000
0000
0000
,  // measure 5
0000
0000
0000
0000
,  // measure 6
0000
0001
0000
0001
0000
0001
1000
0001
,  // measure 7
0000
0001
0000
0001
0000
0001
1000
0001
,  // measure 8
0000
0001
0000
0001
0000
0001
0000
0001
,  // measure 9
0100
0010
1000
0001
0000
1000
0001
0000
,  // measure 10
1000
0000
0000
0100
0000
0000
0010
0000
,  // measure 11
0001
0000
0010
0001
0010
0000
0010
0100
,  // measure 12
0010
0000
0100
0010
,  // measure 13
0001
1000
0010
0100
,  // measure 14
0010
0000
0000
1000
0000
0000
0100
0000
,  // measure 15
1000
0000
0010
1000
0010
0000
0010
0100
,  // measure 16
0010
0000
0000
0000
0100
0000
0010
0100
,  // measure 17
0000
0100
0001
1000
0000
1000
0100
0000
,  // measure 18
1000
0100
0010
0001
0000
1000
0100
0010
,  // measure 19
0001
0000
0010
0001
0010
0000
0010
0100
,  // measure 20
0010
0000
0001
0010
,  // measure 21
0100
1000
0001
1000
,  // measure 22
1000
0100
0010
0001
0000
1000
0100
0010
,  // measure 23
0001
0000
1000
0010
1000
0000
1000
0100
,  // measure 24
2000
0000
0100
3100
,  // measure 25
1000
0100
0010
0001
0000
0000
0000
0000
,  // measure 26
1000
0000
0001
0100
0000
0001
0000
0010
,  // measure 27
0000
0100
1000
0000
1100
0000
1010
0000
,  // measure 28
0010
0000
0100
0001
0000
0010
0100
0010
,  // measure 29
0000
0001
1000
0000
0101
0000
0011
0000
,  // measure 30
0001
0000
1000
0100
0000
0010
0000
0100
,  // measure 31
0000
0010
0001
0000
0011
0000
0101
0000
,  // measure 32
0001
0000
0100
0010
0000
0100
0001
0020
,  // measure 33
0000
0130
1000
0020
0000
1030
0100
0010
,  // measure 34
0001
0010
0001
0100
0000
0010
0000
1000
,  // measure 35
0000
0100
0010
0001
0010
0000
1100
0000
,  // measure 36
0100
0000
1000
0010
0000
0100
0001
0010
,  // measure 37
0000
0100
1000
0010
0100
0000
1010
0000
,  // measure 38
0010
0100
0001
1000
0000
0100
0000
0010
,  // measure 39
0000
0100
0010
0001
1000
0000
0101
0000
,  // measure 40
0100
0000
0001
0010
0000
0100
0010
0002
,  // measure 41
0000
0013
0100
2000
0000
0000
0000
0000
,  // measure 42
3001
0200
2300
3200
,  // measure 43
0302
0000
0023
0000
2030
0000
3010
0100
,  // measure 44
0000
1000
0000
1000
0000
1000
0000
1000
,  // measure 45
0000
1000
0000
1000
0000
1000
1001
0000
,  // measure 46
0002
0023
2030
3020
,  // measure 47
0032
0000
0203
0000
2300
0000
3100
0001
,  // measure 48
0000
0001
0000
0001
0000
0001
0000
0001
,  // measure 49
0000
0001
1000
0010
0000
0100
1001
0000
,  // measure 50
0001
0100
0010
1000
0000
0001
0100
0010
,  // measure 51
1000
0000
0001
0001
0001
0000
1000
1000
,  // measure 52
1000
0000
0001
0010
,  // measure 53
0100
1000
0001
1000
,  // measure 54
0001
0010
0100
1000
0000
0001
0010
0100
,  // measure 55
1000
0000
0100
0100
0100
0000
0010
0010
,  // measure 56
0010
0000
0000
0000
0100
0000
0010
0100
,  // measure 57
0000
1000
0001
0001
0000
1000
1001
0000
,  // measure 58
0001
1000
0001
1000
0000
1000
0010
1000
,  // measure 59
0010
0000
0010
0100
0010
0000
0010
1000
,  // measure 60
0010
0000
0101
0011
,  // measure 61
0101
1010
1100
0110
,  // measure 62
0100
1000
0010
0100
0000
0100
0001
0010
,  // measure 63
1000
0000
0001
0010
0001
0000
1000
0100
,  // measure 64
1000
0000
0000
0000
0100
0000
1000
0001
,  // measure 65
0000
0100
0010
1000
0000
0001
0010
0100
,  // measure 66
1000
0100
0010
0001
0000
0001
0010
0100
,  // measure 67
0010
0000
0000
0001
0000
0000
0100
0000
0010
0000
0000
1000
0000
0000
0001
0000
,  // measure 68
0010
0000
0000
0100
0000
0000
0010
0000
0001
0000
0000
1000
0000
0000
0010
0000
,  // measure 69
1000
0000
0000
0100
0000
0000
1000
0000
0001
0000
0000
0010
0000
0000
0100
0000
,  // measure 70
0010
0000
0000
0001
0000
0000
0100
0000
0201
0000
0000
0010
0000
0000
0301
0000
,  // measure 71
1001
0000
0000
1000
0000
0000
0010
0000
1000
0000
0000
0001
0000
0000
0010
0000
,  // measure 72
0100
0000
0000
0010
0000
0000
0001
0000
1000
0000
0000
0100
0000
0000
0010
0000
,  // measure 73
0100
0000
0000
1000
0000
0000
0010
0000
0100
0000
0000
0001
0000
0000
0010
0000
,  // measure 74
0100
0100
0010
0100
0000
0100
0010
0001
,  // measure 75
0101
0000
0000
0100
0000
0000
0010
0000
0110
0000
0000
0010
0000
0000
1000
0000
,  // measure 76
1100
0000
0000
1000
0000
0000
0001
0000
0011
0000
0000
0010
0000
0000
0100
0000
,  // measure 77
1100
0000
0000
1000
0000
0000
0001
0000
0101
0000
0000
0010
0000
0000
1000
0000
,  // measure 78
1010
0000
0000
0010
0000
0000
1000
0000
1200
0000
0000
0010
0000
0000
1300
0000
,  // measure 79
1001
0000
0000
0001
0000
0000
0010
0000
0011
0000
0000
0001
0000
0000
0100
0000
,  // measure 80
0110
0000
0000
0010
0000
0000
1000
0000
1100
0000
0000
0100
0000
0000
1000
0000
,  // measure 81
1001
0000
0000
0001
0000
0000
0100
0000
0010
0000
0000
0010
0000
0000
0100
0000
,  // measure 82
0001
0010
0100
1000
0000
1000
0100
0010
,  // measure 83
0011
0000
0000
0000
;

//---------------dance-single - Pandy as "The Riziler"---------------
#NOTES:
     dance-single:
     Pandy as "The Riziler":
     Hard:
     14:
     0,0,0,0,0:
// measure 0
0000
0000
0000
0000
,  // measure 1
0000
0000
0000
0000
,  // measure 2
0000
0000
0000
0000
,  // measure 3
0000
0000
0000
0000
,  // measure 4
0000
0000
0000
0000
,  // measure 5
0000
0000
0000
0000
,  // measure 6
0001
0100
0001
0100
0001
0100
0010
1000
,  // measure 7
0100
1000
0100
1000
0100
1000
0100
0010
,  // measure 8
0001
0010
0001
0010
0001
0010
0001
0010
,  // measure 9
0001
0100
0010
1000
0000
0100
1001
0000
,  // measure 10
0001
0001
1000
0001
0000
1000
0001
0001
,  // measure 11
1000
0000
0001
0100
0001
0000
1000
0010
,  // measure 12
1000
0000
0101
0011
,  // measure 13
1100
1010
0101
1001
,  // measure 14
1000
1000
0001
1000
0000
1000
0001
0001
,  // measure 15
1000
0000
0100
1000
0100
0000
0010
0001
,  // measure 16
0010
0000
0000
0000
0100
0000
0100
0010
,  // measure 17
0000
0010
0001
1000
0000
1000
0001
0010
,  // measure 18
0100
0100
1000
1100
0000
0010
0010
0001
,  // measure 19
0101
0000
0001
0100
0110
0000
0100
0001
,  // measure 20
1001
0000
0101
0011
,  // measure 21
0110
1100
0110
0011
,  // measure 22
1000
0100
0010
0110
0000
1000
0100
0010
,  // measure 23
0110
0000
0010
0100
1100
0000
1000
0001
,  // measure 24
0201
0000
0000
0000
1000
0000
0301
1000
,  // measure 25
0002
2003
3200
0320
0030
0010
0100
1000
,  // measure 26
0001
0001
0010
0001
0000
0100
0000
0010
,  // measure 27
0000
0100
0001
0010
0011
0000
0110
0000
,  // measure 28
1100
0000
0001
0001
0000
1000
0010
0100
,  // measure 29
0000
0100
0010
1000
1100
0000
0011
0000
,  // measure 30
0101
0001
0100
0010
0000
0100
0000
0010
,  // measure 31
0000
0100
0001
0010
0110
0000
1100
0000
,  // measure 32
1010
0000
1000
0100
0000
0010
0001
0100
,  // measure 33
0000
0010
1000
0100
0000
0100
0010
0100
,  // measure 34
1000
1000
0001
0010
0000
0100
0000
1000
,  // measure 35
0000
0100
1000
0010
1010
0000
1001
0000
,  // measure 36
0011
0000
0001
1000
0000
0010
1000
0010
,  // measure 37
0000
0100
0001
1000
1001
0000
0101
0000
,  // measure 38
0001
0001
1000
0010
0000
1000
0000
0001
,  // measure 39
0000
0010
0100
1000
1100
0000
1010
0000
,  // measure 40
1001
0000
1000
0001
0000
1000
0100
1000
,  // measure 41
0000
0001
0010
0002
0000
0000
0003
0000
,  // measure 42
1000
0000
0000
0001
0100
0000
0000
0100
0010
0000
0000
0010
1000
0000
0000
1000
,  // measure 43
0100
0000
0000
0100
0010
0000
0000
0010
0001
0000
0000
0001
0100
0000
0010
0000
,  // measure 44
1000
0001
1000
0001
1000
0001
1000
0001
,  // measure 45
1000
0001
1000
0001
1000
0010
1001
0000
,  // measure 46
1000
0000
0000
1000
0100
0000
0000
0100
0010
0000
0000
0010
0001
0000
0000
0001
,  // measure 47
0100
0000
0000
0100
0010
0000
0000
0010
1000
0000
0000
1000
0100
0000
0010
0000
,  // measure 48
0001
1000
0001
1000
0001
1000
0001
1000
,  // measure 49
0100
0010
0001
1000
0000
0010
1001
0000
,  // measure 50
0001
0100
0010
1000
0000
0001
0100
0010
,  // measure 51
1000
0000
0001
0001
0001
0000
1000
1000
,  // measure 52
1000
0000
0001
0100
,  // measure 53
0001
1000
0100
1000
,  // measure 54
1000
0100
0010
0001
0000
1000
0100
0010
,  // measure 55
0001
0000
1000
1000
1000
0000
0001
0001
,  // measure 56
0001
0000
0000
0000
1000
0000
0001
0100
,  // measure 57
0000
0100
0010
0010
0000
0100
1001
0000
,  // measure 58
0001
0001
1000
1001
0000
0001
0001
1000
,  // measure 59
1001
0000
0001
0001
0101
0000
0100
0100
,  // measure 60
0110
0000
1010
0101
,  // measure 61
0011
1100
0110
0011
,  // measure 62
0100
0100
1000
0010
0100
0001
0001
0010
,  // measure 63
0100
0010
0001
0001
0001
1000
0010
0010
,  // measure 64
0020
0000
0100
1000
,  // measure 65
0130
0001
0010
0100
0000
0010
0001
1000
,  // measure 66
0002
0203
0302
0023
0030
0001
0010
0100
,  // measure 67
1000
0000
0000
0100
1000
0000
0010
0000
0100
0000
0000
0001
0010
0000
0100
0000
,  // measure 68
0010
0000
0000
0001
0010
0000
0100
0000
1000
0000
0000
0001
0100
0000
0010
0000
,  // measure 69
1000
0000
0000
0100
0010
0000
0100
0000
1000
0000
0000
0001
0010
0000
0100
0000
,  // measure 70
0010
0000
0000
0001
0100
0000
0010
0000
1010
0000
0000
0101
0000
0000
1001
0000
,  // measure 71
1100
0000
0000
0100
1000
0000
0100
0000
0010
0000
0000
0010
0100
0000
0010
0000
,  // measure 72
0001
0000
0000
0001
0100
0000
0010
0000
0100
0000
0000
0100
0001
0000
1000
0000
,  // measure 73
0100
0000
0000
0100
0010
0000
0100
0000
1000
0000
0000
1000
0001
0000
0100
0000
,  // measure 74
0001
0001
0001
0100
0000
0001
0100
0010
,  // measure 75
1000
0000
0001
0010
0001
0000
0010
0000
0100
0000
1000
0100
1000
0000
0100
0000
,  // measure 76
0010
0000
0001
0010
0001
0000
0010
0000
0100
0000
1000
0100
1000
0000
0001
0000
,  // measure 77
1000
0000
0010
1000
0010
0000
1000
0000
0001
0000
0010
0001
0010
0000
0001
0000
,  // measure 78
1000
0000
0010
1000
0010
0000
1000
0000
1001
0000
0000
1010
0000
0000
0101
0000
,  // measure 79
0001
0000
0010
0100
0010
0000
0001
0000
1000
0000
0100
0010
0100
0000
1000
0000
,  // measure 80
0001
0000
0010
0100
0010
0000
1000
0000
0001
0000
0010
0100
0010
0000
1000
0000
,  // measure 81
0001
0000
0100
0010
0100
0000
0010
0000
1000
0000
0010
0100
0010
0000
1000
0000
,  // measure 82
0100
0010
0001
1000
0000
0001
0010
0100
,  // measure 83
1100
0000
0000
0000
;

//---------------dance-single - Pandy as "The Riziler"---------------
#NOTES:
     dance-single:
     Pandy as "The Riziler":
     Challenge:
     17:
     0,0,0,0,0:
// measure 0
0000
0000
0000
0000
,  // measure 1
0000
0000
0000
0000
,  // measure 2
0000
0000
0000
0000
,  // measure 3
0000
0000
0000
0000
,  // measure 4
0000
0000
0000
0000
,  // measure 5
0000
0000
0000
0000
,  // measure 6
0001
0100
0010
0100
0001
0010
1000
0010
,  // measure 7
0001
0100
0010
0100
0001
0010
1000
0010
,  // measure 8
0001
0100
0010
0100
0001
0100
0010
0100
,  // measure 9
0110
0001
1001
1100
0000
0001
1001
0000
,  // measure 10
1000
0100
0010
MMMM
0000
0010
0100
1000
,  // measure 11
MMMM
0000
0100
0001
MMMM
0000
0001
1000
,  // measure 12
MMMM
0000
0101
0011
,  // measure 13
0110
1100
1010
1001
,  // measure 14
1000
0001
0100
MMMM
0000
0010
0100
0001
,  // measure 15
MMMM
0000
0001
1000
MMMM
0000
1000
0001
,  // measure 16
MMMM
0000
0000
0000
0001
0000
0100
MMMM
,  // measure 17
0000
0100
0010
MMMM
0000
0010
0100
0001
,  // measure 18
1001
1000
0100
0110
0000
1001
1000
0100
,  // measure 19
0110
0000
0001
0010
MMMM
0000
0010
0001
,  // measure 20
MMMM
0000
1001
0101
,  // measure 21
1010
1100
0110
1001
,  // measure 22
0001
0100
0001
0100
0001
0100
0001
0100
0010
1000
0010
1000
0010
1000
0010
1000
,  // measure 23
0100
1000
0100
1000
0001
0100
0001
0100
0001
0010
0100
0010
0100
1000
0100
1000
,  // measure 24
0100
0010
0001
0100
0010
1000
0001
0010
0100
0010
0001
0100
0010
1000
0001
0010
,  // measure 25
0002
0000
0000
0020
0003
0000
0230
0000
0000
0320
0000
0000
0000
0000
0000
0032
0000
0000
0013
0000
0000
0100
0000
0000
,  // measure 26
1100
1000
0010
1010
0000
0101
0000
0011
,  // measure 27
0000
0010
0100
1000
0002
0003
MMMM
0000
,  // measure 28
1001
0000
0001
0101
0000
0100
0010
1010
,  // measure 29
0000
0010
0100
0001
2000
3000
MMMM
0000
,  // measure 30
1001
0001
1000
1010
0000
0101
0000
0011
,  // measure 31
0000
0001
0010
0100
2000
3000
MMMM
0000
,  // measure 32
1001
0000
0001
0100
0000
0001
0100
0020
,  // measure 33
0000
1030
0100
0020
0000
0130
1000
0001
,  // measure 34
0101
0001
0010
0011
0000
1100
0000
1001
,  // measure 35
0000
0001
0100
0001
0020
0030
MMMM
0000
,  // measure 36
1001
0000
1000
1010
0000
1000
0001
0011
,  // measure 37
0000
0010
0100
1000
0020
0030
MMMM
0000
,  // measure 38
1001
1000
0001
0011
0000
1100
0000
1001
,  // measure 39
0000
0001
0010
0100
0020
0030
MMMM
0000
,  // measure 40
1001
0000
1000
0100
0000
1000
0100
0020
,  // measure 41
0000
0031
0100
0020
0000
0000
0030
0000
,  // measure 42
1001
0000
1000
0100
0001
0000
0100
0000
1000
0000
0010
0001
0010
0000
1000
0000
,  // measure 43
0001
0000
1000
0100
0001
0000
0100
0000
1000
0000
0010
0001
0010
0000
1000
0000
,  // measure 44
0001
0100
1000
0100
0001
0100
1000
0100
,  // measure 45
0001
0100
1000
0100
0001
0101
1001
0000
,  // measure 46
1001
0000
0001
0010
1000
0000
0010
0000
0001
0000
0100
1000
0100
0000
0001
0000
,  // measure 47
1000
0000
0001
0010
1000
0000
0010
0000
0001
0000
0100
1000
0100
0000
0001
0000
,  // measure 48
1000
0100
0001
0100
1000
0100
0001
0100
,  // measure 49
1000
0100
0010
0001
0000
0011
1001
0000
,  // measure 50
0002
0203
0320
2030
0000
3002
0203
0320
,  // measure 51
2030
0000
3001
1000
MMMM
0000
1000
0001
,  // measure 52
MMMM
0000
0002
0023
,  // measure 53
0230
0320
0032
2003
,  // measure 54
3002
0023
0230
2300
3000
0002
0023
0230
,  // measure 55
2300
0000
3001
1000
MMMM
0000
1000
0001
,  // measure 56
MMMM
0000
0000
0000
1001
0000
0001
0101
,  // measure 57
0000
0000
0001
0000
0020
0030
0020
0030
0000
0000
1000
0000
1001
0000
0000
0000
,  // measure 58
0201
0301
0102
1003
0000
1200
1300
2100
,  // measure 59
3001
0000
0000
0000
1000
0000
0020
0030
0020
0030
0000
0000
0001
0000
0200
0300
,  // measure 60
0200
0300
0000
0000
0000
0000
0000
0000
1100
0000
0000
0000
1010
0000
0000
0000
,  // measure 61
0011
1100
0110
1001
,  // measure 62
1000
0010
1000
0010
1000
0010
1000
0010
0100
0001
0100
0001
0100
0001
0100
0001
,  // measure 63
0010
0001
0010
0001
1000
0010
1000
0010
1000
0100
0010
0100
0010
0001
0010
0001
,  // measure 64
0010
0100
1000
0010
0100
0001
1000
0100
0010
0100
1000
0010
0100
0001
1000
0100
,  // measure 65
1000
0001
MMMM
0001
1000
MMMM
1000
0000
,  // measure 66
0002
2003
3200
0320
0030
0001
0010
0100
,  // measure 67
1001
0000
1000
0001
0000
0010
0100
0000
1000
0000
0100
0010
0000
0010
0001
0000
,  // measure 68
0100
0000
0010
1000
0000
0100
0010
0000
0001
0000
0100
0010
0000
0100
0001
0000
,  // measure 69
1000
0000
0100
1000
0000
0100
0010
0000
0001
0000
0010
0100
0000
0010
0001
0000
,  // measure 70
1000
0000
0001
0010
0000
0010
0100
0000
0110
0000
0000
1100
0000
0000
1010
0000
,  // measure 71
1100
0000
0100
1000
0000
0001
0100
0000
0010
0000
1000
0100
0000
0010
0100
0000
,  // measure 72
0010
0000
0001
0100
0000
0010
0100
0000
0001
0000
1000
0100
0000
0010
0100
0000
,  // measure 73
1000
0000
0100
0010
0000
0100
1000
0000
0001
0000
0001
0100
0000
0010
0100
0000
,  // measure 74
0001
0001
1000
0200
0000
1300
0100
0010
,  // measure 75
1001
0000
0001
0010
0000
0010
0001
0000
1001
0000
1000
0100
0000
0100
1000
0000
,  // measure 76
1010
0000
0010
0100
0000
0100
0010
0000
0101
0000
0001
0010
0000
0010
0001
0000
,  // measure 77
1100
0000
1000
0001
0000
0001
1000
0000
1010
0000
0010
0100
0000
0100
0010
0000
,  // measure 78
0101
0000
0001
1000
0000
1000
0001
0000
1100
0000
1000
0100
0000
0100
1000
0000
,  // measure 79
0011
0000
0001
0010
0000
1000
0010
0000
1001
0000
0001
0100
0000
1000
0100
0000
,  // measure 80
1001
0000
1000
0100
0000
0001
0100
0000
1001
0000
1000
0100
0000
0001
0100
0000
,  // measure 81
1000
0000
0000
1000
0000
0000
0001
0000
0100
0000
0000
0100
0000
0000
0010
0000
,  // measure 82
2000
3200
2300
3001
0000
1000
0100
0010
,  // measure 83
0022
0000
0000
0000
,  // measure 84
0033
0000
0000
0000
;
