#TITLE:Programmed World;
#SUBTITLE:;
#ARTIST:kors k as StripE;
#TITLETRANSLIT:;
#SUBTITLETRANSLIT:;
#ARTISTTRANSLIT:;
#GENRE:;
#CREDIT:;
#MUSIC:Programmed World.ogg;
#BANNER:Programmed World-bn.png;
#BACKGROUND:Programmed World-bg.png;
#CDTITLE:;
#SAMPLESTART:28.646;
#SAMPLELENGTH:12.548;
#SELECTABLE:YES;
#OFFSET:-0.413;
#BPMS:0.000=153.012
,64.000=76.506
,66.000=38.253
,67.000=153.012
,96.000=306.025
,97.000=153.012
,129.000=76.506
,143.000=38.253
,144.000=153.012
,172.000=76.506
,174.000=153.012
,268.000=76.506
;
#STOPS:95.000=0.196
,95.250=0.196
,95.500=0.196
,95.750=0.196
,96.000=0.049
,96.250=0.049
,96.500=0.049
,96.750=0.049
,204.000=0.196
,204.500=0.196
,235.750=0.392
;
#BGCHANGES:;
#FGCHANGES:;

//--------------- dance-single - Pandemonium X ----------------
#NOTES:
     dance-single:
     Pandemonium X:
     Beginner:
     4:
     0,0,0,0,0:
0000
0000
0000
0000
,
0000
0000
0000
0000
,
0002
0000
0000
0000
,
0000
0000
0000
0003
,
2000
0000
3000
0000
,
0000
0000
0000
0000
,
0020
0000
0000
0000
,
0000
0000
0000
0030
,
0200
0000
0000
0000
,
0300
0000
0000
0000
,
0001
0000
0000
0001
0000
0000
0001
0000
,
0000
0000
0000
0000
,
1000
0000
0000
1000
0000
0000
1000
0000
,
0000
0000
0000
0000
,
0010
0000
0000
0100
0000
0000
0000
0010
,
0000
0000
0000
0100
0000
0000
0000
0000
,
1001
0000
0000
0001
,
0000
0000
0000
1000
,
0000
0100
0000
1000
,
0000
0000
0000
0010
,
0000
0100
0000
0001
,
0000
0000
0000
0010
,
0000
0001
0000
0010
,
0000
0000
0000
0200
,
0300
1000
0000
0000
,
0000
0001
0000
0010
,
0000
0001
0000
0000
,
0000
1000
0000
0010
,
0000
0100
0000
0000
,
0000
0010
0000
1000
,
0000
0010
0000
0000
,
0000
0100
0000
0001
,
0000
2001
0000
0000
,
3000
0002
0003
0000
,
0000
0020
0000
0000
,
0000
0030
0200
0000
0000
0000
0300
0000
,
1000
0000
0000
0000
,
0001
0000
0000
0000
,
0010
0000
0000
0000
,
0100
0000
1000
0000
,
0010
0000
0010
0000
,
0100
0000
0100
0000
,
0001
0001
1000
1000
,
1001
0000
0001
0000
,
0000
0000
0100
0000
,
0000
0000
0010
0000
,
0000
0000
1000
0000
,
0001
0000
1000
0000
,
0000
0000
0100
0000
,
0000
0000
0010
0000
,
0000
0000
0001
0000
,
0100
0010
0000
0000
,
0000
0100
0000
0000
,
0000
0001
0000
0000
,
0000
1000
0000
0000
,
0000
0010
0000
0000
,
0000
0100
0000
0000
,
0000
0010
0000
0000
,
0000
1000
0000
0001
,
1000
0000
0001
0000
,
0100
0000
0001
0000
,
0010
0000
0001
0000
,
1000
0000
0001
0000
,
0100
0000
0001
0000
,
0010
0000
0100
0000
,
1000
0000
0001
0000
,
1000
0000
0001
0000
,
0110
0000
0000
0000
;

//--------------- dance-single - Pandemonium X ----------------
#NOTES:
     dance-single:
     Pandemonium X:
     Easy:
     7:
     0,0,0,0,0:
0000
0000
0000
0000
,
0000
0000
0000
0000
,
0001
0000
0000
1000
0000
0000
0200
0000
,
0000
0000
0000
0000
,
0020
0000
0000
0000
0000
0000
0000
0330
,
0000
0000
0000
0000
,
1000
0000
0000
0001
0000
1000
0000
0001
,
0000
0000
0000
0200
0000
0000
0000
0000
,
0020
0000
0000
0000
,
0330
0000
0000
0000
,
1001
0000
0000
0001
0000
0000
0020
0000
,
0000
0000
0000
0000
,
0130
0000
0000
2000
0000
0000
3001
0101
,
0000
0000
0000
0000
,
0010
0100
0001
1000
0000
0100
0000
2000
,
0000
0000
0000
0002
0000
0000
0000
3003
,
0220
0000
0300
1030
,
0001
0010
0001
1000
,
1000
0001
0001
1000
,
0001
0000
0100
0000
0001
0010
0001
0000
,
0010
0100
1000
0010
,
0100
0001
0010
0001
,
1000
0100
0010
0100
,
1000
0000
0001
0000
0100
0000
0101
1010
,
0201
0310
0100
0001
,
1000
0100
1000
0001
,
0100
0001
0010
0100
,
1000
0010
0100
0000
0010
0000
0100
0000
,
0001
1000
0100
1000
,
0001
0010
0100
0010
,
0001
1000
0100
0010
,
0100
2000
3010
0200
,
0301
0000
0000
0000
1001
0000
0000
1000
0000
0000
0020
0000
0000
0000
0000
0000
,
0000
0000
0000
0000
0000
0000
0000
0000
0030
0000
0000
0100
0000
0000
0000
0000
,
0000
0000
0000
0000
0010
0000
0000
1000
0000
0000
0200
0000
0000
0000
0000
0000
,
0000
0020
0000
0330
,
0001
0100
0010
1000
,
0100
0010
0001
0010
,
0001
0100
0010
1000
,
0001
1000
0100
0010
,
0100
0100
1000
1000
,
0001
0001
0100
0100
,
0010
0001
0010
1000
,
0200
0000
0310
0001
,
0100
0001
1000
0100
,
0010
0100
1000
0001
,
0100
0000
0001
0010
0100
0000
0010
0000
,
0001
1000
0010
1000
,
0001
0010
0001
1000
,
0100
0010
0100
1000
,
0010
0100
0001
1000
,
1001
0110
0001
0000
1000
0000
0010
0000
,
1000
0100
1000
0001
,
0100
0001
0010
0100
,
1000
0100
1000
0010
,
0100
1000
0100
0010
,
1000
0001
0010
0100
,
0010
0001
0100
0010
,
0001
0010
0100
0001
,
1000
0001
0100
0000
0001
0000
1000
0000
,
0100
1000
0010
0000
0100
0000
0001
0000
,
1000
0100
0010
0000
0100
0000
1000
0000
,
0002
0103
0020
1030
,
0100
0010
0001
0000
0010
0000
0001
0000
,
1000
0001
0100
0000
0001
0000
1000
0000
,
0001
0010
0100
0000
0010
0000
0001
0000
,
0100
0001
0010
0000
0100
1000
0010
0000
,
2002
3003
0000
0000
;

//--------------- dance-single - Pandemonium X ----------------
#NOTES:
     dance-single:
     Pandemonium X:
     Medium:
     11:
     0,0,0,0,0:
0000
0000
0000
0000
,
0000
0000
0000
0000
,
0002
0000
0000
2003
0000
0000
3020
0000
,
0000
0000
0000
0000
,
0200
0000
0000
0000
0000
0000
0000
0330
,
0000
0000
0000
0000
,
0001
0010
0100
0010
0000
0001
0000
1000
,
0000
0000
0000
0020
0000
0000
0000
0000
,
0200
0000
0000
0000
,
0330
0000
0000
0000
,
2000
0000
0000
3002
0000
0000
0023
0000
,
0100
0100
0100
0130
,
0010
0000
0001
0100
0000
0010
0100
0001
,
2000
0100
0100
3100
,
1000
0100
0001
0200
0000
0320
0000
0032
,
0000
0000
0000
0200
0000
0000
0303
0000
,
2020
0000
0000
0000
0000
0000
0000
0000
0000
0000
0000
3000
0130
0000
0000
0000
,
0010
0000
1000
0000
0001
0000
0010
0100
,
0010
0000
0100
1000
0100
1000
0010
0000
,
0100
0000
0001
0000
0010
1000
0010
0000
,
0001
0000
0100
0000
0010
0100
0001
0000
,
1000
0000
0001
0000
0010
0000
0100
0010
,
0100
0000
0010
0001
0010
0000
0001
0000
,
0100
0000
0000
0000
0010
0000
0000
0000
1000
0000
0001
0000
0010
0010
0010
0010
,
0200
0000
0000
0000
1300
0000
0000
0000
0100
0000
0000
1000
0000
0010
0000
0100
,
0000
0000
0001
0000
1000
0000
0001
0010
,
0100
0000
0000
0000
0010
0000
0000
0000
0001
0000
0000
0100
0000
0001
0000
0010
,
0000
0100
0011
0100
,
1010
0000
0000
0000
1001
0000
0000
0000
0001
0000
0000
1000
0000
0001
0000
0010
,
0000
0000
0001
0000
1000
0000
0100
0010
,
0100
0000
0000
0000
0010
0000
0000
0000
0100
0000
0000
1000
0000
0010
0000
0000
,
0100
0000
0010
1000
0001
0010
0100
1000
,
1001
0000
0000
0000
0201
0000
0000
1000
0000
0000
0002
0000
0000
0000
0000
0000
,
0000
0000
0303
0000
,
0000
0000
0000
0000
0001
0000
0000
0020
0000
0000
2000
0000
0000
0000
0000
0000
,
0000
0000
0000
0000
0000
3030
0011
0000
,
0101
0101
0101
0101
,
1010
1010
1010
1010
,
1100
1100
1100
1100
,
0011
0011
1100
1100
,
0001
0100
0010
0000
0100
0010
1000
0000
,
0001
0010
0100
0000
0010
0100
1000
0000
,
1000
0100
0010
0001
1000
0100
0010
0001
,
0010
0000
0000
0001
0000
0000
0100
0000
0010
0000
0000
1000
0000
0000
0000
0000
0001
0000
0000
0000
1000
0000
0000
0000
0100
0000
0000
0000
0010
0000
0000
0000
,
0100
0000
1000
0000
0001
0010
0100
0010
,
0001
0000
1000
0000
0001
0100
0001
1000
,
0100
0000
0000
0000
0010
0000
0000
0000
0100
0000
0000
1000
0000
1000
0000
0000
,
0010
0000
0000
0100
0000
0100
0000
0000
0010
0000
0100
0000
0001
0000
0010
0000
,
0100
0000
0010
0000
0001
1000
0100
0010
,
0001
0000
0100
0000
0001
0010
0100
0010
,
0100
0000
0000
0000
0010
0000
0000
0000
0001
0000
0000
0100
0000
0000
0010
0000
,
1010
0101
0001
1000
0010
0000
1000
0001
,
0010
0000
0100
0010
0001
0000
0010
0100
,
1000
0100
0010
0001
0100
0000
0010
1000
,
0001
0000
0010
0100
1000
0100
0010
0100
,
1000
0000
0001
0100
0010
0000
0100
0001
,
1000
0000
0100
0010
0100
1000
0001
0100
,
0001
0000
0100
0001
0010
0000
0100
1000
,
0010
0000
0000
0000
0100
0000
0000
0001
0000
0000
1000
0000
0100
0000
0000
0010
,
0100
0000
1000
0000
0010
0000
0100
0000
0001
0000
0000
1000
0000
0001
0000
0000
,
1000
0000
0100
0000
0010
0000
0001
0000
0010
0000
0000
0001
0000
0001
0000
0000
,
0010
0000
0001
0000
0100
0000
0010
0000
1000
0000
0000
0001
0000
1000
0000
0000
,
0001
0000
0000
0100
0000
0000
0010
0000
1000
0000
0000
0100
0000
0000
0010
0000
,
0100
0000
1000
0000
0001
0000
0100
0000
0001
0000
0000
1000
0000
1000
0000
0000
,
0001
0000
0010
0000
0100
0000
0010
0000
0001
0000
0000
0010
0000
0010
0000
0000
,
0001
0100
0010
1000
0001
0000
1000
0000
,
0001
0000
0100
0010
0000
1000
0000
0100
0010
0000
0001
0010
0000
0100
0000
1000
,
0001
0000
0000
0001
0000
0000
0000
0000
0000
0000
0000
0000
0000
0000
0000
0000
0000
0000
0000
0000
0000
0000
0000
0000
0000
0000
0000
0000
0000
0000
0000
0000
;

//--------------- dance-single - Pandemonium X ----------------
#NOTES:
     dance-single:
     Pandemonium X:
     Hard:
     15:
     0,0,0,0,0:
0000
0000
0000
0000
,
0000
0000
0000
0000
,
0002
0000
0000
2003
0000
0000
3200
0000
,
0000
0000
0000
0000
,
0320
0000
0000
0032
0000
0000
0103
2002
,
0000
0000
0000
3003
,
0001
0010
0100
0020
0000
0032
0000
0203
,
0000
0000
0000
0302
0000
0000
0000
0000
,
2000
0000
0000
0000
,
3003
0000
0000
0000
,
0011
0000
0010
0200
1000
0300
1000
0002
,
0100
0100
1000
1000
,
0203
0000
0310
1000
0001
0000
0010
0110
,
0100
1000
0001
1000
,
0001
1000
0100
2000
0000
3020
0000
0230
,
0000
0000
0000
0002
0000
0000
0303
0000
,
2020
0000
0000
0000
0000
0000
0000
0000
0030
0000
0000
0000
3001
0000
0000
0001
,
0010
0000
0010
0100
0000
0010
0000
0100
0000
1000
0100
0000
0100
0010
0001
0000
,
0010
0000
0100
0000
1000
0100
0010
0000
0100
0000
1000
0000
0020
0000
0000
0130
,
0001
0000
0010
0100
0000
1000
0000
0001
0000
1000
0001
0000
1000
0100
0000
0100
,
1000
0000
1000
0000
0001
0000
1000
0010
0100
0000
0100
0010
2000
0000
0000
3001
,
0100
0000
0010
0100
0000
0010
0000
0100
0000
0010
0100
0000
0100
0001
1000
0000
,
0100
0000
0010
0000
0001
1000
0100
0000
0010
0000
0001
0000
2000
0000
0000
3001
,
0010
0001
0000
0010
0000
0001
0000
0100
0010
1000
0001
0000
1001
0110
1001
0110
,
0002
0000
0000
0000
1003
0000
0000
1000
0010
0000
0100
0001
0000
0100
0000
0010
,
0000
1000
0001
0000
0001
0010
0100
0000
1000
0000
0001
0000
0100
0010
1000
0000
,
0001
0000
1000
0000
0001
0000
0000
0001
0100
0000
0100
0010
0000
0100
0000
0001
,
0000
0010
0100
0000
1000
0100
0000
0010
0001
0000
1000
0000
0010
0000
0100
0001
,
1000
0000
0001
0000
1000
0000
0000
1000
0001
0000
0010
0100
0000
0010
0000
0001
,
0000
0010
0100
0000
1000
0100
1000
0000
0001
0000
0100
0000
0010
0100
0010
0000
,
0100
0000
0010
0100
0001
0000
0000
1000
0010
0100
0000
0001
0000
0100
0000
0001
,
0010
0100
0010
0000
0100
0010
0001
0000
1000
0000
1000
0001
0100
0000
0010
1000
,
0001
0000
0000
0000
1002
0000
0000
2003
0000
0000
3020
0000
0000
0000
0000
0000
,
0000
0000
0000
0000
0000
0000
0000
0000
0030
0000
0000
2002
0000
0000
3003
0000
,
0000
0000
0000
0000
2000
0000
0000
3002
0000
0000
0020
0000
0000
0000
0000
0000
,
0000
0000
0000
0033
,
2100
3010
0201
0310
,
0021
0130
1020
0130
,
0102
1003
2100
3001
,
1002
0013
2001
3010
,
0100
0001
0100
0001
0100
0010
0100
0010
,
1000
0010
1000
0010
1000
0001
1000
0001
,
1000
0100
1000
0100
0010
0001
0010
0001
0100
0001
0100
0001
0100
0010
1000
0010
,
0100
0000
0010
0100
0000
0100
0001
0010
0100
0000
0010
0001
0000
0000
0000
0000
1000
0000
0000
0000
0001
0000
0000
0000
0010
0000
0000
0000
0100
0000
0000
0000
,
0010
0100
0000
1000
0000
0010
0000
0100
0001
0000
0100
0000
0010
0000
0100
0000
,
0010
1000
0000
0010
0000
0100
0001
0010
0001
0000
0010
0000
0100
0000
0010
0000
,
0001
1000
0000
0010
0000
0100
0000
0001
0010
0000
0010
0001
0000
1000
0001
0100
,
0010
0000
0010
1000
0000
0001
0000
0001
1000
0000
0001
0000
0010
0000
0100
0000
,
0010
0001
0000
1000
0000
0010
0000
0100
0010
0000
0100
0000
0001
0000
0100
0000
,
0010
1000
0000
0001
0000
1000
0100
0010
0100
0000
1000
0000
0010
0000
0100
0000
,
0010
1000
0000
0001
0000
1000
0010
0100
0010
0000
0010
0100
0000
0010
0100
0001
,
2000
0000
0100
0000
3001
0000
0100
0000
0010
0000
1000
0000
0100
0000
0010
0100
,
0000
0010
0000
0001
1000
0000
0010
0000
0100
0000
0001
0000
0010
0000
0100
1000
,
0000
0001
0000
1000
0100
0000
0100
0000
0010
0000
0001
0000
1000
0000
0001
0010
,
0000
0100
0000
0010
0001
0000
0010
0000
0100
0000
0010
0000
0001
0000
1000
0100
,
0000
1000
0000
0001
1000
0000
0001
0000
0010
0000
0100
0000
1000
0000
0010
0100
,
0000
0001
0000
0010
0100
0000
0010
0000
0100
0000
1000
0000
0100
0000
0010
0100
,
0000
1000
0000
0010
0100
0000
0001
0000
0100
0000
0010
0000
0100
0000
0010
1000
,
0000
0100
0000
0010
0100
0000
0100
0010
0000
0010
0000
0010
0001
0000
0001
1000
,
0101
0000
0001
0010
0001
0000
0010
0000
0001
0000
0100
0010
0100
0000
0010
0000
,
1000
0000
0100
1000
0100
0000
1000
0000
0001
0000
0010
0100
0010
0000
0100
0000
,
1000
0000
0001
0100
0001
0000
0100
0000
0010
0000
1000
0100
1000
0000
0100
0000
,
0010
0000
0001
1000
0001
0000
1000
0000
0010
0000
1000
0100
1000
0000
0001
0000
,
1000
0000
0010
0100
0010
1000
0100
0010
0000
0000
0010
0001
0010
0100
1000
0001
,
0000
0000
0001
0100
0001
0100
0010
1000
0000
0000
0100
1000
0001
0010
0100
0010
,
0000
0000
0100
0010
0001
0010
0100
1000
0000
0000
0100
1000
0100
0010
0100
1000
,
0001
0000
0001
0100
0000
0010
0001
0010
1000
0000
0001
0010
0000
0100
0000
0020
,
0001
0000
0000
0130
0000
0000
0000
0000
0000
0000
0000
0000
0000
0000
0000
0000
0000
0000
0000
0000
0000
0000
0000
0000
0000
0000
0000
0000
0000
0000
0000
0000
;

//--------------- dance-single - Pandemonium X ----------------
#NOTES:
     dance-single:
     Pandemonium X:
     Challenge:
     16:
     0,0,0,0,0:
0000
0000
0000
0000
,
0000
0000
0000
0000
,
1020
0000
0000
0230
0000
0000
0320
0000
,
0000
0000
0000
0000
,
0230
0000
0000
0302
0000
0000
0013
MMMM
,
0000
0000
0000
0000
,
1000
0001
0010
0200
0000
2300
0000
3020
,
0000
0000
0000
2030
0000
0000
0000
0000
,
0002
0000
0000
0000
0000
0000
0000
3003
,
MMMM
0000
0000
0000
,
1001
0000
0000
0000
0000
0000
0000
0000
1000
0000
0000
0000
0020
0030
0000
0000
0000
0000
0000
0000
0020
0030
0000
0000
0002
0000
0000
0000
0000
0000
0000
0000
,
1000
1000
0010
0013
,
1001
0000
0000
0000
0000
0000
0000
0000
0001
0000
0000
0000
0200
0300
0000
0000
0000
0000
0000
0000
0200
0300
0000
0000
1000
0000
0000
0000
MMMM
0000
0000
0000
,
0100
0001
1000
0000
0100
0010
0001
0000
,
2000
3200
0320
0230
0000
2300
0000
0002
,
0000
0000
3000
2000
0000
0000
0000
3003
,
0040
0400
0000
0000
0000
0000
0000
0000
0000
0000
0000
0000
0000
0000
0000
0000
0000
0000
0000
0000
0000
0000
0000
0330
1001
0000
0000
0000
0000
0000
0001
0000
,
0100
0000
0001
0010
0000
0100
0000
0010
0000
0001
0010
0000
0010
0100
1000
0000
,
0100
0000
0010
0000
0001
0010
0100
0000
0020
0000
0031
0100
0010
0000
0000
0010
,
1000
0000
1000
0100
0000
0100
0000
1000
0000
0001
MMMM
0000
0001
0010
0000
0010
,
0001
0000
0001
0000
1000
0000
0001
0100
0010
0000
0010
0100
0001
0000
0000
0001
,
1000
0000
0100
0010
0000
0100
0000
1000
0000
0010
0100
0000
0010
1000
0001
0000
,
0010
0000
0100
0000
1000
0001
0010
0000
0200
0000
1300
0001
1000
0000
0000
1000
,
0100
0000
1000
0000
0000
0000
0100
0000
0000
0000
1000
0000
0000
0000
1000
0000
0100
0000
0010
0000
0001
0000
1000
0000
0020
0030
2002
3003
2020
3030
2002
3003
,
0002
0203
0320
2030
3100
0000
0000
0010
0100
0000
0100
1000
0000
0010
0000
0010
,
0000
1000
0010
0000
1000
0100
0010
0000
0002
0000
2003
0000
3010
0100
0001
0000
,
2000
0000
3001
0100
0010
0000
0000
1000
0010
0000
0010
0100
0000
0100
0000
0001
,
0000
1000
MMMM
0000
1000
0100
0000
0100
2000
0000
3002
0000
0103
0000
0010
1000
,
0002
0000
1003
0010
1000
0000
0000
0010
0100
0000
0010
1000
0000
1000
0000
0001
,
0000
0001
0010
0000
0100
0010
0001
0000
1000
0000
0010
0000
0100
0010
0100
0000
,
0010
0000
0100
0001
1000
0000
0000
0010
0100
0010
0000
1000
0000
0010
0000
0010
,
0100
0001
1000
0000
0010
0100
0001
0000
1000
0000
0001
1000
0010
0000
0100
0001
,
1000
0000
0000
0000
2001
0000
0000
3002
0000
0000
0203
0000
0000
0000
0000
0000
,
0000
0000
0000
0000
0000
0000
0000
0000
0300
0000
0000
MMMM
0000
0000
0000
0000
,
0000
0000
0000
0000
0002
0000
0000
2003
0000
0000
0200
0000
0000
0000
0000
0000
,
0000
0000
0000
0000
0000
0000
0000
0000
0000
0000
0000
3300
MMMM
0000
0000
0000
,
1000
0100
0000
0000
0000
0000
0000
0000
0010
0001
0000
0000
0000
0000
0000
0000
0001
0100
0000
0000
0000
0000
0000
0000
0010
1000
0000
0000
0000
0000
0000
0000
,
0001
1000
0000
0000
0000
0000
0000
0000
1000
0100
0000
0000
0000
0000
0000
0000
0100
0010
0000
0000
0000
0000
0000
0000
0010
0001
0000
0000
0000
0000
0000
0000
,
0001
0100
0000
0000
0000
0000
0000
0000
0010
0100
0000
0000
0000
0000
0000
0000
0100
0001
0000
0000
0000
0000
0000
0000
0001
1000
0000
0000
0000
0000
0000
0000
,
1000
0100
0000
0000
0000
0000
0000
0000
0100
1000
0000
0000
0000
0000
0000
0000
1000
0001
0000
0000
0000
0000
0000
0000
0001
0100
0000
0000
0000
0000
0000
0000
,
0001
0001
0100
0100
0010
0010
1000
1000
,
0001
0001
0010
0010
0100
0100
1000
1000
,
0001
1000
0001
1000
0010
0100
0010
0100
0001
1000
0010
0100
0001
0010
0100
1000
,
0001
0000
0000
0000
0000
0000
0100
0000
0000
0001
0000
0000
0000
0000
0000
0010
0000
0000
0100
0000
0000
0010
0000
0000
0001
0000
1000
0000
0001
0000
1000
0000
0000
0001
0000
0000
1000
0000
0000
0100
0000
0000
1000
0000
0000
0001
0000
0000
0100
0000
0000
0000
0000
0000
0000
0000
0000
0000
0000
0000
1000
0000
0000
0000
0000
0000
0000
0000
0000
0000
0000
0000
0100
0000
0000
0000
0000
0000
0000
0000
0000
0000
0000
0000
0001
0000
0000
0000
0000
0000
0000
0000
0000
0000
0000
0000
,
0010
0100
0000
0010
0000
0100
0000
0010
0001
0000
0010
0000
0100
0000
0010
0000
,
0100
0001
0000
0100
0000
1000
0010
0100
0010
0000
0100
0000
0001
0000
1000
0000
,
0001
0100
0000
0010
0000
0100
0000
1000
0100
0000
0010
0100
0000
0001
1000
0010
,
0100
0000
0100
0001
0000
1000
0000
0010
0100
0000
1000
0000
0100
0000
0001
0000
,
1000
0100
0000
0001
0000
0100
0000
1000
0100
0000
0001
0000
0100
0000
1000
0000
,
0001
0100
0000
0010
0000
0100
0010
1000
0100
0000
0001
0000
0100
0000
0010
0000
,
0001
0010
0000
0100
0000
1000
0100
0010
0100
0000
0100
0010
0000
0100
0010
0001
,
2000
0000
3000
0000
MMMM
0000
0000
0000
0001
0000
0000
0000
0010
0000
0000
0000
0001
0000
0000
0000
0100
0000
0000
0000
0010
0000
0000
0000
1000
0000
0020
0030
,
0000
0000
0020
0030
0000
0000
0001
0000
1000
0000
0000
0000
0001
0000
0000
0000
0100
0000
0000
0000
0001
0000
0000
0000
1000
0000
0000
0000
0001
0000
0200
0300
,
0000
0000
0200
0300
0000
0000
1000
0000
0001
0000
0000
0000
0010
0000
0000
0000
0100
0000
0000
0000
1000
0000
0000
0000
0001
0000
0000
0000
1000
0000
0200
0300
,
0000
0000
0200
0300
0000
0000
0001
0000
1000
0000
0000
0000
0100
0000
0000
0000
0010
0000
0000
0000
0100
0000
0000
0000
1000
0000
0000
0000
0001
0000
0020
0030
,
0000
0000
0020
0030
0000
0000
1000
0000
0001
0000
0000
0000
1000
0000
0000
0000
0100
0000
0000
0000
0010
0000
0000
0000
0001
0000
0000
0000
1000
0000
0200
0300
,
0000
0000
0200
0300
0000
0000
0001
0000
0010
0000
0000
0000
0001
0000
0000
0000
0010
0000
0000
0000
0001
0000
0000
0000
1000
0000
0000
0000
0001
0000
0200
0300
,
0000
0000
0200
0300
0000
0000
1000
0000
0010
0000
0000
0000
0100
0000
0000
0000
0001
0000
0000
0000
0010
0000
0000
0000
0001
0000
0000
0000
1000
0000
0200
0300
,
0000
0000
0000
0000
0200
0000
0300
0000
0000
0000
0000
0000
0001
0000
0000
0000
1000
0000
0000
0000
0000
0000
0000
0000
0010
0000
0000
0000
0100
0000
0000
0000
0000
0000
0000
0000
1000
0000
0000
0000
0100
0000
0000
0000
0010
0000
0000
0000
1000
0000
0000
0000
0000
0000
0000
0000
0001
0000
0000
0000
1000
MMMM
0000
0000
,
0011
0000
0010
0100
1000
0001
0100
0001
1000
0000
0001
0010
0001
0100
0010
1000
,
0100
0000
1000
0100
1000
0001
0100
0001
0010
0000
0001
0010
0100
0010
0001
1000
,
0001
0000
1000
0010
0100
0001
0010
0100
0010
0000
0100
0010
0001
0100
0010
1000
,
0100
0000
1000
0001
0010
0100
0010
0001
1000
0000
0001
0010
0100
1000
0001
1000
,
0001
0000
0001
0010
0100
0010
1000
0010
0001
0000
1000
0010
0100
0010
0001
0010
,
1000
0000
0001
0010
0100
0010
1000
0010
0001
0000
1000
0010
0100
0010
0001
0010
,
1000
0000
0001
0010
0100
1000
0001
1000
0001
0000
1000
0100
0010
0001
0100
0001
,
1000
0000
0010
0100
0000
1000
0100
0001
0100
0000
1000
0100
0000
0001
0000
1000
,
2002
0000
3003
MMMM
0000
0000
0000
0000
0000
0000
0000
0000
0000
0000
0000
0000
0000
0000
0000
0000
0000
0000
0000
0000
0000
0000
0000
0000
0000
0000
0000
0000
;

//--------------- dance-double - Pandemonium X ----------------
#NOTES:
     dance-double:
     Pandemonium X:
     Easy:
     6:
     0,0,0,0,0:
00000000
00000000
00000000
00000000
,
00000000
00000000
00000000
00000000
,
00010000
00000000
00000000
00001000
00000000
00000000
02000000
00000000
,
00000000
00000000
00000000
00000000
,
03100000
00000000
00000000
10000000
00000000
00000000
02000000
03000000
,
00000000
00000000
00000000
00000000
,
00100000
00000000
00000000
00001000
00000000
00010000
00000000
00001000
,
00000000
00000000
00000000
00010000
00000000
00000000
00000000
00000000
,
00000200
00000000
00000000
00000000
,
00000300
00000000
00000000
00000000
,
00001000
00000000
00000000
00000010
00000000
00000000
00000200
00000000
,
00000000
00000000
00000000
00000000
,
00000301
00000000
00000000
00001000
00000000
00000000
00000200
00000300
,
00000000
00000000
00000000
00000000
,
00000010
00000000
00000000
00000100
00000000
00001000
00000000
00000100
,
00000000
00000000
00000000
00010000
00000000
00000000
00000000
00000000
,
00011000
00000000
00000000
00001000
,
00000000
01000000
00000000
00100000
,
10000000
00100000
00000000
10010000
,
00000000
00010000
00000000
00100000
,
00001000
00010000
00000000
00000100
,
00000000
00001000
00000000
00000010
,
00000100
00000001
00000000
00001001
,
00000000
00001000
00000000
00000200
,
00000000
00010300
00000000
00001000
,
00000000
01000000
00010000
00100000
,
01000000
10000000
00000000
00010000
,
00000000
00100000
00001000
00010000
,
00001000
00100000
00000000
00001000
,
00000000
00010000
00000100
00001000
,
00000100
00010000
00000000
00001000
,
00000000
01000000
00010000
00100000
,
00001000
00000000
00000000
00000000
00011000
00000000
00000000
00001000
00000000
00000000
02000000
00000000
00000000
00000000
00000000
00000000
,
00000000
00000000
03000000
00000000
,
00000000
00000000
00000000
00000000
00100000
00000000
00000000
10000000
00000000
00000000
00020000
00000000
00000000
00000000
00000000
00000000
,
00000000
00000000
00000000
00130000
,
00010000
00010000
00010000
00010000
,
01000000
01000000
01000000
01000000
,
00010000
00010000
00010000
00010000
,
00100000
00100000
00001000
00001000
,
00010000
00000100
00001000
00000010
,
00000100
00000001
00000010
00000100
,
00002000
00003200
00020300
00032000
,
02003000
00000000
03100000
10000000
,
01000000
00100000
00010000
00100000
,
00001000
00010000
00000010
00000100
,
00000001
00001000
00000200
00001300
,
00000200
00000310
00000001
00000010
,
00000100
00001000
00000100
00010000
,
00001000
00010000
00100000
01000000
,
10000000
00010000
01010000
00000000
,
00010000
10000000
01000000
00000000
00100000
00000000
00010000
00000000
,
00200000
01300000
10000000
00010000
,
02000000
03001000
00010000
00000100
,
00002000
00003010
00010000
00001000
,
00200000
00310000
01000000
00010000
,
00200000
00301000
00010000
00000100
,
00002000
00003010
00000100
00000001
,
00000020
00000130
00001000
00000100
,
00010000
00001000
01000000
00010000
,
00100000
01000000
10000000
01000000
,
00100000
00010000
00001000
00010000
,
00000100
00001000
00000010
00000100
,
00000001
00000010
00000100
00001000
,
00000100
00010000
00001000
01000000
,
00001000
00010000
00000100
00001000
,
00000010
00001000
00000100
00010000
,
00011000
00000000
00000000
00000000
;

//--------------- dance-double - Pandemonium X ----------------
#NOTES:
     dance-double:
     Pandemonium X:
     Medium:
     8:
     0,0,0,0,0:
00000000
00000000
00000000
00000000
,
00000000
00000000
00000000
00000000
,
00001000
00000000
00000000
00010000
00000000
00000000
00200000
00000000
,
00000000
00000000
00000000
00000000
,
02300000
00000000
00000000
00010000
00000000
00000000
00000000
03100000
,
00000000
00000000
00000000
00000000
,
10000000
01000000
00100000
00010000
00000000
01000000
00000000
00020000
,
00000000
00000000
00000000
00230000
00000000
00000000
00000000
00000000
,
00302000
00000000
00000000
00000000
,
00003000
00000000
00000000
00000000
,
00010000
00000000
00000000
00000100
00000000
00000000
00002000
00000000
,
00000000
00000000
00000000
00000000
,
00003020
00000000
00000000
00000100
00000000
00000000
00000000
00001030
,
00000000
00000000
00000000
00000000
,
00000001
00000010
00000100
00001000
00000000
00000100
00000000
00001000
,
00000000
00000000
00000000
00000010
00000000
00000000
00000000
00000000
,
00022000
00000000
00033000
00001000
,
01000000
00000000
00010000
00000000
00100000
00000000
01000000
10000000
,
01000000
00000000
10000000
00100000
02000000
00000000
03100000
00000000
,
01000000
00000000
00010000
00100000
00010000
00000000
00100000
00000000
,
00101000
00010000
00011000
00010000
,
00000100
00000000
00001000
00000010
00001000
00000000
00000001
00000000
,
00000010
00000000
00000100
00000000
00001000
00000100
00010000
00000000
,
00001000
01000000
00001000
00021000
,
00000000
00030100
00001000
00000010
,
00000100
00000000
00000001
00000010
00000001
00000000
00001000
00000100
,
00001000
00000100
00010000
00001000
,
01000000
00001000
00010000
00000000
00001000
00000000
01000000
00000000
,
00010000
00100000
00010000
00000000
00100000
00000000
01000000
10000000
,
01000000
00000000
10000000
00010000
10000000
00000000
00010000
01000000
,
00010000
01000000
00010000
00100000
,
00001000
00000000
00010000
00000100
00001000
00000000
00000010
00000001
,
00000010
00000000
00000000
00000000
00002010
00000000
00000000
00003200
00000000
00000000
00020300
00000000
00000000
00000000
00000000
00000000
,
00000000
00000000
00030000
00000000
,
00000000
00000000
00000000
00000000
00002000
00000000
00000000
02003000
00000000
00000000
03200000
00000000
00000000
00000000
00000000
00000000
,
00000000
00000000
00000000
10300000
,
00010000
10000000
00010000
00100000
,
00001000
00100000
00001000
00010000
,
00000100
00001000
00000010
00001000
,
00000001
00000100
00000001
00001000
,
00000001
00000100
00001000
00010000
,
00100000
10000000
01000000
00100000
,
00010000
00001000
00000100
00000010
,
00000002
00000000
00000000
00000000
00000103
00000001
00001000
00000000
,
00000001
00000000
00000100
00000000
00000010
00001000
00000100
00000000
,
00010000
00000000
00001000
00000000
01000000
00010000
00100000
00000000
,
01000000
10000000
21000000
30100000
,
01020000
00000000
00130000
00000000
01000000
10000000
00010000
00000000
,
00100000
00000000
00001000
00000000
00010000
00000010
00000100
00000000
,
00001000
00000000
00000100
00000000
00000001
00000010
00000100
00000000
,
00000010
00000001
00001000
00000100
,
00002002
00003003
00000001
00000000
00000100
00000000
00000010
00000000
,
00001000
00000100
00001000
00000000
00000100
00000000
00010000
00000000
,
00001000
01000000
00001000
00000000
01000000
00000000
00010000
00000000
,
00100000
01000000
00100000
00000000
01000000
00000000
10000000
00000000
,
00010000
01000000
00010000
00000000
00100000
00000000
00001000
00000000
,
00010000
00000100
00010000
00000000
00000010
00000000
00000100
00000000
,
00000001
00000010
00000001
00000000
00000100
00000000
00000010
00000000
,
00001000
00000010
00001000
00000000
00000100
00000000
00010000
00000000
,
00001000
00010000
00001000
01000000
00010000
00000000
00100000
00000000
,
01000000
10000000
01000000
00100000
00010000
00000000
00100000
00000000
,
00001000
00010000
00000100
00010000
00001000
00000000
00010000
00000000
,
00002100
00003010
00000102
00000013
,
00000100
00000010
00000001
00001000
00000010
00000000
00000100
00000000
,
00001000
00000100
00010000
00001000
00010000
00000000
00001000
00000000
,
01000000
00100000
10000000
01000000
00100000
00000000
00010000
00000000
,
00120000
01030000
01002000
00013000
,
00011000
00000000
00000000
00000000
;

//--------------- dance-double - Pandemonium X ----------------
#NOTES:
     dance-double:
     Pandemonium X:
     Hard:
     15:
     0,0,0,0,0:
00000000
00000000
00000000
00000000
,
00000000
00000000
00000000
00000000
,
00021000
00000000
00000000
00000200
00000000
00000300
00000020
00000000
,
00000000
00000000
00000000
00030000
,
00000230
00000000
00000000
00002300
00000000
00000000
00023000
00002000
,
00033000
00000000
00000000
00000000
,
00001000
01000000
00100000
00010000
00000000
00100000
00000000
10000000
,
00000000
00000000
00000000
00010000
00000000
00000000
00000000
00000000
,
00200000
00000000
00000000
00000000
,
00302000
00000000
00000000
00000000
,
00013000
00000000
00000100
00001000
00000000
00000010
00000200
00000000
,
00000001
00000010
00000001
00000310
,
00000001
00000000
00000100
00000010
00000000
00001000
00000100
00010100
,
00010000
00001000
01000000
00000000
01000000
00010000
00100000
00000000
,
10000000
00100000
00010000
00001000
00000000
00000100
00000000
00001000
,
00000000
00000000
00000000
00000010
00000000
00000000
00000000
00000000
,
00022000
00000000
00000000
00000000
00000000
00000000
00000000
00000000
00000000
00000000
00000000
00030000
00013000
00000000
00000000
00000100
,
00001000
00000000
00000100
00000010
00000000
00000001
00000000
00000100
00000000
00001000
00000100
00000000
00000010
00010000
00001000
00000000
,
00200000
00000000
00320000
00000000
01030000
00100000
10000000
00000000
01000000
00000000
00100000
01000000
10000000
00000000
00000000
10000000
,
00010000
00000000
00010000
00100000
00000000
01000000
00000000
00100000
00000000
00001000
00010000
00000000
00000100
00001000
00000000
00000010
,
00000100
00000000
00000001
00000000
00001000
00000000
00000001
00000100
00000010
00000000
00000001
00000000
00000010
00000000
00000000
00000100
,
00000001
00000000
00000001
00001000
00000000
00000001
00000000
00001000
00000000
00000100
00010000
00000000
00001000
01000000
00001000
00000000
,
00010000
00000000
00100000
00000000
01000000
10000000
01000000
00000000
10000000
00000000
00100000
01000000
00010000
00000000
00000000
00100000
,
00001000
00100000
00000000
00001000
00000000
00010000
00000000
00000100
00001000
00000010
00010000
00000000
00110000
00001010
00110000
00001010
,
00010000
00001000
00010000
00001000
00100000
00000000
00000000
00100000
01000000
00000000
01000000
10000000
00000000
01000000
00000000
00010000
,
00000000
00001000
00010000
00000000
00000100
00001000
00000100
00000000
00001000
00000000
00000010
00000000
00000100
00000010
00000100
00000000
,
00000001
00000000
00000010
00000100
00001000
00000000
00000000
00000000
00001001
00000000
00000001
00000100
00000000
00001000
00000000
00010000
,
00000000
00001000
00010000
00000000
00001000
01000000
00000000
00001000
00010000
00000000
00010100
00000000
00001010
00000000
00000010
00010000
,
00001000
00000000
00100000
00010000
10000000
00000000
00000000
01000000
00100000
00000000
00100000
00010000
00000000
00001000
00000000
00000100
,
00000000
00010000
00001000
00000000
00010000
00000010
00000100
00000000
00001000
00000000
00000100
00000000
00000001
00001000
00000100
00000000
,
00000001
00000000
00000100
00010000
00001000
00000000
00000000
00010000
00000100
00001000
00000000
00010000
00000000
00001000
00000000
01000000
,
00100000
00010000
00100000
00000000
01000000
00010000
00100000
00000000
00010000
00000000
00100000
00001000
00010000
00000000
00000100
00001000
,
00000001
00000000
00001000
00000000
00020100
00000000
00000000
00001000
00000000
00000000
00000020
00000000
00000000
00000000
00000000
00000000
,
00000000
00000000
00000000
00000000
00000000
00000000
00000000
00000000
00030030
00000000
00000000
00011000
00000000
00000000
00000000
00000000
,
00000000
00000000
00000000
00000000
00201000
00000000
00000000
00020000
00000000
00030000
02000000
00000000
00000000
00000000
00000000
00000000
,
00000000
00300000
00000000
13000000
,
10010000
10010000
00110000
00110000
,
00011000
00011000
00001100
00001100
,
00000110
00000110
00000011
00000011
,
00000101
00000101
00000110
00000110
,
00000001
00000100
00001000
00010000
00100000
10000000
01000000
10000000
,
10000000
01000000
00010000
00001000
00000010
00000001
00001000
00000001
,
00000100
00001000
00010000
00001000
01000000
00100000
10000000
01000000
00100000
00010000
00001000
00010000
00000100
00001000
00000010
00000100
,
00000001
00000000
00000100
00000001
00000000
00000001
00000010
00000100
00001000
00000000
00000100
00010000
00000000
00000000
00000000
00000000
00001000
00000000
00000000
00000000
01000000
00000000
00000000
00000000
00010000
00000000
00000000
00000000
00100000
00000000
01000000
00000000
,
00000000
00100000
00000000
00001000
00000000
00010000
00000000
00000100
00001000
00000000
00000010
00000000
00000100
00000000
00000001
00000000
,
00001000
00000100
00000000
00001000
00000000
00000100
00010000
00001000
00010000
00000000
00001000
00000000
01000000
00000000
00001000
00000000
,
00010000
00000100
00000000
00001000
00000000
00000010
00000000
00000100
00001000
00000000
00000100
00000001
00000000
00000010
00000100
00001000
,
00000001
00000000
00000010
00001000
00000000
00000010
00000000
00000001
00001000
00000000
00000100
00000000
00010000
00000000
00001000
00010000
,
00000000
00000100
00000000
00010000
00000000
00001000
00000000
01000000
00001000
00000000
00010000
00000000
00001000
00000000
00100000
01000000
,
00000000
00010000
00000000
01000000
00000000
10000000
00100000
01000000
00010000
00000000
10000000
00000000
00010000
00000000
00100000
00001000
,
00000000
00010000
00000000
00000100
00000000
00001000
00000010
00000100
00000001
00000000
00000100
00000010
00000000
00001000
00000000
00000000
,
00001001
00000000
00011000
00000000
10010000
00000000
00010000
00000000
10000000
00000000
01000000
00000000
00100000
00000000
00001000
00010000
,
00000000
00000100
00000000
00001000
00000010
00000000
00000100
00000000
00000001
00000000
00000010
00000000
00000100
00000000
00001000
00000100
,
00000000
00010000
00000000
00001000
01000000
00000000
00010000
00000000
00100000
00000000
01000000
00000000
10000000
00000000
00010000
01000000
,
00000000
00010000
00000000
00100000
00001000
00000000
00010000
00000000
00000100
00000000
00001000
00000000
00000010
00000000
00000100
00000010
,
00000000
00000100
00000000
00000001
00001000
00000000
00000001
00000000
00000010
00000000
00000100
00000000
00001000
00000000
00000100
00010000
,
00000000
00001000
00000000
00001000
00010000
00000000
00000100
00000000
00010000
00000000
00001000
00000000
00100000
00000000
00010000
00100000
,
00000000
00100000
00000000
00100000
00010000
00000000
01000000
00000000
00100000
00000000
10000000
00000000
00010000
00000000
10000000
01000000
,
00000000
10000000
00000000
00100000
01000000
00000000
00010000
00100000
00000000
00001000
00010000
00000100
00001000
00000000
00000010
00000100
,
00010000
00000000
00100000
00000000
01000000
00000000
10000000
00000000
01000000
00010000
00000000
01000000
00000000
00100000
00000000
00001000
,
00010000
00000000
00000100
00000000
00001000
00000000
00000010
00000000
00000100
00000001
00000000
00000010
00000000
00000001
00000010
00000100
,
00001000
00000000
00000100
00000000
00010000
00000000
00000010
00000100
00000000
00000001
00000000
00001000
00000000
00000100
00000000
00010000
,
00000100
00000000
00010000
00001000
00000000
01000000
00001000
00010000
00001000
00000000
00001000
00100000
00000000
00100000
00000000
01000000
,
10000000
00000000
00100000
00000000
00010000
00000000
00100000
00000000
01000000
00010000
00000000
00100000
00000000
00001000
00000000
00010000
,
00000100
00000000
00001000
00000000
00000010
00000000
00000001
00000000
00000010
00000100
00000000
00000001
00000000
00000010
00000001
00001000
,
00000100
00000000
00010000
00000000
00001000
00000000
01000000
00000000
00100000
00010000
00000000
00100000
00000000
10000000
00000000
00010000
,
10000000
00000000
01000000
00100000
00000000
00100000
00010000
00001000
00000100
00000000
00000010
00000001
00000000
00000100
00000000
00000010
,
00020000
00000000
00000000
00031000
00000000
00000000
00000000
00000000
00000000
00000000
00000000
00000000
00000000
00000000
00000000
00000000
00000000
00000000
00000000
00000000
00000000
00000000
00000000
00000000
00000000
00000000
00000000
00000000
00000000
00000000
00000000
00000000
;
