#TITLE:Programmed Sun;
#SUBTITLE:;
#ARTIST:kors k;
#TITLETRANSLIT:;
#SUBTITLETRANSLIT:;
#ARTISTTRANSLIT:;
#GENRE:;
#CREDIT:;
#MUSIC:Programmed Sun.ogg;
#BANNER:Programmed Sun-bn.png;
#BACKGROUND:Programmed Sun-bg.png;
#CDTITLE:;
#SAMPLESTART:96.865;
#SAMPLELENGTH:13.325;
#SELECTABLE:YES;
#OFFSET:-0.198;
#BPMS:0.000=144.000;
#STOPS:;
#BGCHANGES:;
#FGCHANGES:;

//--------------- dance-single - Pandemonium X ----------------
#NOTES:
     dance-single:
     Pandemonium X:
     Beginner:
     3:
     0,0,0,0,0:
0000
0000
0000
0000
,
0000
0000
0000
0000
,
0000
0000
0000
0000
,
0000
0000
0000
0000
,
0000
0000
0000
0000
,
0000
0000
0000
0000
,
0010
0000
0000
0000
,
0010
0000
0000
0000
,
0010
0000
0000
0000
,
0010
0000
0000
0000
,
1000
0000
0000
0000
,
0001
0000
0000
0000
,
0010
0000
0000
0000
,
0100
0000
1000
0000
,
0010
0000
0000
0000
,
0100
0000
0000
0000
,
0001
0000
1000
0001
,
0200
0000
0000
0300
,
0010
0000
0000
0000
,
1000
0000
0000
0000
,
0001
0000
0000
0000
,
0010
0000
0100
0000
,
1001
0000
0100
0000
,
1001
0000
0010
0100
,
1001
0010
1001
0100
,
0020
0000
0000
0030
,
1001
0000
0000
0000
,
0000
0000
0000
0000
,
1000
0000
0000
0000
,
0001
0000
0000
0000
,
0010
0000
0000
0000
,
0100
0000
0000
0000
,
1000
0000
0000
0000
,
0001
0000
0000
0000
,
1000
0000
0001
0000
0000
0000
0000
0100
,
0000
0000
0000
0000
,
0001
0000
0000
1000
0000
0000
0000
0100
,
0000
0000
0000
0000
,
0010
0000
0100
0000
0000
0000
0000
1000
,
0000
0000
0000
0010
,
0110
0000
0000
0000
0000
0000
0000
1001
,
0000
0000
0000
0000
,
0001
0000
0000
0000
,
1000
0000
0000
0000
,
0100
0000
0000
0000
,
0010
0000
0001
0000
,
0100
0000
0000
0000
,
0010
0000
0000
0000
,
0100
0000
0001
0000
,
2000
0000
0000
3000
,
0001
0000
1000
0000
,
0100
0000
1000
0000
,
0010
0000
0100
0000
,
0001
0000
0010
0000
,
0100
0000
1000
0000
,
0001
0000
1000
0000
,
0010
0000
1000
0000
,
0002
0000
0000
0003
,
1000
0000
0001
0000
0000
0000
0000
0100
,
0000
0000
0000
0000
,
0010
0000
0000
1000
0000
0000
0000
0100
,
0000
0000
0000
0000
,
0010
0000
0001
0000
0000
0000
0000
1000
,
0000
0000
0000
0000
,
0110
0000
0000
0000
0000
0000
0000
1001
,
0000
0000
0000
0000
,
0001
0000
0010
0000
0000
0000
0000
0100
,
0000
0000
0000
0000
,
1000
0000
0010
0000
0000
0000
0000
0100
,
0000
0000
0000
0000
,
0010
0000
1000
0000
0000
0000
0000
0001
,
0000
0000
0000
0000
,
0110
0000
0000
0000
0000
0000
0000
2002
,
0000
0000
0000
3003
,
0110
0000
0000
0000
;

//--------------- dance-single - Pandemonium X ----------------
#NOTES:
     dance-single:
     Pandemonium X:
     Easy:
     7:
     0,0,0,0,0:
0000
0000
0000
0000
,
0000
0000
0000
0000
,
0000
0000
0000
0000
,
0000
0000
0000
0000
,
0000
0000
0000
0000
,
0000
0000
0000
0000
,
0020
0030
0000
0000
,
0020
0030
0000
0000
,
0020
0030
0000
0000
,
2002
0000
3003
0000
,
0000
0001
0000
2000
0000
3001
0000
0010
,
0000
0100
0000
0100
0000
0100
0000
1000
,
0000
0010
0000
0010
0000
0100
0000
0010
,
0100
0001
0010
0100
,
0000
1000
0000
1000
0000
1000
0000
0010
,
0000
0100
0000
0100
0000
0001
0000
0010
,
0000
0100
0000
0100
0000
0100
0000
0100
,
1000
0001
0100
0110
,
0010
0000
0100
0002
0000
1003
0000
0010
,
0000
1000
0000
1000
0000
1000
0000
0001
,
0000
0010
0000
0010
0000
0100
0000
0100
,
0010
0001
1000
0100
,
1000
0000
0001
0000
0000
0000
0000
1000
0000
0000
0001
0000
0000
0000
1000
0000
,
0000
0000
0001
0000
1000
0000
0000
0001
0000
0000
1000
0000
0001
0000
0000
0000
,
1001
0000
1001
0000
0001
0100
0010
1000
,
0200
0000
0000
0300
,
1002
0000
0000
0000
,
0000
0000
0000
0003
,
0200
0000
0000
0300
,
0002
0000
0000
0003
,
0020
0000
0000
0030
,
0200
0000
0000
0300
,
2000
0000
0000
3000
,
0002
0000
0000
0003
,
1000
0010
1000
0000
0000
0000
0000
0001
,
0000
0000
0000
0000
,
0010
0100
0010
0001
0000
0000
0000
0100
,
0000
0000
0000
0000
,
0010
0100
0010
0000
0000
0000
0000
1000
,
0000
0000
0000
0001
,
1001
0000
0000
0000
0000
0000
0000
0110
,
0000
0000
0000
0000
,
1000
0010
0100
0001
,
0010
0001
1000
0100
,
0010
0100
1000
0001
,
0010
0001
0100
0010
,
1000
0001
0010
0001
,
1000
0010
1000
0100
,
0010
0100
1000
0001
,
0220
0000
0000
0330
,
2000
3100
0010
0001
,
0020
0130
0100
1000
,
0002
0103
0001
0010
,
0200
1300
0010
0100
,
0002
1003
0100
0010
,
0002
0103
0001
0010
,
0200
0310
0002
1003
,
0220
0000
0000
0330
,
1000
0001
0020
0000
0000
0000
0000
0230
,
0000
0000
0000
0000
0000
0000
0000
1300
,
0001
0010
0001
0200
0000
0000
0000
0320
,
0000
0000
0000
0000
0000
1030
1010
0000
,
1000
0001
0020
0000
0000
0000
0000
0230
,
0000
0000
0000
0000
0000
0000
0300
0010
,
0002
0000
0000
0000
0000
0000
0000
2000
,
0000
0000
0000
0000
0003
3001
0101
0000
,
0001
1000
0200
0000
0000
0000
0000
0320
,
0000
0000
0000
0000
0000
0000
0000
0031
,
1000
0100
1000
0020
0000
0000
0000
0230
,
0000
0000
0000
0000
0000
0301
0101
0000
,
0001
1000
0200
0000
0000
0000
0000
0320
,
0000
0000
0000
0000
0000
0000
0030
0100
,
2000
0000
0000
0000
0000
0000
3000
0001
,
0200
0310
2000
3001
,
0110
0000
0000
0000
;

//--------------- dance-single - Pandemonium X ----------------
#NOTES:
     dance-single:
     Pandemonium X:
     Medium:
     9:
     0,0,0,0,0:
0000
0000
0000
0000
,
0000
0000
0000
0000
,
0000
0000
0000
0000
,
0000
0000
0000
0000
,
0000
0000
0000
0000
,
0000
0000
0000
0000
,
0020
0030
0000
0000
,
0020
0030
0000
0000
,
0020
0030
0000
0000
,
2002
0000
0000
0000
3003
0001
0020
0000
,
0130
0010
0001
0100
0000
0010
0000
1000
,
0000
0100
0000
0010
0000
0100
0000
0001
,
0000
0100
0000
0010
0000
0100
0000
0010
,
0002
1003
0020
1030
,
1010
0010
0000
0100
0000
0010
0000
0001
,
0000
0010
0000
0100
0000
0010
0000
1000
,
0000
0100
0000
0010
0000
0100
0000
1000
,
0001
0000
0001
0000
0001
0000
0000
0001
0000
0000
0001
0000
0010
0000
0100
0000
,
1000
0010
0100
1000
0000
0100
0000
0010
,
0000
0100
0000
0001
0000
0100
0000
0010
,
0000
1000
0000
0001
0000
1000
0000
0001
,
0020
0031
2000
3100
,
1000
0000
0010
0000
0000
0000
0000
0100
0000
0000
0100
0000
0000
0000
0010
0000
,
0000
0000
0100
0000
0001
0000
0000
0010
0000
0000
0100
0000
0010
0000
0010
0000
,
0011
0000
1100
0000
1000
0001
0100
0010
,
2000
3100
0020
0031
0100
0100
0010
1000
,
0002
0000
0000
0000
,
0000
0000
0000
0000
,
2003
0000
0000
0000
,
3200
0000
0000
0000
,
0320
0000
0000
0000
,
0230
0000
0000
0000
,
2300
0000
0000
0000
,
0002
0000
0000
3003
,
1000
0001
0020
0000
0000
0000
0030
0200
,
0000
0000
0000
0300
,
0010
0100
1000
0020
0000
0000
0030
0200
,
0000
0000
0000
0300
,
0010
0100
0002
0000
0000
0000
0003
0020
,
0000
0000
0000
0031
,
0220
0000
0000
0000
0000
0000
0330
2002
,
0000
0000
0000
3003
,
1000
0010
0000
0000
0100
0000
0000
0000
0001
0000
0000
0000
1000
0000
0000
0000
,
0001
0010
0000
0000
0100
0000
0000
0000
0010
0000
0000
0000
0001
0000
0000
0000
,
0100
0001
0000
0000
1000
0000
0000
0000
0010
0000
0000
0000
1000
0000
0000
0000
,
0100
1000
0000
0000
0010
0000
0000
0000
0100
0001
0000
0000
1000
0000
0001
0000
,
0100
0001
0010
0000
0100
0000
1000
0000
,
0100
1000
0010
0000
1000
0000
0001
0000
,
0201
0310
1200
0310
,
2002
0000
0000
3003
,
0001
0100
0000
0000
0001
0000
0000
0000
0010
0000
0000
0000
0100
0000
0000
0000
,
1000
0010
0000
0000
1000
0000
0000
0000
0010
0000
0000
0000
0100
0000
0000
0000
,
0001
1000
0000
0000
0001
0000
0000
0000
0010
0000
0000
0000
0001
0000
0000
0000
,
0100
0010
0000
0000
1000
0000
0000
0000
0001
0000
0000
0000
1000
0000
0000
0000
,
0100
0010
0000
0000
0100
0000
0000
0000
1000
0000
0000
0000
0001
0000
0000
0000
,
0100
0001
0000
0000
0100
0000
0000
0000
0001
0000
0000
0000
1000
0000
0000
0000
,
0001
0010
0000
0000
0001
0000
0000
0000
1000
0000
0000
0000
0010
0000
0000
0000
,
0001
0010
1000
0001
0010
0100
2000
0000
,
3010
1000
0200
0000
1000
0000
0310
0100
,
2000
0000
0001
0000
0001
0000
3001
0011
,
0001
0010
0001
0200
0010
0000
0301
1000
,
0200
0000
0000
0000
0010
0000
0000
0000
0310
0000
0001
1000
0001
0000
0000
0000
,
0001
1000
0020
0000
0130
0000
0010
0200
,
0001
0000
0000
0000
0301
0000
1000
0000
0000
1000
0000
0000
1000
0000
0001
0000
,
0020
0000
0100
0000
0031
0010
0100
2000
,
0010
0000
0000
0000
0010
0000
0000
0000
3010
0000
1000
0001
1000
0000
0000
0000
,
0001
0010
0200
0000
0010
0000
1300
0010
,
0200
0000
0010
0000
0010
0000
0310
0110
,
0100
0001
0100
0020
0000
0130
0001
2000
,
0010
0000
0000
0000
0010
0000
0000
0000
3010
0000
1000
0001
1000
0000
0000
0000
,
0001
0010
0200
0000
0010
0000
1300
0020
,
0100
0000
0000
0000
0130
0000
0001
0000
0000
0001
0000
0000
0001
0000
0100
0000
,
0120
1030
0210
0301
,
1000
0010
0001
0010
1000
0001
0010
0000
,
1100
0000
0000
0000
;

//--------------- dance-single - Pandemonium X ----------------
#NOTES:
     dance-single:
     Pandemonium X:
     Hard:
     12:
     0,0,0,0,0:
0000
0000
0000
0000
,
0000
0000
0000
0000
,
0000
0000
0000
0000
,
0000
0000
0000
0000
,
0000
0000
0000
0000
,
0000
0000
0000
0000
,
0020
0030
0000
0000
,
0020
0030
0000
0000
,
0020
0030
0000
0000
,
0220
0000
0000
0000
0030
0000
0000
0300
0000
0000
0000
0000
0000
0000
0000
0000
,
0001
1000
0001
0021
0000
0130
0000
0010
,
0000
0001
0000
0100
0000
0001
0000
1000
,
0000
0100
0000
0010
0000
0100
0000
0010
,
0001
0010
0100
0010
0001
0100
0010
1000
,
0100
1000
0000
0001
0000
1000
0000
0010
,
0000
1000
0000
0001
0000
1000
0000
0100
,
0000
0010
0000
0100
0000
0010
0000
0001
,
0100
0000
0100
0000
0110
0000
0000
1001
0000
0000
2000
0000
3020
0000
2030
0000
,
3001
0010
0100
2100
0000
3001
0000
1000
,
0000
0001
0000
1000
0000
0001
0000
0100
,
0000
0001
0000
1000
0000
0001
0000
0010
,
0001
0010
0100
1000
0100
0010
0100
1000
,
0001
0000
1001
0000
0000
0000
0000
1000
0000
0000
1001
0000
0000
0000
1001
0000
,
0000
0000
0001
0000
1001
0000
0000
1000
0000
0000
1001
0000
0001
1000
0001
1000
,
0001
0000
1001
0000
0001
0001
1000
1000
,
0001
0000
2000
0000
3100
0010
0100
0010
0001
0000
0001
0000
0020
0000
0230
0000
,
2300
0000
0000
0000
,
0000
0000
0000
0000
,
3020
0000
0000
0000
,
0230
0000
0000
0000
,
0302
0000
0000
0000
,
0203
0000
0000
0000
,
0302
0000
0000
0000
,
2003
0000
0000
0000
,
3200
2300
3002
0000
0000
0000
0000
2003
,
0000
0000
0000
0000
,
3200
2300
3020
0032
0000
0000
0000
0023
,
0000
0000
0000
0000
,
2030
3020
0230
0000
0000
0000
0000
0320
,
0000
0000
0000
0230
,
0302
0000
0000
0000
0000
0000
0000
2003
,
0100
0000
0000
0100
0000
0000
0100
0000
3100
0000
0000
0010
0002
0000
0000
0000
,
1003
0010
0000
0000
0100
0000
0000
0000
0001
0000
0010
0000
0100
0000
0010
0000
,
0001
0010
0000
0000
0100
0000
0000
0000
0010
0000
0100
0000
1000
0000
0100
0000
,
1000
0010
0000
0000
0100
0000
0000
0000
0010
0000
0100
0000
0001
0000
1000
0000
,
0100
1000
0000
0000
0001
0000
0000
0000
1000
0000
0001
0000
0010
0000
0001
0000
,
0100
0001
0000
0000
0010
0000
0000
0000
0100
0000
0010
0000
0001
0000
1000
0000
,
0100
1000
0000
0000
0010
0000
0000
0000
0100
0000
0010
0000
0100
0000
0001
0000
,
1000
0100
0000
0000
1100
0000
0000
0000
0001
0100
0000
0000
0101
0000
0000
0000
,
1001
0000
0000
0000
0000
0000
1000
0000
0000
0001
0000
0000
1000
0000
0000
0001
0000
0000
1000
0000
0000
0001
0000
0000
1000
0000
0000
0000
0001
0000
0000
0000
1000
0000
0000
0000
0001
0000
0000
0000
0000
0000
1000
0000
0000
0000
0000
0000
,
0010
0100
0000
0000
0001
0000
0000
0000
0010
0000
0001
0000
1000
0000
0100
0000
,
0010
0100
0000
0000
0010
0000
0000
0000
0001
0000
0100
0000
0001
0000
1000
0100
,
0000
0010
0000
0000
0100
0000
0000
1000
0000
0000
0010
0000
0000
0100
0000
0001
,
0000
1000
0000
0000
0010
0000
0000
0100
0000
0000
0010
0000
0100
0000
0001
1000
,
0000
0001
0000
0000
1000
0000
0000
0001
0000
0001
1000
0000
0001
0000
0100
0010
,
0000
0100
0000
0000
0001
0000
0000
1000
0000
1000
0001
0000
0100
0000
0010
1000
,
0000
0010
0000
0000
0010
0000
0000
1000
0000
0000
0001
0000
0010
0000
0001
1000
,
0001
1001
2000
3002
0023
0230
2300
0000
,
3002
2003
3020
0000
0100
0000
1030
0002
,
0100
0000
0000
0000
0000
0000
0103
0000
0000
0000
0100
0000
0000
0000
0100
0000
0010
0000
0000
0000
0000
0000
1000
0000
0000
0000
1000
0000
0004
0003
0000
0000
,
2000
0000
3020
0000
2030
0000
3200
0000
0310
0000
0000
0001
0000
0001
0000
0001
,
0100
0000
0000
0000
0000
0000
0100
0000
0000
0000
0100
0000
0000
0000
0100
0000
0010
0000
0000
0000
4000
3000
0004
0003
4000
3000
0000
0000
0000
0000
0000
0000
,
0002
2003
3020
0000
0100
0000
1030
0200
,
0010
0000
0000
0000
0000
0000
0000
0000
1300
0000
0000
0000
0001
0000
1000
0000
0000
0000
0001
0000
1000
0000
0000
0000
0001
0000
0000
0000
4000
3000
0000
0000
,
1020
0000
0100
0000
1030
0100
0010
0021
,
0001
0000
0000
0000
0000
0000
0000
0000
0000
0000
0000
0000
0000
0000
0000
0000
0000
0000
0000
0000
0000
0000
0000
0000
0000
0000
0000
0000
0000
0000
0000
0000
0000
0000
0000
0000
0000
0000
0000
0000
0000
0000
0000
0000
0000
0000
0000
0000
0100
0000
0000
0000
0000
0000
0000
0000
0000
0000
0000
0000
0000
0000
0000
0000
0000
0000
0000
0000
0000
0000
0000
0000
0000
0000
0000
0000
0000
0000
0000
0000
0000
0000
0000
0000
0000
0000
0000
0000
0000
0000
0000
0000
0000
0000
0000
0030
0001
0000
0000
0000
0000
0000
0000
0000
0000
0000
0000
0000
0000
0000
0000
0000
0000
0000
0000
0000
0000
0000
0000
0000
4000
0000
0000
0000
0000
0000
3000
0000
0000
0000
0000
0000
0004
0000
0000
0000
0000
0000
0003
0000
0000
0000
0000
0000
4000
0000
0000
0000
0000
0000
3000
0000
0000
0000
0000
0000
0000
0000
0000
0000
0000
0000
0000
0000
0000
0000
0000
0000
0000
0000
0000
0000
0000
0000
0000
0000
0000
0000
0000
0000
0000
0000
0000
0000
0000
0000
0000
0000
0000
0000
0000
0000
,
2001
3002
0023
0000
0001
0000
0130
2000
,
0001
0000
0000
0000
0000
0000
3001
0000
0000
0000
0001
0000
0000
0000
0001
0000
0010
0000
0000
0000
0000
0000
0100
0000
0000
0000
0100
0000
4000
3000
0000
0000
,
0002
0000
0023
0000
0032
0000
0203
0000
0310
0000
0000
1000
0000
1000
0000
1000
,
0100
0000
0000
0000
0000
0000
0100
0000
0000
0000
0100
0000
0000
0000
0100
0000
0010
0000
0000
0000
0004
0003
4000
3000
0004
0003
0000
0000
0000
0000
0000
0000
,
2000
3002
0023
0000
0100
0000
0031
0200
,
0010
0000
0000
0000
0000
0000
0000
0000
0301
0000
0000
0000
1000
0000
0001
0000
0000
0000
1000
0000
0001
0000
0000
0000
1000
0000
0000
0000
0004
0003
0000
0000
,
0021
0000
0130
0000
1020
0000
0130
0002
,
2003
3200
0302
0203
0320
0032
1003
0000
,
0110
0000
0000
0000
;
