#TITLE:Programmed Sun (xac Antarctic Ocean mix);
#SUBTITLE:;
#ARTIST:xac;
#TITLETRANSLIT:;
#SUBTITLETRANSLIT:;
#ARTISTTRANSLIT:;
#GENRE:;
#CREDIT:;
#MUSIC:Programmed Sun (xac Antarctic Ocean mix).ogg;
#BANNER:Programmed Sun (xac Antarctic Ocean mix).png;
#BACKGROUND:Programmed Sun (xac Antarctic Ocean mix)-bg.png;
#CDTITLE:;
#SAMPLESTART:91.228;
#SAMPLELENGTH:13.750;
#SELECTABLE:YES;
#OFFSET:1.343;
#BPMS:0.000=140.000000;
#STOPS:;
#BGCHANGES:3.000=Programmed Sun (xac Antarctic Ocean mix).mp4=1.000=0=0=1,
99999.000=-nosongbg-=1.000=0=0=0=StretchNoLoop====
;
#FGCHANGES:;

//--------------- dance-single - Pandemonium X ----------------
#NOTES:
     dance-single:
     Pandemonium X:
     Beginner:
     3:
     0.083034,0.192436,0.054982,0.1728,0,74,67,7,22,0,0,0.083034,0.192436,0.054982,0.1728,0,74,67,7,22,0,0:
0000
0000
0000
0000
,
0000
0000
0000
0000
,
0000
0000
0000
0000
,
0000
0000
0000
0000
,
0000
0000
0000
0000
,
0000
0000
0000
0000
,
0000
0000
0000
0000
,
0000
0000
0000
0000
,
2002
0000
0000
0000
,
3000
0000
0003
0000
,
0100
0000
0000
0000
,
0010
0000
0000
0000
,
1000
0000
0000
0000
,
0001
0000
0000
0000
,
0010
0000
0000
0000
,
0100
0000
0000
0000
,
1000
0000
0100
0000
,
0020
0000
0030
0001
,
2000
0000
0000
3000
,
0002
0000
0000
0003
,
0200
0000
0000
0300
,
0020
0000
0000
0030
,
0200
0000
0000
0300
,
0002
0000
0000
0003
,
1000
0000
0001
0000
,
0100
0100
0100
0000
,
1001
0000
0000
0000
,
0000
0000
0000
0000
,
0000
0000
0000
0000
,
0000
0000
0000
0000
,
0002
0000
0000
0000
0000
0000
0000
0003
,
0000
0000
0000
0000
,
2000
0000
0000
0000
0000
0000
0000
3000
,
0000
0000
0000
0000
,
0020
0000
0000
0000
0000
0000
0000
0030
,
0000
0000
0000
0100
,
0200
0000
0000
0000
0000
0000
0000
0300
,
0000
0000
0000
0000
,
0000
0002
0000
0000
0000
0000
0000
0003
,
0000
2000
0000
0000
0000
0000
0000
3000
,
0000
0020
0000
0000
0000
0000
0000
0030
,
0000
0200
0000
0000
0000
0000
0000
0300
,
0000
0020
0000
0000
0000
0000
0000
0030
,
0000
2000
0000
0000
0000
0000
0000
3000
,
0000
0002
0000
0000
0000
0000
0000
0003
,
0000
0020
0000
0000
0000
0000
0000
0030
,
1001
0000
0000
0000
,
0001
0000
0000
0000
,
0100
0000
0000
0100
0000
0000
0000
0000
,
0000
0000
0000
0000
,
0010
0000
0000
0010
0000
0000
0000
0000
,
0000
0000
0000
0000
,
1000
0000
0000
1000
0000
0000
0000
0000
,
1001
0000
0000
0000
,
0001
0000
0000
0000
,
1000
0000
0000
0000
,
0100
0000
0000
0000
,
0010
0000
0000
0000
,
0001
0000
0000
0000
,
0100
0000
0000
0000
,
0010
0000
0100
0000
,
1001
0000
0000
0000
,
1000
0000
1000
0000
0000
0000
0000
0001
,
0000
0000
0000
0000
,
0001
0000
0000
1000
0000
0000
0000
0001
,
0000
0000
0000
0000
,
0001
0000
0001
0000
0000
0000
0000
1000
,
0000
0000
0000
0001
,
1001
0000
0000
0000
0000
0000
0000
0110
,
0000
0000
0000
0200
,
0300
0000
0000
0000
0000
0000
0000
0000
0000
0000
0000
0000
0000
0000
0000
0000
0000
0000
0000
0000
0000
0000
0000
0000
;

//--------------- dance-single - Pandemonium X ----------------
#NOTES:
     dance-single:
     Pandemonium X:
     Easy:
     7:
     0.230026,0.357381,0.117818,0.41629,0.019636,205,190,15,53,0,0,0.230026,0.357381,0.117818,0.41629,0.019636,205,190,15,53,0,0:
0000
0000
0000
0000
,
0000
0000
0000
0000
,
0000
0000
0000
0000
,
0000
0000
0000
0000
,
0000
0000
0000
0000
,
0000
0000
0000
0000
,
0001
1000
0001
1000
,
0001
1000
0001
1000
,
0002
0000
0023
0000
0230
0000
2300
0000
,
3010
0000
0000
0100
0000
0000
0010
0000
0100
0000
0000
0000
0010
0000
0000
0000
,
1001
1000
0001
0001
,
0010
0100
1000
1000
,
0100
1000
0010
0010
,
0100
0001
0010
0010
,
0100
0010
0001
0001
,
1000
0001
1000
1000
,
0001
0101
1010
0101
,
0001
0000
0000
1000
0000
0000
0001
0000
1000
0000
0000
0000
0200
0000
0000
0000
,
0310
0001
0200
0310
,
0100
0001
2000
3100
,
1000
0010
0200
0301
,
0010
0100
0020
0031
,
0100
0010
0200
0301
,
0100
0010
2000
3100
,
2000
0000
3200
0000
0320
0000
0032
0000
,
1003
0000
0000
0001
0000
0000
1000
0000
0001
0000
0000
0000
0110
0000
0000
0000
,
2002
0000
0000
0000
,
0000
0000
0000
0000
,
0000
0000
0000
0000
,
3003
0000
0000
0000
,
1000
0000
0100
0000
0000
0000
0000
0010
,
0000
0000
0000
0000
,
0001
0000
0010
0100
0000
0000
0000
1000
,
0000
0000
0000
0000
,
0010
0000
0100
0000
0000
0000
0000
0001
,
0000
0000
0000
1000
,
1001
0000
0000
0000
0000
0000
0000
0110
,
0000
0000
0000
0000
,
0001
0100
0020
0000
0000
0000
0000
0200
,
0000
0000
0000
0330
,
0010
0000
0010
2000
0000
0000
0000
0200
,
0000
0000
0000
3300
,
0100
0010
0002
0000
0000
0000
0000
2000
,
0000
0000
3003
1001
,
0220
0000
0000
0000
0330
0000
0000
2002
,
0000
0000
3000
0003
,
1000
0010
2000
3000
,
0001
0100
0002
0003
,
0010
0001
0020
0030
,
0100
1000
0200
0300
,
1000
0001
0100
0001
,
1000
0100
1000
0001
,
2000
0000
3200
0000
0320
0000
0032
0000
,
0103
0000
0000
0010
0000
0000
0100
0000
0010
0000
0000
0000
1001
0000
0000
0000
,
2000
3100
0010
0100
,
0020
0031
0100
0010
,
0200
0301
0100
0010
,
2000
3100
0010
0001
,
0020
0130
0010
0001
,
0200
0310
0100
0001
,
2000
0000
3200
0000
0320
0000
0032
0000
,
1003
0000
0000
0001
0000
0000
1000
0000
0001
0000
0000
0000
2000
0000
0000
0000
,
3010
0100
0001
0000
0000
0000
0000
2000
,
0000
0000
0000
3000
,
0100
0000
0100
0010
0000
0000
0000
0002
,
0000
0000
0000
0003
,
0010
0001
0100
0000
0000
0000
0000
0020
,
0000
0000
0000
0130
,
2002
0000
0000
0000
0000
3003
0000
0220
,
0000
0000
0000
0330
,
1001
0000
0000
0000
;

//--------------- dance-single - Pandemonium X ----------------
#NOTES:
     dance-single:
     Pandemonium X:
     Medium:
     10:
     0.355698,0.522327,0.188509,0.298472,0.274909,317,293,24,38,0,0,0.355698,0.522327,0.188509,0.298472,0.274909,317,293,24,38,0,0:
0000
0000
0000
0000
,
0000
0000
0000
0000
,
0000
0000
0000
0000
,
0000
0000
0000
0000
,
0000
0000
0000
0000
,
0000
0000
0000
0000
,
0000
0001
0000
1000
1000
0000
0000
0000
,
0001
0001
0001
0000
1000
0000
0000
0000
,
1001
0101
1001
1100
,
1000
0000
0001
1000
0000
0001
1000
0000
1001
0000
0000
0000
1000
0020
0000
0130
,
0002
0010
0100
1003
,
2000
0100
0010
3001
,
0200
1000
0010
0301
,
0020
0001
1000
0130
,
0020
0032
0203
1300
,
2000
3200
0302
1003
,
0001
1000
1001
0000
0101
0000
1001
0000
,
0001
0000
1000
0001
0000
1000
0001
0000
1001
0000
0000
0000
0001
0020
0000
0130
,
1000
0000
0001
0000
0000
0010
0000
0000
0100
0000
0000
1000
0000
0000
1001
0000
,
0000
0000
1000
0000
0000
0100
0000
0000
0010
0000
0000
0001
0000
0000
1001
0000
,
0000
0000
1000
0000
0000
0010
0000
0000
0100
0000
0000
0001
0000
0000
0101
0000
,
0000
0000
0001
0000
0000
0100
0000
0000
0010
0000
0000
1000
0000
0000
1010
0000
,
0000
0000
1000
0000
0000
0100
0000
0000
0010
0000
0000
0001
0000
0000
1100
0000
,
0000
0000
0001
0000
0000
0010
0000
0000
0100
0000
0000
1000
0000
0000
0011
0000
,
0002
0000
2003
0000
3200
0000
0320
0000
,
0130
0000
1000
0100
0000
1000
0010
0000
0100
0000
0000
0000
0010
0200
0000
0301
,
0020
0000
0000
0000
,
0000
0000
0000
0000
,
0000
0000
0000
0000
,
0030
0000
0000
0000
,
0001
1000
0010
0000
0000
0000
0000
1010
,
0000
0000
0000
0000
,
1000
0010
0100
0010
0000
0000
0000
0101
,
0000
0000
0000
0000
,
0001
1000
0010
0000
0000
0000
0000
1001
,
0000
0000
0000
0110
,
1001
0000
0000
0000
0000
0000
0000
0101
,
0000
0000
0000
0000
,
0000
0000
0001
0000
0000
1000
0000
0000
0010
0000
0000
0100
0000
0000
0001
0000
,
0000
0000
0010
0000
0000
0100
0000
0000
1000
0000
0000
0001
0000
0000
1000
0000
,
0000
0000
0001
0000
0000
0010
0000
0000
0001
0000
0000
0100
0000
0000
0010
0000
,
0000
0000
0100
0000
0000
0010
0000
0000
1000
0000
0000
0100
0000
0000
0010
0000
,
0000
0000
0100
0000
0000
0010
0000
0000
0001
0000
0000
1000
0000
0000
0010
0000
,
0000
0000
0100
0000
0000
0010
0000
0000
1000
0000
0000
0001
0000
0000
1000
0000
,
0000
0000
0001
0000
0000
0010
0000
0000
0100
0000
0000
1000
0000
0000
0100
0000
,
0000
0000
1000
0000
0000
0010
0000
0000
0100
0000
0001
0000
0020
0000
0000
0000
,
0130
1000
0000
0000
0100
0000
0000
0000
1000
0000
0000
0000
0010
0000
0000
0000
,
0100
0001
0000
0000
0100
0000
0000
0000
0001
0000
0000
0000
1000
0000
0000
0000
,
0010
0100
0000
0000
0010
0000
0000
0000
0100
0000
0000
0000
0001
0000
0000
0000
,
0010
0100
0000
0000
0010
0000
0000
0000
0001
0000
0000
0000
1000
0000
0000
0000
,
0001
0100
0001
0000
0100
0010
0100
0000
,
0010
1000
0010
0000
1000
0100
1000
0000
,
0002
0000
0203
0000
0320
0000
2030
0000
,
3100
0000
0010
0100
0000
0010
0100
0000
1000
0000
0000
0000
1002
0000
0000
0000
,
0103
0010
0000
0000
0100
0000
0000
0010
0000
0000
0100
0000
0001
0000
1000
0001
,
0000
1000
0000
0000
0100
0000
0000
0010
0000
0000
0100
0000
1000
0000
0001
1000
,
0000
0010
0000
0000
0100
0000
0000
0100
0000
0000
0010
0000
0000
1000
0000
1000
,
0000
0100
0000
0000
0010
0000
0000
0001
0000
0000
0010
0000
0001
0000
0100
0001
,
0000
0100
0000
0000
0010
0000
0000
1000
0000
1000
0001
0000
0010
0000
0100
1000
,
0000
0100
0000
0000
0010
0000
0000
0001
0000
0000
1000
0000
0010
0000
0100
0010
,
0100
0001
0020
0000
0230
0000
2300
0000
,
3001
0000
1000
0001
0000
1000
0001
0000
1000
0000
0100
0000
0120
0000
0000
0000
,
0031
0010
0200
0000
0000
0000
0000
0320
,
0000
0000
0000
0000
,
0230
2300
3020
0230
0000
0000
0000
2000
,
0000
0000
0000
0300
,
3100
0010
0100
0000
0010
1000
0010
0000
,
1000
0001
1000
0000
0001
0010
0002
0000
,
0013
0000
0100
0000
0000
1000
0000
0000
0010
0000
0100
0000
0010
0000
1000
0000
,
0001
0000
1000
0001
0000
1000
0001
0000
1000
0000
0000
0000
0220
0000
0000
0000
,
0330
0000
0000
0000
0000
0000
0000
0000
0000
0000
0000
0000
0000
0000
0000
0000
0000
0000
0000
0000
0000
0000
0000
0000
0000
0000
0000
0000
0000
0000
0000
0000
0000
0000
0000
0000
0000
0000
0000
0000
0000
0000
0000
0000
0000
0000
0000
0000
0000
0000
0000
0000
0000
0000
0000
0000
0000
0000
0000
0000
0000
0000
0000
0000
0000
0000
0000
0000
0000
0000
0000
0000
0000
0000
0000
0000
0000
0000
0000
0000
0000
0000
0000
0000
0000
0000
0000
0000
0000
0000
0000
0000
0000
0000
0000
0000
;

//--------------- dance-single - Pandemonium X ----------------
#NOTES:
     dance-single:
     Pandemonium X:
     Hard:
     13:
     0.498202,0.687272,0.054982,0.41629,0.573381,444,437,7,53,0,0,0.498202,0.687272,0.054982,0.41629,0.573381,444,437,7,53,0,0:
0000
0000
0000
0000
,
0000
0000
0000
0000
,
0000
0000
0000
0000
,
0000
0000
0000
0000
,
0000
0000
0000
0000
,
0000
0000
0000
0000
,
0000
0000
1000
0000
0000
0000
0001
1000
0001
1000
0000
0000
0000
0000
0000
0000
,
0001
0000
0001
0000
0001
1000
0000
0000
1000
0001
1000
0001
0000
0000
0000
0000
,
1200
0000
0301
0000
0201
0000
1300
0000
,
1010
0000
0010
0100
0000
0100
0001
0000
2001
0000
0000
0000
3001
0010
0100
0010
,
0001
0000
0001
0000
0000
0010
0000
0010
0100
0000
0000
1000
0000
0000
0001
0000
,
0000
0000
0100
0000
0000
0010
0000
0010
0100
0000
0000
0001
0000
0000
1000
0000
,
0000
0000
0100
0000
0000
0010
0000
0010
0100
0000
0000
1000
0000
0000
0010
0000
,
0000
0000
0100
0000
0000
0010
0000
0010
0100
0000
0000
0010
0000
0000
1000
0000
,
0000
0000
1000
0000
0000
0100
0000
0100
0010
0000
0000
0001
0000
0000
0100
0000
,
0000
0000
0001
0000
0000
0100
0000
0100
0010
0000
0000
1000
0000
0000
0001
0000
,
1000
0000
0100
0000
0010
0001
0010
0000
0100
1000
0100
0000
1000
0010
1000
0000
,
0001
0000
1000
0100
0000
0010
0100
0000
1000
0000
0001
0000
0100
0010
1000
0001
,
1000
0000
0001
0000
1000
0100
0000
0100
0010
0000
0010
0001
0000
0001
0100
0000
,
0000
0000
0010
0000
0010
0100
0000
0100
0001
0000
0001
1000
0000
1000
0100
0000
,
0000
0000
0010
0000
0010
0001
0000
0001
1000
0000
1000
0010
0000
0010
0100
0000
,
0000
0000
0010
0000
0010
0100
0000
0100
0001
0000
0001
0010
0000
0010
0100
0000
,
1000
0000
0001
0000
0001
1000
0000
1000
0010
0000
0010
0100
0000
0100
0001
0000
,
1000
0000
0001
0000
0001
0010
0000
0010
0100
0000
0100
1000
0000
1000
0010
0000
,
0100
0000
0001
0100
0001
0000
1000
0000
0100
0010
0100
1000
0001
0010
0100
0010
,
0001
0000
0100
0010
0000
1000
0001
0000
1000
0000
0100
0000
0010
0100
1000
0001
,
0200
0000
0000
0000
,
0000
0000
0000
0000
,
0000
0000
0000
0000
,
0300
0000
0000
0000
,
0020
0230
0302
0000
0000
0000
0000
2003
,
0000
0000
0000
3000
,
0200
0302
0203
2300
0000
0000
0000
3002
,
0000
0000
0000
0003
,
0020
0230
2300
0000
0000
0000
0000
3002
,
0000
0000
0000
0203
,
0320
0000
0000
0000
0000
0000
0000
2000
,
0000
0000
0000
0000
0000
0000
0030
0000
,
3002
0000
0023
0000
0032
0000
0000
0000
0100
0000
0000
0100
0000
0000
0203
0000
,
0000
0000
0010
0000
0000
0010
0000
0000
0010
0000
0000
0010
0000
0000
0310
0000
,
2000
0000
3002
0000
0023
0000
0230
0000
1000
0000
0000
1000
0000
0000
2300
0000
,
0000
0000
0010
0000
0000
0010
0000
0000
0010
0000
0000
0010
0000
0000
3010
0000
,
0200
0000
0302
0000
0023
0000
0000
0000
0100
0000
0000
0130
0000
0000
0020
0000
,
0000
0000
0001
0000
0000
0001
0000
0000
0001
0000
0000
0000
0230
0000
0000
0000
,
0320
0000
0001
0000
0000
0001
0000
0000
0001
0000
0000
0001
0000
0000
0032
0000
,
0000
0000
1000
0000
0000
1000
0000
0000
1003
0010
1000
0010
0100
0001
0100
0010
,
1000
0001
0000
0000
0100
0000
0000
0000
0001
0000
0100
0000
0010
0000
1000
0000
,
0001
0010
0000
0000
0100
0000
0000
0000
0010
0000
0001
0000
1000
0000
0010
0000
,
0200
0000
1300
0200
0000
0301
0200
0000
,
0310
1000
0000
0000
0001
0000
0000
0000
1000
0000
0001
0000
1000
0000
0100
0000
,
0010
0001
0010
0001
0010
0010
0001
0001
,
1000
0100
1000
0100
1000
1000
0100
0100
,
1000
0000
1000
0001
0000
0001
0100
0000
0100
0010
1000
0010
0100
0001
0010
0100
,
1000
0000
0001
0100
0000
1000
0100
0000
0001
0000
0010
0100
2000
0000
0000
0000
,
3001
0200
0000
0000
0310
0000
0000
1010
0000
0000
1000
0000
0100
0000
0010
0100
,
0000
2000
0000
0000
3002
0000
0000
0203
0000
0000
0310
0000
1000
0000
0010
1000
,
0000
0002
0000
0000
2003
0000
0000
3200
0000
0000
0320
0000
0000
0100
0000
0130
,
0000
0020
0000
0000
0032
0000
0000
0203
0000
0000
0310
0000
0100
0000
0010
1000
,
0000
0001
0000
0010
0001
0000
0000
1000
0000
1000
0001
0000
1000
0000
0010
0100
,
0000
0010
0000
0010
1000
0000
0000
1000
0000
0000
0001
0000
0001
0000
1000
0010
,
0000
0100
0000
0000
0010
0100
0010
0000
1000
0001
1000
0000
0001
0010
0001
0000
,
1000
0000
0001
0010
0000
0100
1000
0000
0001
0000
1000
0000
0010
0100
0001
0100
,
0010
0000
1000
0000
0001
1000
0000
1000
0010
0000
0010
0100
0000
0100
0001
0000
,
0010
0000
0100
0000
0010
0001
0000
0001
0100
0000
0100
0010
0000
0010
1000
0000
,
0100
0000
0010
0000
0100
0010
0000
0010
0001
0000
0001
1000
0000
1000
0010
0000
,
0100
0000
0010
0000
0100
0010
0000
0010
1000
0000
1000
0001
0000
0001
0100
0000
,
0010
1000
0010
1000
0010
0010
1000
1000
,
0001
0100
0001
0100
0001
0001
0100
0100
,
0001
1000
0100
0000
0010
0100
0000
1000
0010
0000
0100
0001
1000
0000
0001
0000
,
1000
0000
0001
0100
0000
0010
1000
0000
1001
0000
0000
0000
0220
0000
0000
0000
,
0330
0000
0000
0000
0000
0000
0000
0000
0000
0000
0000
0000
0000
0000
0000
0000
0000
0000
0000
0000
0000
0000
0000
0000
0000
0000
0000
0000
0000
0000
0000
0000
0000
0000
0000
0000
0000
0000
0000
0000
0000
0000
0000
0000
0000
0000
0000
0000
0000
0000
0000
0000
0000
0000
0000
0000
0000
0000
0000
0000
0000
0000
0000
0000
0000
0000
0000
0000
0000
0000
0000
0000
0000
0000
0000
0000
0000
0000
0000
0000
0000
0000
0000
0000
0000
0000
0000
0000
0000
0000
0000
0000
0000
0000
0000
0000
;
