#TITLE:Pluto The First;
#SUBTITLE:;
#ARTIST:WHITE WALL;
#TITLETRANSLIT:;
#SUBTITLETRANSLIT:;
#ARTISTTRANSLIT:;
#GENRE:;
#CREDIT:;
#MUSIC:Pluto The First.ogg;
#BANNER:;
#BACKGROUND:Pluto The First-bg.png;
#CDTITLE:;
#SAMPLESTART:4.175;
#SAMPLELENGTH:12.522;
#SELECTABLE:YES;
#OFFSET:-2.088;
#BPMS:0.000=115.000000
,51.000=50.000000
,59.000=200.000000
,101.000=440.000000
,214.000=220.000000
,246.000=230.000000
,277.000=440.000000
,366.000=220.000000
;
#STOPS:38.750=0.522
,99.000=0.150
,99.500=0.150
,100.000=0.150
,100.500=0.075
,100.750=0.075
,120.000=0.273
,141.000=0.409
,183.000=0.273
,261.500=0.261
,289.000=0.136
,295.000=0.136
,296.000=0.273
,302.000=0.136
,310.000=0.136
,315.000=0.273
,327.000=0.136
,329.000=0.273
,332.000=0.136
,334.000=0.273
,340.000=0.307
;
#BGCHANGES:;
#FGCHANGES:;

//--------------- dance-single - Pandemonium X ----------------
#NOTES:
     dance-single:
     Pandemonium X:
     Beginner:
     8:
     0,0,0,0,0:
0000
0000
0000
0000
,
0000
0000
0000
0000
,
0000
0000
0000
0000
,
0000
0000
0000
0000
,
0001
0000
0000
1000
,
0000
0010
0000
0000
0100
0000
0000
0000
,
0000
0000
0010
0000
0000
1000
0000
0000
,
0001
0000
0000
1000
,
0000
0000
0010
0000
,
0000
0100
0000
0010
,
0000
0000
0100
0000
,
0000
0001
0000
0000
,
1000
0000
0000
0001
0000
0000
0200
0000
,
0000
0000
0300
0010
0020
0000
0000
0000
0000
0000
0030
0100
0100
0000
0010
0000
,
1000
0001
0010
0001
1000
0001
0100
0000
,
0000
0010
0000
0100
,
0000
0001
1000
0000
,
0100
0000
0010
0001
,
0000
1000
0000
0010
,
0000
0100
0000
0001
,
0000
0010
0100
0000
,
0010
0000
0001
1001
,
0000
0001
0000
1001
,
0000
1000
0000
1001
,
0000
0001
0000
0200
,
0000
0310
0000
0000
,
0100
0000
0000
0010
,
0000
0000
1000
0000
,
0000
0001
0000
0001
,
0000
0001
0000
0000
,
2000
3001
0000
0000
,
0010
0000
0000
0100
,
0000
0100
0000
0100
,
0000
0000
1000
0000
,
0000
0010
0000
0000
,
0200
0000
0300
0000
,
0010
0000
0000
0110
,
0000
0000
0100
0000
,
0000
0001
0000
0000
,
0010
0000
0010
0000
,
0100
0000
0000
1000
,
0000
0000
0001
0000
,
0000
0100
0000
0000
,
0010
0000
0000
0100
,
0000
0000
0010
0000
,
0000
1000
0000
0002
,
1003
0000
0100
0000
,
0000
1000
0000
0000
,
0010
0000
0000
0100
,
0000
0000
0001
0000
,
0010
0000
0100
0000
,
0000
1001
0000
0000
,
0000
0000
0000
0000
,
0000
0000
0001
0000
,
0000
0000
0000
0000
,
1000
0000
0010
0000
,
0000
0000
0000
0000
,
0100
0000
0001
0000
,
0000
0000
0000
0000
,
0010
0000
0100
0000
,
0000
0000
0000
0000
,
0000
0000
1000
0000
,
0000
0000
0000
0000
,
0001
0000
0100
0000
,
0000
0000
0000
0000
,
0010
0000
0000
1001
,
0000
0000
0000
0001
,
0000
1000
0000
0000
,
0000
0000
0000
0100
,
0000
0010
0000
0000
,
0000
0001
0000
0000
,
0000
0100
0000
0100
,
0000
0200
0300
0000
,
0010
0000
0020
0000
,
0000
1030
0000
1000
,
0000
2000
0000
3000
,
0001
0000
0001
0000
,
0001
0000
2000
3001
,
0000
0001
0000
0200
,
0300
0001
0000
0001
,
0000
1000
0000
0001
,
0000
1000
0000
0002
,
0003
2000
3001
0000
,
0002
0003
2000
3001
,
0000
1000
0000
0002
,
0000
0000
0000
1000
0003
0000
0000
0000
0000
0000
0000
0000
0000
0000
0000
0000
,
0000
0000
0000
0000
0000
0010
0000
0000
0000
0000
0000
0000
0000
0000
0000
0000
,
0000
0000
0000
0000
0000
0000
0000
0100
0000
0000
0000
0000
0000
0000
0000
0000
,
0000
0000
0000
0000
0000
0000
0000
0001
0000
0000
0000
0000
0000
0000
0000
0000
,
0000
0000
0000
0000
0000
0000
0000
0000
0000
0010
0000
0000
0000
0000
0000
0000
,
0000
0000
0000
0000
0000
0000
0000
0000
0000
0100
0000
0000
0000
0000
0000
0000
,
0000
0000
2002
0000
,
0000
0000
0000
0000
,
0000
0000
3003
0000
;

//--------------- dance-single - Pandemonium X ----------------
#NOTES:
     dance-single:
     Pandemonium X:
     Easy:
     12:
     0,0,0,0,0:
0000
0000
0000
0000
,
0000
0000
0000
0000
,
0000
0000
0000
0000
,
0000
0000
0000
0000
,
0001
0100
0001
0100
0010
0100
0010
1000
,
0010
1000
0100
1000
0100
0010
0100
0010
,
0001
0010
0001
0100
0001
0100
0010
0100
,
0001
1000
0001
1000
1000
1000
0001
1000
,
0001
0010
0010
0010
0001
1000
0001
1000
,
1000
0000
1000
0000
0001
0000
1000
0000
0001
0000
0010
0000
0100
0000
0000
1000
,
0000
0000
0010
0000
0000
0100
0000
0000
0001
0000
0000
0010
0000
0000
0100
0000
,
0000
1000
0000
0000
1001
0000
0000
0001
0000
0000
1000
0000
0000
0010
0000
0000
,
1010
0000
0000
0000
0000
0000
0010
0000
0000
0000
0000
0000
0110
0000
0000
0000
0000
0000
0100
0000
0000
0000
0000
0000
0101
0000
0000
0001
0000
0000
0010
0000
,
0000
0100
0000
0000
0010
0000
0001
0000
1000
0000
0000
0100
0000
0000
1000
0000
0000
0010
0000
0000
0100
0000
0010
0000
1000
0000
1000
0000
0001
0000
0001
0000
,
0100
0100
0010
0010
1000
0010
0100
0001
0010
0100
1000
0001
1000
0000
0000
0000
,
0001
0100
0001
0010
,
0100
0000
0010
0001
0100
0000
0001
0000
,
1000
0100
0010
0100
,
1000
0000
0010
0000
0100
0001
1000
0000
,
0001
0010
0100
0010
,
0001
0000
1000
0100
0010
0000
0100
0000
,
1000
0000
0001
0000
0100
0000
0001
0010
,
0100
0000
1000
0000
0001
0000
1000
0100
,
0010
0000
0001
0000
1000
0000
0001
0010
,
0100
0000
0010
0000
0001
0000
1000
0001
,
0100
0010
1000
0000
0000
0000
0000
0000
,
0010
0000
0000
0100
,
0000
0000
0001
0000
,
0000
0010
0000
0100
,
0000
1000
0000
0100
,
0010
0100
0000
0000
,
1000
0000
0000
0010
,
0000
0100
0000
0001
,
0000
0000
1000
0000
,
0000
0001
0000
0000
,
0010
0000
0100
0010
,
0100
0000
0000
0010
,
0000
0000
0001
0000
,
0000
0100
0000
0000
,
0001
0000
1000
0000
,
0001
0000
0000
1000
,
0000
0000
0100
0000
,
0000
1000
0000
0000
,
0010
0000
0000
0100
,
0000
0000
0010
0000
,
1000
0000
0001
0000
,
1000
0000
0001
0000
,
0000
0010
0000
0000
,
0001
0000
0000
0100
,
0000
0000
0010
0000
,
0100
0000
0001
0000
,
0000
1001
0000
0000
,
0000
0000
0000
0000
,
0000
0000
2000
0000
,
0100
0000
0010
0000
,
3002
0000
0203
0000
,
0010
0000
0001
0000
,
0320
0000
2030
0000
,
0100
0000
0001
0000
,
3200
0000
0320
0000
,
0001
0000
0100
0000
,
0031
0000
1000
0001
,
0100
0001
0010
0100
,
1000
0001
1000
0100
,
1000
0001
0010
0100
,
1000
0000
0001
0000
1000
0001
1000
0000
,
0001
0100
0001
1000
,
0100
0010
0100
1000
,
0001
0010
0100
1000
,
0001
1000
0000
0010
,
0000
0100
0000
0001
,
0000
0010
0000
0100
,
0000
0000
0100
0000
,
0010
0000
0001
0000
,
1001
1000
0000
0001
,
0000
0100
0000
0000
,
0001
0000
1000
0000
,
0100
0000
0010
0100
,
0000
1000
0000
0001
,
1000
1000
0000
0001
,
0000
0010
0000
0001
,
0000
0100
0000
0010
,
0100
0001
1000
0000
,
0100
0010
0100
0010
,
0000
0001
0000
0100
,
0000
0000
0000
0000
0000
0101
0000
0000
0000
0000
0000
0000
0000
0000
0000
0000
,
0000
0000
0000
0000
0000
0000
0000
0000
0000
1010
0000
0000
0000
0000
0000
0000
,
0000
0000
0000
0000
0000
0000
0000
0000
0000
1100
0000
0000
0000
0000
0000
0000
,
0000
0000
0000
0000
0000
0000
0000
0000
0000
0000
0000
0011
0000
0000
0000
0000
,
0000
0000
0000
0000
0000
0000
0000
0000
0000
0000
0000
1100
0000
0000
0000
0000
,
0000
0000
0000
0000
0000
0000
0000
0000
0000
0000
0000
1001
0000
0000
0000
0000
,
0000
0000
1000
0100
,
0010
0000
0100
0000
1000
0000
0001
0010
,
0100
0010
0001
1000
0000
0000
0000
0000
;

//--------------- dance-single - Pandemonium X ----------------
#NOTES:
     dance-single:
     Pandemonium X:
     Medium:
     15:
     0,0,0,0,0:
0000
0000
0000
0000
,
0000
0000
0000
0000
,
0000
0000
0000
0000
,
0000
0000
0000
0000
,
0001
0100
0001
0100
0010
0100
0010
1000
,
0010
1000
0100
1000
1001
1000
0001
0010
,
0100
0010
0110
0100
1000
1100
0100
0010
,
0001
1000
0010
0000
0010
0000
0010
0100
0001
0000
1000
0000
0100
0010
0001
0000
,
0001
0000
0001
0010
0100
0000
0100
0000
0100
1000
0010
0000
0010
0000
0010
0100
,
0001
0000
0001
0000
0001
1000
0010
0000
0010
0000
0010
0000
0200
0000
0000
0301
,
0000
0000
0020
0000
0000
0130
0000
0000
2000
0000
0000
3100
0000
0000
0020
0000
,
0000
0031
0000
0000
0012
0000
0000
1003
0000
0000
0020
0000
0000
1030
0000
0000
,
2100
0000
0000
0000
0000
0000
3100
0000
0000
0000
0000
0000
0210
0000
0000
0000
0000
0000
0310
0000
0000
0000
0000
0000
0011
0000
0000
0010
0000
0000
0001
0000
,
0000
0100
0000
0000
0010
0000
0100
0000
0001
0000
0000
1000
0000
0000
0100
0000
0000
1000
0000
0000
0010
0000
0100
0000
0001
0000
0001
0000
1000
0000
1000
0000
,
0010
0010
0100
0001
0010
0010
0100
0100
1000
1000
0001
0001
1000
0000
0000
0100
,
0000
0000
0010
0000
0000
0001
0000
0000
1000
0000
0010
0000
0100
0000
0000
0001
,
0000
0000
1000
0000
0000
0100
0000
0000
0010
0000
0000
0100
0000
0000
1000
0000
,
0000
0010
0000
0000
0100
0000
0001
0000
1000
0000
0001
0000
0010
0000
0000
0100
,
0000
0000
1000
0000
0000
0010
0000
0000
1000
0000
0001
0000
0010
0000
0000
0100
,
0000
0000
0010
0000
0000
0001
0000
0000
1000
0000
0001
0000
0100
0000
0000
0001
,
0000
0000
1000
0000
0000
0100
0000
0000
0010
0000
0000
0100
0000
0000
1000
0000
,
0000
0001
0000
0000
1000
0000
0010
0000
0100
0000
0001
0000
0020
0000
0000
0001
,
0000
0000
0130
0000
0000
1100
0000
0000
1000
0000
0001
0000
0200
0000
0000
0010
,
0000
0000
0301
0000
0000
1010
0000
0000
1000
0000
0001
0000
2000
0000
0000
0100
,
0000
0000
3100
0000
0000
1100
0000
0000
1000
0000
0100
0000
0020
0000
0001
0000
,
0031
0000
2000
3002
0013
0000
0000
0000
0100
0000
0000
0000
1000
0000
0000
0000
,
0001
0100
0010
1000
,
0010
0100
0010
1000
,
0001
1000
0100
1000
,
0001
0100
0001
0010
,
0200
0310
0001
0100
,
0001
1000
0001
0010
,
0100
1000
0100
0010
,
0100
1000
0001
1000
,
0010
0100
0001
0100
,
0001
2000
3100
0010
,
0001
0100
0110
0010
,
0100
0001
1000
0100
,
1000
0001
0100
0001
,
0010
0001
1000
0010
,
1000
0100
0010
0001
,
1000
0100
1000
0010
,
1000
0010
0100
0010
,
0100
0001
0010
0100
,
1000
0100
1000
0010
,
0100
0001
0010
0210
,
1300
0001
0100
0001
,
1000
0010
1000
0001
,
0010
0100
0010
0001
,
0100
0010
1000
0001
,
0010
0100
0010
0001
,
1000
2002
0000
0000
,
0000
3003
0000
0000
,
0000
0000
0000
0000
0002
0000
0000
2003
,
0000
0000
3010
0100
0010
1000
0010
0200
,
0000
0301
0010
0001
1000
0100
1000
0010
,
1000
0010
0100
0001
0100
0001
0010
0200
,
0000
1300
1100
1000
0100
0010
0100
1000
,
0001
0100
0010
0100
0001
0010
0100
1000
,
0100
0010
0100
1000
0010
0100
0001
0010
,
0100
1000
0100
1000
0010
0100
0001
0010
,
0100
1000
0001
0001
1000
0010
1000
0010
,
0100
0000
0010
0100
0010
0100
0001
1000
,
0000
0100
1000
0100
0010
0001
0010
0001
,
0100
0000
0010
1000
0010
1000
0100
0010
,
0000
0100
1000
0010
1000
0001
1001
0000
,
1000
0010
1000
0010
1000
0001
0000
0010
,
0001
0010
0100
1000
0100
1000
0001
0000
,
0010
0001
0010
0001
1000
0001
0000
1000
,
0100
0010
0001
0000
0010
0000
0001
0000
,
0100
0010
1000
0001
,
0010
0100
0100
1000
,
0010
0200
0310
1000
,
0001
0010
0100
1000
,
0011
0001
0010
0001
,
1000
0010
0200
0310
,
1000
0001
0010
0100
,
0010
0001
2000
3100
,
0001
0100
1000
0020
,
0130
1000
0100
0001
,
1000
0100
0010
0100
,
1000
0001
1000
0020
,
0130
0002
0013
0100
,
2000
3001
0020
0130
,
0001
0100
1000
0010
,
0200
0000
0000
0310
0000
1000
0000
0001
0000
0000
0000
0000
0000
0000
0000
0000
,
0000
0000
0000
0000
0000
0010
0000
0100
0000
1000
0000
0000
0000
0000
0000
0000
,
0000
0000
0000
0000
0000
0100
0000
0010
0000
0001
0000
0000
0000
0000
0000
0000
,
0000
0000
0000
0000
0000
0010
0000
0001
0000
0200
0000
0000
0000
0000
0000
0000
,
0000
0000
0000
0310
0000
0000
0000
0100
0000
0001
0000
2000
0000
0000
0000
0000
,
0000
0000
0000
3100
0000
0000
0000
0010
0000
0001
0000
2000
0000
0000
0000
0000
,
0000
0000
0000
0000
3002
0000
0103
1000
,
0100
0001
0010
0100
1000
0100
0001
0100
,
0010
0001
1000
0001
1000
0100
0010
0001
;

//--------------- dance-single - Pandemonium X ----------------
#NOTES:
     dance-single:
     Pandemonium X:
     Hard:
     17:
     0,0,0,0,0:
0000
0000
0000
0000
,
0000
0000
0000
0000
,
0000
0000
0000
0000
,
0000
0000
0000
0000
,
0101
0100
0100
0110
1000
0001
1001
0001
,
0001
1001
1000
0010
0110
0100
0010
1001
,
1000
0100
1001
0001
1000
0101
1010
0101
,
1000
0001
0010
0000
0010
0000
0010
0001
0100
0000
0110
0000
0010
1000
0001
0000
,
0001
0000
0001
0010
0100
0000
1100
0000
1000
0001
0100
0000
0100
0000
0100
0010
,
1000
0000
1010
0000
1000
0010
0100
0000
0101
0000
1001
0000
2000
0000
3100
0020
,
0000
0031
0200
0000
0310
2000
0000
3001
0020
0000
0130
0002
0000
0013
0200
0000
,
0310
0002
0000
0013
0011
0000
0010
0200
0000
1300
0002
0000
0103
0020
0000
1030
,
1002
0000
0000
0000
1003
0000
0020
0000
0000
0000
0130
0000
0201
0000
0000
0000
0301
0000
0020
0000
0000
0000
0130
0000
1200
0000
0000
1000
0000
0000
0010
0000
,
0000
0001
0000
0000
0310
0000
0011
0000
0201
0000
0000
0001
0000
0000
0010
0000
0000
1000
0000
0000
0310
0000
0110
0000
1001
0000
0001
0100
0001
0000
1000
0100
,
1000
0000
0001
0100
0101
0000
0011
0000
1001
0000
1000
0010
1000
0000
0001
0010
0001
0000
1000
0010
1010
0000
1100
0000
1001
0000
0000
0000
1000
0000
0000
0000
,
0010
1000
0001
0010
0001
1000
0010
1000
,
0001
0000
0010
0000
0100
0000
1000
0001
0100
0000
0010
0000
1000
0000
0001
0000
,
1000
0001
0010
0001
1000
0001
1000
0100
,
0010
0000
0001
0000
0010
0000
0001
0000
1000
0001
1000
0100
0010
0000
0100
0000
,
1000
0001
0100
0001
1000
0100
1000
0001
,
1000
0000
0001
0000
0010
0000
0100
1000
0001
0000
0100
0000
0001
0000
0100
0000
,
0001
0000
1000
0000
0010
0000
0100
0000
0001
0000
1000
0000
0001
0010
0001
0000
,
1000
0000
0010
1000
0010
0000
0100
0000
0001
0000
1000
0000
0100
1000
0100
0000
,
1000
0000
0001
0100
0001
0000
1000
0000
0001
0000
0100
0000
0010
1000
0010
0000
,
0100
0000
0001
0100
0001
0000
1000
0000
0100
1000
0001
0100
0020
0030
0200
0300
,
0002
0003
2000
3002
0103
0000
0000
0000
0010
0000
0000
0000
1000
0000
0000
0000
,
0001
0010
0001
1000
,
0100
0010
0100
1000
,
0001
0100
0001
0010
,
0100
0000
1000
0001
1000
0010
0100
0010
,
2000
3000
0001
0000
0010
0000
0100
0000
,
0010
0000
0001
0000
0100
0000
0001
1000
,
0001
0000
1000
0001
1000
0000
0100
0000
,
0010
0100
1000
0001
,
0100
0000
0001
0100
0001
0000
1000
0000
,
1000
0000
2000
3000
0001
0000
0001
0000
,
0100
0010
0100
0000
1001
0000
1001
0000
,
1000
0000
0100
0000
0010
0100
0010
0000
,
0001
0000
0100
0010
0100
0000
0001
0000
,
1000
0100
1000
0000
0001
0100
0001
0000
,
0010
0100
0010
0000
0001
0000
1000
0010
,
0100
0000
0001
0000
1000
0001
0010
0000
,
0100
0000
0010
0001
0100
0000
0001
0000
,
1000
0100
0010
0001
,
1000
0010
0100
0010
,
0100
0000
0010
0000
1000
0000
2002
3003
,
0001
0000
1000
0000
0100
0010
0001
0000
,
0010
0000
0001
1000
0010
0000
0100
0000
,
0001
1000
0100
0000
0010
0000
0100
1000
,
0001
1000
0001
0100
,
0001
0000
1000
0000
0100
1000
0001
0000
,
0010
2002
0000
0000
,
0000
0000
0000
0000
,
3003
0000
0000
0000
0101
0100
0001
2000
,
0000
0000
3001
0010
0100
1000
0100
2000
,
0000
0000
3100
1000
1000
0001
0100
0001
,
0020
0000
0130
0010
0001
0001
0100
0020
,
0000
0031
0010
1000
0001
0010
1000
0010
,
0001
1000
0010
1000
0001
1000
0100
0001
,
0100
1000
0010
0001
0010
1000
1000
0001
,
0010
0001
0001
0010
0100
0100
1000
2000
,
0000
0001
3001
0000
0001
0100
0001
0100
,
0010
0000
0001
0010
1000
0100
1000
0001
,
0000
0001
1000
0001
1000
0100
1000
0100
,
0010
0000
0100
0001
0100
1000
0001
0100
,
0001
0000
1001
1002
0013
0001
0101
0000
,
1000
0100
0010
0001
0010
0100
0000
0010
,
0010
0001
0100
0010
1000
0001
0010
0000
,
0100
0010
0001
0100
0010
1000
0000
1000
,
1000
0001
1001
0000
1000
0000
0001
0000
,
0100
0010
1000
0001
,
0010
0000
0100
0000
0010
0001
1000
0000
,
0010
0100
0002
0003
1000
0000
0010
0000
,
0100
0000
0010
0100
0001
0000
0200
0000
,
0320
0130
0001
0010
,
0100
0000
1000
0001
2000
0000
3100
0000
,
0010
0001
0010
0100
,
1000
0001
0100
0000
0020
0000
1030
0000
,
0100
0010
0001
0200
,
0310
1000
0001
0010
,
0100
0000
0010
0001
0100
0000
0010
1000
,
0001
0000
0001
0000
1000
0000
2000
3000
,
0100
2000
3010
0100
,
0002
0003
0010
0000
0210
0000
1300
0000
,
0010
0000
0100
0000
0001
1000
0001
1000
,
0001
0000
0000
1000
0000
0100
0000
0020
0000
0000
0000
0000
0000
0000
0000
0000
,
0000
0000
0000
0000
0000
0031
0000
1000
0000
0200
0000
0000
0000
0000
0000
0000
,
0000
0000
0000
0000
0000
0310
0000
0100
0000
2000
0000
0000
0000
0000
0000
0000
,
0000
0000
0000
0000
0000
3100
0000
0010
0000
0002
0000
0000
0000
0000
0000
0000
,
0000
0000
0000
0000
0000
0000
0000
1003
0000
0010
0000
0200
0000
0000
0000
0000
,
0000
0000
0000
0000
0000
0000
0000
0310
0000
1000
0000
0200
0000
0000
0000
0000
,
0000
0000
0300
0000
2001
0000
3001
1000
,
0001
0010
0100
0010
0001
1000
0001
1000
,
0100
0010
0001
1000
0010
0100
0001
1000
;

//--------------- dance-single - Pandemonium X ----------------
#NOTES:
     dance-single:
     Pandemonium X:
     Challenge:
     19:
     0,0,0,0,0:
0000
0000
0000
0000
,
0000
0000
0000
0000
,
0000
0000
0000
0000
,
0000
0000
0000
0000
,
0201
0010
0001
0010
0010
0301
0012
0100
,
0100
1000
1000
0103
1020
0100
1030
0201
,
0010
0301
1001
0110
0110
1001
0110
1001
,
1010
0010
1000
0000
0101
0000
0001
0010
1100
0000
1100
0000
0101
0100
0001
0000
,
1010
0000
1000
0100
0011
0000
0011
0000
0001
0100
0110
0000
1001
0000
0001
0100
,
0110
0000
1001
0000
0001
0100
0101
0000
1001
0000
1001
0000
1000
1000
0010
0100
,
0100
0001
1000
1000
0001
0010
0100
0000
0010
0010
0001
0100
0100
0010
1000
1000
,
0001
0100
0100
0000
1010
0010
0100
0001
0001
0010
0100
0100
1000
0001
0001
0000
,
1001
0000
1000
0000
0001
0000
0010
0000
0010
0000
0100
0000
1100
0000
0100
0000
0010
0000
0001
0000
0001
0000
1000
0000
1001
0000
0001
0100
0010
0000
0100
0010
,
1000
0000
1000
0100
0010
0000
0110
0000
1100
0000
0100
1000
0010
0000
0100
0001
0010
0000
0100
1000
0010
0000
0110
0000
1001
0000
0001
0100
0101
0000
1000
0100
,
1100
0000
0001
0100
0101
0000
0110
0000
1001
0000
1000
0010
1010
0000
0001
0010
0011
0000
0001
1000
1010
0000
0101
0000
1001
0000
0000
0000
1000
0000
0000
0000
,
0001
0000
0010
0000
0100
0000
0010
0000
0001
0000
0100
0010
1000
0001
1000
0001
,
0010
0100
0010
0100
1000
0100
1000
0001
1000
0000
0010
0000
0100
0000
0001
0000
,
0010
0000
0001
0000
0010
0100
1000
0001
0100
0010
0100
0010
1000
0010
1000
0010
,
0100
0001
0100
0001
1000
0100
1000
0100
0010
0001
0010
0001
1000
0000
0001
0000
,
1000
0000
0100
0000
0010
0000
0100
0000
1000
0000
0010
0100
0001
1000
0001
1000
,
0100
0010
0100
0010
0001
0010
0001
1000
0001
0000
0100
0000
0010
0000
1000
0000
,
0100
0000
1000
0000
0100
0010
0001
1000
0010
0100
0010
0100
0001
0100
0001
0100
,
0010
1000
0010
1000
0001
0010
0001
0010
0100
1000
0100
1000
0001
0100
0001
0100
,
0010
1000
0010
1000
0001
0010
0001
0010
0100
1000
0100
1000
0001
0010
0001
0010
,
0100
1000
0100
1000
0100
0010
0100
0010
0001
0010
0100
1000
0001
0000
1010
0000
,
0101
0000
1010
0110
0101
0000
0000
0000
0100
0000
0001
0000
1000
0000
0000
0000
,
0100
0000
0010
0001
1000
0000
0001
0000
,
1000
0100
0010
0000
0100
0000
1000
0010
,
0100
0010
1000
0100
,
0010
0000
0001
0000
1000
0000
0100
1000
,
0001
0000
1001
0000
1000
0001
0100
0000
,
0010
0000
0100
0001
1000
0000
0100
0010
,
0100
0000
0010
0001
0010
0000
0001
0000
,
1000
0100
0010
0000
0100
0000
1000
0001
,
0100
0000
0010
0000
1000
0001
0010
0000
,
0100
0010
0001
0000
0001
0000
0001
0000
,
1000
0000
0100
1000
0001
0000
0101
0000
,
0001
1000
0100
0000
0010
0000
0001
0100
,
0010
0000
0100
0000
0001
0000
1000
0100
,
0010
0000
0001
0010
0100
0000
0010
0001
,
0100
0000
0010
1000
0001
0000
1000
0000
,
0100
0000
0010
0100
1000
0000
0100
0000
,
0010
0000
0001
1000
0100
0000
0010
0001
,
0100
0010
1000
0001
,
0010
0000
0100
0000
1000
0100
1000
0000
,
0001
0010
0001
0000
1000
0000
1001
0000
,
1001
0000
0001
0100
0001
0000
1000
0000
,
0100
0010
0001
0000
0010
0000
0100
1000
,
0010
0000
0100
0000
0001
1000
0010
0000
,
0100
0000
0010
0100
0001
0000
1000
0100
,
1000
0000
0010
0100
0010
0000
0100
0000
,
0001
0100
0020
0000
0000
0000
0000
0000
,
0030
0000
0000
0000
,
0000
0000
0000
0000
1002
0000
0000
2003
,
0000
0000
3010
0001
0010
1000
0100
0020
,
0000
0000
0130
0001
0100
0100
0010
0001
,
0100
0100
1000
0100
1000
0100
0001
1000
,
0010
0010
0001
0010
1000
0100
0001
0100
,
1000
0010
0001
0010
0100
0001
0010
1000
,
0010
0001
0010
0100
1000
0001
0010
0100
,
0010
0001
0100
1000
0100
0001
1000
0100
,
0010
0100
2000
0000
3001
0100
1000
0100
,
0101
0000
0001
0010
1000
0010
0011
0000
,
0001
0100
1100
0000
1000
0100
0001
0100
,
1100
0000
1000
0100
0001
0100
1100
0000
,
1000
0010
0110
0000
1000
0001
1001
0000
,
1000
0100
0010
0001
0001
0010
0001
0010
,
0010
0100
0010
0001
0100
0010
1010
0000
,
0010
0100
0001
0010
0110
0000
0100
0010
,
0011
1100
1000
0000
0001
0000
0100
0000
,
0010
1000
0001
0010
,
0100
0000
0010
0001
0010
0100
1000
0100
,
1000
0001
1000
0000
0010
0000
0100
0001
,
1000
0100
0010
0001
1000
0001
0100
0000
,
0220
0330
1000
0000
0001
0000
0010
0100
,
0010
0001
1000
0001
1000
0000
0100
0000
,
0010
0100
1000
0001
1000
0001
0100
0001
,
0100
0001
1000
0100
0010
0000
0100
0000
,
0001
0100
1000
0001
,
1001
0000
1000
0001
0100
0001
1000
0100
,
0010
0100
0010
0000
0100
0000
1000
0100
,
0010
0000
0001
0010
0100
0000
1001
0000
,
0110
0101
0011
1100
,
0011
0000
1000
0001
0200
0000
0310
0100
,
0001
0000
0010
0000
0100
1000
0001
0000
,
0011
0000
0000
0020
0000
0032
0000
0203
0000
0000
0000
0000
0000
0000
0000
0000
,
0000
0000
0000
0000
0000
0320
0000
2030
0000
3200
0000
0000
0000
0000
0000
0000
,
0000
0000
0000
0000
0000
0320
0000
0032
0000
0203
0000
0000
0000
0000
0000
0000
,
0000
0000
0000
0000
0000
0320
0000
2030
0000
3200
0000
0310
0000
0001
0000
0100
,
0000
0001
0000
1000
0000
0100
0000
0020
0000
0032
0000
2003
0000
3001
0000
0100
,
0000
0010
0000
1000
0000
0001
0000
0020
0000
0230
0000
2300
0000
0000
0000
0000
,
0000
0000
0000
0000
0000
0000
0000
3002
0000
0000
0000
0000
0023
0000
0230
0000
,
2300
3002
0023
0230
0320
0032
2003
3200
,
0320
0230
2300
3002
0203
0320
2030
3002
,
0003
0000
0000
0000
;
