#TITLE:Mare Nectaris;
#SUBTITLE:;
#ARTIST:神楽;
#TITLETRANSLIT:;
#SUBTITLETRANSLIT:;
#ARTISTTRANSLIT:;
#GENRE:;
#CREDIT:;
#MUSIC:Mare Nectaris.ogg;
#BANNER:Mare Nectaris-bn.png;
#BACKGROUND:Mare Nectaris-bg.png;
#CDTITLE:;
#SAMPLESTART:92.374;
#SAMPLELENGTH:15.005;
#SELECTABLE:YES;
#OFFSET:0.438;
#BPMS:0.000=256.000
,388.000=1024.000
,412.000=256.000
;
#STOPS:412.000=0.234;
#DISPLAYBPM:256.000;
#BGCHANGES:;
#FGCHANGES:;

//--------------- dance-single - Pandemonium X ----------------
#NOTES:
     dance-single:
     Pandemonium X:
     Beginner:
     7:
     0,0,0,0,0:
0000
0000
0000
0000
,
0000
0000
0000
0000
,
0000
0000
0000
0000
,
0000
0000
0000
0000
,
0000
0000
0000
0000
,
0000
0000
0000
0000
,
0020
0000
0000
0000
,
0000
0000
0030
0000
,
0110
0000
0000
0000
,
2000
0000
0000
0000
,
3001
0000
0000
0000
,
0000
0000
1000
0000
,
0001
0000
0000
0000
,
0000
0000
0100
0000
,
0001
0000
0000
0000
,
0000
0000
0010
0000
,
0001
0000
0000
0000
,
0000
0000
0000
0000
,
0010
0000
0000
0000
,
0001
0000
0000
1000
,
1000
0000
0000
0001
0000
0000
0100
0000
,
0000
0010
0000
0000
,
0100
0000
0000
0000
,
0010
0000
0000
0100
,
0100
0000
0000
0010
0000
0000
1000
0000
,
0000
0001
0000
0000
,
0100
0000
0010
0000
,
1000
0100
1000
0000
,
0001
0000
0000
0001
0000
0000
0000
0000
,
1000
0000
0000
1000
0000
0000
0000
0000
,
0010
0000
0000
0010
0000
0000
0000
0000
,
0100
0000
0000
0000
,
0010
0000
0000
0010
0000
0000
0000
0000
,
1000
0000
0000
0000
,
0001
0000
1000
0000
,
0200
0000
0000
0000
,
0310
0000
0000
0100
,
0100
0000
0000
0000
,
0010
0000
0001
0001
,
1000
0000
0000
0000
,
0010
0000
0100
0000
,
0001
0001
0001
0000
,
1000
0000
0001
0000
,
0100
0000
0010
0100
,
1001
0000
0000
0000
,
0110
0000
1001
0000
,
0110
0000
0000
0000
,
0000
0000
0200
0000
,
0301
0000
1000
0000
,
0100
0000
0010
0000
,
0001
0000
0000
0000
,
0010
0000
0010
0000
,
0001
0000
0010
0000
,
0100
0000
1000
0000
,
1001
0000
0000
0000
,
0000
0000
0000
0000
,
1000
0000
0000
0000
,
0001
0000
0000
0000
,
0100
0000
0001
0000
,
0010
0000
0000
0000
,
0100
0000
0010
0000
,
0100
0000
1000
0000
,
0001
0000
0000
0000
,
0000
0000
0000
0000
,
0110
0000
0000
0000
,
1000
0000
0000
0000
,
1000
0000
0000
0000
,
0001
0000
0000
0000
,
0001
0000
0100
0000
,
0001
0000
0000
0000
,
1000
0000
0000
0000
,
0100
0000
0000
0000
,
0010
0000
0010
0000
,
0100
0000
0000
0000
,
1000
0000
0000
0000
,
0010
0000
0000
0000
,
0100
0000
0001
0000
,
1000
0000
0000
0000
,
0001
0000
0000
0000
,
1000
0000
0001
0000
,
0200
0000
0000
0000
,
0310
0000
0100
0000
,
0001
0000
1000
0001
,
0100
0000
0000
0000
,
0000
0000
0000
0000
,
0001
0000
1000
0000
,
0100
0000
0010
0100
,
1000
0000
0000
0000
,
0001
0000
0000
0000
,
0100
0000
0000
0000
,
0010
0000
0100
0001
,
1000
0000
0000
0000
,
0000
0000
0000
0000
,
0001
0000
0000
0000
,
0010
0000
0100
0010
,
0001
0000
0000
0000
,
0000
0000
0000
0000
,
1001
0000
0000
0000
,
0000
0000
0000
0000
,
0000
0000
0000
0000
,
0000
0000
0000
0000
,
0000
0000
0000
0000
,
0000
0000
0000
0000
,
0000
1000
0010
1000
,
0000
0000
0000
0000
,
0000
0001
0100
0001
,
0000
0000
0000
0000
,
0000
0010
0001
0010
,
0000
0000
0000
0000
,
0000
0100
1000
0100
,
0000
0000
0000
1000
,
0000
0001
0000
0000
,
0000
1000
0000
0000
,
0000
0010
0000
0000
,
0000
0100
0000
0000
,
0000
0010
0000
0000
,
0000
1000
0000
0000
,
0000
0200
0000
0000
,
0000
0000
0000
0300
,
0000
0010
0000
0001
,
0000
0100
0000
0010
,
0000
1000
0000
0000
,
0001
0001
0000
1000
,
0000
0001
0000
0100
,
0000
0001
0000
0010
,
0000
0110
0000
0000
,
0000
0100
0000
0000
,
0000
1000
0000
0100
,
0000
0010
0000
0100
,
0000
1000
0000
0000
,
0001
0001
0000
1000
,
0000
0001
0000
0100
,
0000
0010
0000
1000
,
0000
0001
0000
1000
,
0000
0220
0000
0000
,
0000
0330
0000
0000
;

//--------------- dance-single - Pandemonium X ----------------
#NOTES:
     dance-single:
     Pandemonium X:
     Easy:
     11:
     0,0,0,0,0:
0000
0000
0000
0000
,
0000
0000
0000
0000
,
0000
0000
0000
0000
,
0000
0000
0000
0000
,
0000
0000
0000
0000
,
0000
0000
0000
0000
,
0001
0000
1000
0000
,
0010
0000
0100
0000
,
1001
0000
0001
0000
,
1000
0100
0010
0001
,
1000
0001
0100
0000
,
0000
0000
0101
0000
,
1000
0001
0010
0000
,
0000
0000
1100
0000
,
0001
1000
0010
0000
,
0000
0000
1010
0000
,
0001
1000
0010
0000
,
0000
0000
1000
0100
,
0010
0010
0001
0100
,
0010
0010
0100
0001
,
1000
0100
1000
0100
,
0010
0001
0010
0100
,
0010
0010
0001
0100
,
0001
0001
1000
0100
,
0010
0100
1000
0010
,
0100
0001
1000
0100
,
0020
0000
0000
0000
,
0000
0000
0031
1000
,
1001
0000
0000
1001
0000
0000
0000
0000
,
0101
0000
0000
0101
0000
0000
0000
0000
,
1100
0000
0000
1100
0000
0000
0000
0000
,
1010
0000
0000
1010
0000
0000
0000
0000
,
1001
0000
0000
1001
0000
0000
0000
0000
,
0001
0010
0100
0000
,
0010
0001
0100
0010
,
2000
0000
0000
0000
,
3001
1000
0100
0020
,
0130
0010
0001
1000
,
0010
0100
0001
0010
,
0001
0100
0010
0000
,
0100
0001
1000
0100
,
0010
0100
1000
0001
,
0010
0001
0100
0010
,
1000
0001
0010
0100
,
1100
0000
0000
0000
,
0011
0000
1100
0000
,
0001
0010
0100
1000
,
0000
0001
0000
0000
0200
0000
0320
0000
,
1030
0100
1000
0001
,
0100
0000
0010
1000
,
0001
0000
0000
0000
,
2000
0000
3002
0000
,
0013
0100
0010
0001
,
0100
0010
0100
0001
,
1000
0000
0000
0000
1000
0000
0000
1000
,
0000
1000
0001
0000
,
0100
0001
0010
0100
,
0010
0000
0001
0100
,
0020
0000
0000
0130
,
0002
0000
2003
0000
,
3100
0001
0100
0010
,
0001
0100
1000
0100
,
0002
0000
0000
1000
0000
0000
1000
0000
,
0000
1000
0000
0003
,
1001
0000
0000
0000
,
1000
0100
0010
0001
,
0010
0100
1000
0100
,
0010
0001
0010
0100
,
1000
0100
0010
0100
,
1000
0100
0010
0001
,
0010
0100
1000
0100
,
0010
0100
1000
0000
,
0001
0010
0100
1000
,
0001
0001
0100
0010
,
0010
0100
0001
0001
,
0100
0010
0010
0100
,
0001
0010
0100
1000
,
0100
0100
1000
0010
,
0010
1000
0100
0100
,
1000
0010
0100
0000
,
0020
0000
0000
0000
,
0130
0000
1001
0000
,
0001
0100
0010
0001
,
0010
0000
0000
0010
0000
0000
0010
0000
,
0000
0110
0000
0000
,
1001
0000
1000
0000
,
0010
0100
1000
0100
,
0001
1000
0100
0010
,
0002
0023
0230
2300
,
3001
0000
1010
0000
,
0010
0001
0010
0100
,
0001
0000
0000
0001
0000
0000
0001
0000
,
0000
1001
0000
0000
,
1100
0000
1000
0000
,
0100
0001
0100
0010
,
0100
0000
0000
0100
0000
0000
0100
0000
,
0000
0100
0000
0000
,
2002
0000
0000
0000
,
0000
0000
0000
0000
,
0000
0000
0000
0000
,
0000
0000
0000
0000
,
0000
0000
0000
0000
,
0000
0000
0000
0000
,
3003
1000
0001
0010
,
0000
0000
0000
0110
,
0000
0100
1000
0010
,
0000
0000
0000
0110
,
0000
0100
0001
1000
,
0000
0000
0000
1001
,
0000
1000
0001
0100
,
0000
0000
0000
0001
,
0010
0000
0011
0000
0000
1100
0000
0000
,
0000
0000
1010
0000
0000
0101
0000
0000
,
0000
0000
1001
0000
0000
0101
0000
0000
,
0000
0000
1010
0000
0000
1001
0000
0000
,
0000
0000
0011
0000
0000
0110
0000
0000
,
0000
0000
1100
0000
0000
0110
0000
0000
,
0000
2002
0000
0000
,
0000
0000
0000
3003
,
0000
0001
0100
0010
,
1000
0001
0010
0100
,
0010
0001
0100
0010
,
1000
0100
0010
0100
,
1000
0001
0001
1000
,
1000
0010
0010
0100
,
0100
0001
0000
0100
,
0000
0010
0000
0000
1000
0000
0002
0000
,
0023
0130
0010
0001
,
0100
0010
1000
0001
,
0010
0100
0010
0001
,
0100
0010
1000
0100
,
0010
0001
0001
1000
,
1000
0010
0010
0100
,
0100
1001
0000
0110
,
0000
2002
0000
0000
,
0000
3003
0000
0000
;

//--------------- dance-single - Pandemonium X ----------------
#NOTES:
     dance-single:
     Pandemonium X:
     Medium:
     14:
     0,0,0,0,0:
0000
0000
0000
0000
,
0000
0000
0000
0000
,
0000
0000
0000
0000
,
0000
0000
0000
0000
,
0000
0000
0000
0000
,
0000
0000
0000
0000
,
1000
0100
0010
0100
,
1000
0001
0100
0000
,
0101
0001
0100
0010
,
1000
0100
0010
0001
0010
0100
1000
0001
,
0100
0001
0010
0000
,
0000
0000
0000
0000
0100
1000
0010
0000
,
0100
0001
1000
0000
,
0000
0000
0000
0000
0010
1000
0100
0000
,
0010
0100
1000
0000
,
0000
0000
0000
0000
0001
0010
0100
0000
,
0010
0001
1000
0000
,
0000
0000
0010
1000
,
0100
0010
0100
1000
,
0001
0100
0001
0010
,
0001
0100
0010
1000
,
0010
0100
0001
0010
,
0100
0010
0001
1000
,
0100
0010
0100
1000
,
0001
0100
0001
1000
,
0100
0010
0100
1000
,
0001
0010
0100
1000
,
0001
0010
0100
1000
0010
0100
0001
1000
,
0100
0000
0000
1100
0000
0000
1000
0010
,
0100
0000
0000
0101
0000
0000
0001
0010
,
0100
0000
0000
0100
0010
0100
1000
0001
,
1000
0010
0100
0010
0000
0000
1001
0000
,
1000
0000
0000
1100
0000
0000
0100
0000
,
1000
0010
0100
0001
1000
0001
0000
0000
,
0010
0100
1000
0000
0100
0010
0001
0000
,
0010
0100
1000
0001
0100
0001
1000
0100
,
0010
0000
0100
0000
1000
0000
0010
0100
,
0001
0000
0010
0000
0200
0300
1000
0002
,
0103
0000
0010
0000
1000
0001
0010
0100
,
1000
0000
0100
0000
2000
3000
0000
0020
,
0130
0010
1000
1001
,
0001
0010
0100
0010
0001
1000
0010
0000
,
0100
0001
0010
0000
0100
1000
0010
0000
,
0000
0100
0010
0000
1000
0100
0010
0001
,
1000
0000
0000
0000
,
1001
0000
0110
0000
,
1001
0000
1001
0000
0001
0100
0010
1000
,
0000
1000
0001
0000
1000
0100
0010
0001
,
1000
0010
1000
0001
,
0010
0000
0100
0010
,
0001
0000
0000
0000
0000
0000
0010
0100
,
1000
0000
0100
0000
,
1000
0010
0100
0001
,
0010
0100
0010
0001
,
1001
0000
0000
0000
1001
0000
0000
1001
,
0000
0001
1000
0000
0001
0100
0010
1000
,
0100
1000
0010
0100
,
0001
0000
0010
0100
,
1000
0000
0000
0000
0000
0000
0100
1000
,
0010
0000
0100
0000
,
1000
0100
0001
1000
,
0100
0001
0100
1000
,
0002
0000
0000
0100
0000
0000
0100
0000
,
0000
1003
0000
0000
,
1001
0000
0000
0000
,
1000
1000
0001
0010
,
0010
0100
0010
0010
,
0001
0100
0100
0001
,
0010
0100
0010
0001
,
1000
1000
0100
1000
,
1000
0100
0010
0001
,
0010
0100
0010
0000
,
0100
0001
0100
1000
,
0001
0001
0100
1000
,
1000
0100
0010
0010
,
0001
0010
0010
0100
,
0001
0010
1000
0010
,
0001
0001
0010
0100
,
0100
0010
0001
0010
,
1000
0010
0001
0000
,
0001
0000
0010
0000
0100
1000
0100
0010
,
0002
0000
1003
0000
,
0001
0100
0010
1000
0100
0010
0001
0100
,
0010
0000
0000
0010
0000
0000
0010
0000
,
0000
1001
0000
0000
,
2000
0000
3010
0000
,
0100
0010
1000
0001
0010
0001
1000
0010
,
0100
0001
1000
0100
,
0010
0100
1000
0001
0010
0100
1000
0001
,
0200
0000
0310
0000
,
0100
0000
0010
0000
1000
0000
0001
0010
,
0100
0000
0000
1000
0000
0000
0001
0000
,
0000
1001
0000
0000
,
0002
0000
0013
0000
,
0100
0000
0010
0000
0001
0000
1000
0001
,
0100
0000
0000
0001
0000
0000
0010
0000
,
0000
1100
0000
0000
,
2002
0000
0000
0000
,
0000
0000
0000
0000
,
0000
0000
0000
0000
,
0000
0000
0000
0000
,
0000
0000
0000
0000
,
0000
0000
0000
0000
,
3003
0001
0100
0010
,
1000
0000
0100
0000
0000
0000
0010
0001
,
0100
0001
0100
0001
,
1000
0000
0100
0000
0000
0000
0010
0001
,
1000
0100
0010
0100
,
1000
0000
0001
0000
0000
0000
0001
1000
,
0010
0100
0001
1000
,
0001
0010
0000
0100
,
0010
0000
0011
0000
0000
1100
0000
0000
,
0000
0000
0101
0000
0000
1010
0000
0000
,
0001
0100
0010
0000
0000
1010
0000
0000
,
0000
0000
1000
0100
1000
0001
0000
0000
,
1100
0000
1001
0000
0000
0101
0000
0000
,
0000
0000
0011
0000
0010
0100
0000
0100
,
1000
0010
0100
0001
0010
0001
1000
0010
,
1000
0001
0010
0100
1000
0001
1000
0000
,
0000
0010
1000
0001
,
0010
0100
0010
0001
,
0100
0001
0010
0000
0100
0000
0010
0000
,
0001
0100
0010
0000
1000
0000
0001
0010
,
0100
1000
0100
0000
0010
0100
0000
0100
,
0010
0001
1000
0010
0100
0001
0010
0000
,
0100
0010
0001
0000
0000
0000
1000
0000
,
0000
0001
0000
0001
0100
0000
0010
0100
,
0001
1000
0100
0000
0010
0000
0100
0000
,
1000
0001
0100
0000
0001
0000
0010
0000
,
0100
0010
0001
0100
,
0010
1000
0001
0000
0010
0000
0100
0010
,
0001
0000
0010
0000
0100
1000
0000
1000
,
0001
0100
0010
0100
0001
0010
0100
1000
,
0010
0100
0001
0000
0000
0000
0001
0000
,
0000
0000
0000
0010
0000
0000
0001
0000
1000
0000
0001
0000
1000
0000
0001
0000
1000
0000
0001
0000
1000
0000
0001
0000
,
1000
0001
1000
0001
0000
0000
0000
0000
0000
0000
0000
0000
;

//--------------- dance-single - Pandemonium X ----------------
#NOTES:
     dance-single:
     Pandemonium X:
     Hard:
     17:
     0,0,0,0,0:
0000
0000
0000
0000
,
0000
0000
0000
0000
,
0000
0000
0000
0000
,
0000
0000
0000
0000
,
0000
0000
0000
0000
,
0000
0000
0000
0000
,
0001
0010
0100
1000
0100
0010
0001
0010
,
0100
0010
0001
1000
0010
0000
0000
0000
,
1001
0000
1000
0001
1000
0001
0010
0100
,
1000
0100
1000
0010
0100
0010
0100
0001
0100
0001
1000
0001
,
0010
0100
1000
0000
,
0000
0000
0000
0000
0000
0000
0001
0100
0001
0000
0000
0000
,
1000
0100
0010
0000
,
0000
0000
0000
0000
0000
0000
0100
1000
0100
0000
0000
0000
,
1000
0010
0100
0000
,
0000
0000
0000
0000
0000
0000
0010
1000
0001
0000
0000
0000
,
0100
0010
1000
0000
,
0000
0000
0001
1000
,
1100
1000
0010
0100
,
0110
0100
0001
0011
,
1100
0000
0001
1000
0000
1000
0100
0000
,
0010
0110
1000
0001
,
1001
0001
1000
0010
,
1010
0010
0100
0011
,
0101
0011
0110
1100
,
1001
1010
1001
0101
,
0100
1000
0100
0001
1000
0100
0001
0100
,
1000
0000
0100
0000
0010
0000
0001
0000
1000
0000
0010
0000
0200
0000
0000
2300
0000
0000
3200
0000
0000
0302
0000
0000
,
1003
0000
0000
0000
0000
0000
0000
0000
0000
1100
0000
0000
0000
0000
0000
0000
0000
0000
1000
0000
0100
0000
0010
0000
,
0001
0000
0000
0000
0000
0000
0000
0000
0000
1100
0000
0000
0000
0000
0000
0000
0000
0000
0001
0000
0100
0000
0001
0000
,
0100
0000
0000
0110
0100
0001
1000
0010
,
1000
0100
0001
0100
0000
0000
0110
0000
,
1001
0000
0000
1100
0000
0000
0011
0000
,
0010
1000
0010
0001
0100
0001
0010
0100
,
1000
0000
0000
0100
0000
0000
0010
0000
0001
0000
0100
0000
0010
0000
0000
1000
0000
0000
0001
0000
1000
0000
0100
0000
,
0010
0001
0100
0010
1000
0001
0010
0100
1000
0001
0100
0001
,
1000
0000
0000
0001
0000
0000
0101
0000
0000
0010
0100
0001
,
1000
0000
1001
0000
0002
0000
0003
0002
,
1003
0000
1000
0000
0010
1000
0001
0010
,
0100
0000
0011
0000
0002
0000
0003
0002
,
1003
0001
0010
1100
,
0001
1000
0100
1000
0100
0010
0001
0100
,
0010
0000
0000
1000
0000
0000
0100
0000
0010
0000
0001
0000
1000
0000
0000
0010
0000
0000
0100
0000
0001
0000
1000
0000
,
0000
0001
1000
0000
0002
0023
0230
2300
,
3001
0000
0000
0000
,
0110
0000
0110
0000
,
1001
0000
1001
0000
0001
0100
0010
1000
,
0000
1000
0100
0000
0002
0203
2300
3020
,
0130
1000
0100
0001
,
2000
0000
3001
0010
,
0200
0000
0000
0000
0000
0000
0310
0100
,
2000
0000
3002
0000
,
0103
1000
0100
0010
,
1000
0010
0001
0010
,
1010
0000
0000
0000
0101
0000
0000
0011
,
0000
1000
0100
0000
0002
0203
0320
0032
,
1003
0100
1000
0010
,
0100
0000
0001
0000
0010
0000
0100
0010
,
0001
0000
0010
0001
0000
0100
0010
1000
,
0100
0000
1000
0000
0010
0000
0100
0001
,
0010
1000
0010
0001
,
0100
1000
0100
0010
,
1010
0000
0000
0101
0000
0000
0011
0000
,
0000
0110
0000
0000
,
1001
0000
0000
1001
,
0101
0001
0010
0001
,
0100
0100
0010
1000
,
1000
0100
0010
0010
,
0100
0001
0100
1000
,
0010
0010
0100
0001
,
0001
1000
0010
0100
,
0001
1000
0001
0000
,
0001
0010
0100
1000
,
1001
0101
0001
1100
,
1001
1000
0011
0101
,
0001
1100
1010
0001
,
1000
0100
0001
0100
,
1100
1001
1000
1010
,
0110
0010
0110
0101
,
0110
1010
1001
0000
,
0001
0000
0000
0010
0000
0000
0100
0000
0000
1000
0000
0000
0001
0000
0010
0000
0100
0000
1000
0000
0001
0000
0000
0000
,
0201
0000
0010
0000
,
0301
0000
0000
1000
0000
0000
0100
0000
0000
1000
0000
0000
0001
0000
0000
0100
0000
0000
0010
0000
1000
0000
0010
0000
,
0100
0000
0000
0110
0000
0000
1001
0000
,
0110
2002
0000
3003
,
1020
0000
0001
0000
,
1030
0000
0000
0000
0000
0000
0100
0000
0000
0000
0000
0000
0100
0000
0000
0010
0000
0000
0001
0000
1000
0000
0001
0000
,
1000
0100
0010
0001
0100
0010
1000
0001
,
0010
0100
1000
0100
0010
0001
0100
0010
1000
0001
0010
0000
,
1001
0000
0110
0000
,
1001
0000
0000
0000
1100
0000
0000
0000
1010
0000
0000
0000
1000
0001
1000
0000
,
0001
0000
0000
0110
0000
0000
1001
0000
,
0000
0220
0000
0330
,
1001
0000
0011
0000
,
0011
0000
0000
0000
0110
0000
0000
0000
0011
0000
0000
0000
0001
1000
0001
0000
,
1000
0000
0000
0110
0000
0000
1001
0000
,
0000
0010
0000
0000
,
2002
0000
0000
0000
,
0000
0000
0000
0000
,
0000
0000
0000
0000
,
0000
0000
0000
0000
,
0000
0000
0000
0000
,
0000
0000
0000
0000
,
3003
0000
0001
0100
0001
0010
0100
0000
,
1000
0000
0000
0100
0000
0000
0010
0000
0000
0001
0010
0100
,
1000
0000
0100
0010
0100
1000
0001
0000
,
0100
0000
0000
0010
0000
0000
1000
0000
0000
0001
0100
0010
,
1000
0000
0100
0010
0100
1000
0001
0000
,
1000
0000
0000
0100
0000
0000
1000
0000
0000
0001
0010
0001
,
1000
0000
0010
1000
0100
1000
0001
0000
,
1000
0100
0010
0001
,
0100
0000
1001
0000
0000
1100
0000
0000
,
1001
0000
0101
0000
0000
1010
0000
0000
,
1000
0000
0100
0000
0010
0000
0001
0000
0000
0000
0000
0000
0000
0000
0000
1100
0000
0000
0000
0000
0000
0000
0000
0000
,
1010
0000
0001
0100
0001
1000
0000
0000
,
1000
0000
0100
0000
0010
0000
0001
0000
0000
0000
0000
0000
0000
0000
0000
1100
0000
0000
0000
0000
0000
0000
0000
0000
,
0000
0000
1010
0000
0001
1000
0000
1000
,
0100
0000
0000
0010
0000
0000
0001
0000
1000
0000
0001
0000
1000
0000
0001
0000
1000
0000
0001
0000
1000
0000
0001
0000
,
1000
0000
0000
0000
0001
0000
0000
0000
1000
0000
0000
0000
0001
0000
0000
0000
1000
0000
0000
0000
0001
0000
0000
0000
1000
0000
0000
0001
0000
0000
1000
0000
0000
0001
0000
0000
1000
0000
0000
0000
0000
0000
0000
0000
0000
0000
0000
0000
,
0000
0000
0001
0100
0010
1000
0001
0010
,
0100
0010
0001
0100
0010
0100
0001
1000
,
0100
0000
0010
0000
0100
0000
1000
0000
0000
0001
0000
0000
0100
0000
0000
0001
0000
0000
0010
0000
0000
0100
0000
0000
,
1000
0100
0010
0001
0010
0001
0100
0010
,
1000
0001
1000
0100
1000
0100
0001
0100
,
0001
0100
0001
0100
1000
0010
1000
0001
,
0010
0100
1000
0001
0000
0000
0000
0000
0000
1010
0000
0000
,
0000
0000
1001
0000
0000
0000
0001
0000
0020
0030
0000
0000
0020
0030
2000
0000
,
3002
2003
3100
0010
0100
1000
0010
0100
,
0001
0000
0010
0000
0100
0000
0010
0000
0000
0100
0000
0000
0010
0000
0000
0001
0000
0000
0100
0000
0000
0010
0000
0000
,
0100
0001
0100
0001
1000
0100
0010
0100
,
0010
0000
0001
0000
0100
0000
0010
0000
0000
0100
0000
0000
0010
0000
0000
0100
0000
0000
1000
0000
0000
0100
0000
0000
,
0001
1000
1001
0000
0001
1001
0000
1000
,
0010
0000
0000
0001
0000
0000
0010
0000
0000
1000
0000
0000
0100
0000
0010
0000
0001
0000
1000
0000
0000
0001
0000
0000
,
0100
0000
0000
0000
0010
0000
0000
0000
1000
0000
0000
0000
0001
0000
0000
0000
0000
0000
0000
0000
0000
0000
0000
0000
0000
0000
0000
0000
0000
0000
0001
0000
0000
0000
0000
0000
0200
0000
0000
0300
0000
0000
0000
0000
0000
0000
0000
0000
,
0200
0300
1000
0000
0010
0100
0010
0100
0010
0100
0010
0100
0010
0100
0010
0100
,
0010
0100
0010
0100
0010
0000
0000
0000
0000
0000
0000
0000
0000
0000
0000
0000
;

//--------------- dance-single - Pandemonium X ----------------
#NOTES:
     dance-single:
     Pandemonium X:
     Challenge:
     18:
     0,0,0,0,0:
0000
0000
0000
0000
,
0000
0000
0000
0000
,
0000
0000
0000
0000
,
0000
0000
0000
0000
,
0000
0000
0000
0000
,
0000
0000
0000
0000
,
1000
0100
0010
0001
0010
0100
1000
0100
0010
0100
1000
0001
,
1000
0100
0010
0100
1000
0001
1000
0000
0000
0000
0000
0000
,
0201
0000
0310
1000
0001
0010
0001
1000
,
0001
0010
0100
1000
0001
0010
0100
1000
0001
0010
0100
1000
,
0001
1000
0100
0000
,
0000
0000
0000
0000
0000
0000
0010
0001
1000
0000
0000
0000
,
0001
0100
0010
0000
,
0000
0000
0000
0000
0000
0000
0100
0001
1000
0001
0000
0000
,
1000
0100
0010
0000
,
0000
0000
0000
0000
0000
0000
0010
0100
1000
0000
0000
0000
,
0001
0010
0100
0000
,
0000
0000
0100
0010
,
0011
0001
0100
0010
,
1010
1000
0100
0011
,
1100
0000
1000
1010
0000
0010
0110
0000
,
1001
0110
0001
1000
,
0101
0001
1000
0100
,
0011
0001
1000
1100
,
0011
1000
0101
1000
,
1100
0001
1010
0001
,
1000
0100
0010
0001
0010
0100
0010
0001
,
1000
0000
0010
0000
0100
0000
0001
0000
0010
0000
0100
0000
2000
0000
3200
0000
0320
0000
0032
0000
0000
1003
0000
0000
,
1001
0000
0000
0000
1000
0000
1010
0000
0000
0000
0000
0000
1000
0010
1000
0010
,
1000
0000
0000
0000
0000
0000
0001
0000
0000
0101
0000
0000
0000
0000
0000
0000
0000
0000
0100
0000
0001
0000
1000
0000
,
0100
0000
0100
0010
0100
0010
0001
1000
,
0010
0000
0000
0001
0000
0000
0010
0000
0000
1000
0000
0000
0000
0000
0000
0000
0000
0000
1000
0000
0100
0000
0010
0000
,
0100
0000
0000
1100
0000
0000
0021
0000
,
0130
0001
0100
1000
0010
0100
1000
0001
,
1000
0000
0000
1000
0000
0000
0001
0000
1000
0000
0001
0000
1000
0000
0000
1000
0000
0000
0001
0000
0000
1000
0000
0000
,
0001
0010
0001
0100
0010
0100
0010
1000
0010
1000
0100
0010
,
0001
0000
0000
0000
0100
0000
0000
0000
0010
0000
0000
0000
1000
0001
1000
0001
,
1000
0000
0000
0000
0100
0000
0000
0000
1000
0000
0020
0030
0000
0000
0020
0030
,
0001
0000
0001
0000
1000
0100
0010
0100
,
1000
0000
0000
0000
0001
0000
0000
0000
0001
0000
0200
0300
0000
0000
0200
0300
,
1000
0100
0010
1100
,
0001
0010
0001
1000
0010
0001
0010
0100
,
0001
0000
0000
1000
0000
0000
0100
0000
0010
0000
0001
0000
1000
0000
0000
0010
0000
0000
0100
0000
0001
0000
1000
0000
,
0000
0001
0101
0000
0002
0203
0320
2030
,
3100
0000
0011
0000
2100
0000
0000
3001
,
1001
0000
1010
0000
0102
0000
0000
1003
,
1001
0000
1001
0000
0101
0100
0010
1010
,
0000
1001
1001
0000
0002
0023
0230
2300
,
3010
0001
0010
0100
0001
1000
0100
0001
,
0200
0000
0320
0032
,
0203
0000
0000
0000
0000
0000
1300
0100
,
0002
0000
0000
0003
1020
0000
0000
0000
,
0230
2300
3200
0302
,
0023
2030
3020
0130
,
0011
0000
0000
0000
1100
0000
0000
1001
,
0000
1001
1001
0000
0002
0023
0230
2300
,
3001
0000
0000
1000
0000
0000
0100
0010
0001
1000
0000
0000
,
1001
0000
0000
0000
0000
0000
0001
0100
0001
1000
0000
0000
,
1100
0000
0010
0011
0000
0000
0001
0100
,
0020
1000
0130
0000
,
0102
0013
2100
3010
,
2001
3010
1002
0013
,
1200
0000
0000
0001
0000
0000
0010
0000
,
0000
1300
0000
0000
,
1001
0000
0000
0000
,
0001
0000
0100
0000
0001
0000
1000
0000
0000
0100
0000
0000
0010
0000
0001
0000
1000
0000
0001
0000
0000
1000
0000
0000
,
1100
0000
0000
0000
0000
0000
0000
0000
0000
0000
0000
0000
0100
0000
1000
0000
0001
0000
1000
0000
0000
0001
0000
0000
,
0100
0000
0100
0001
0000
0001
0010
0000
,
0100
0000
0000
1100
0000
0000
1000
0100
0010
0100
0000
0000
,
0010
0000
0001
0000
1000
0000
0001
0000
0000
1000
0000
0000
0100
0000
0010
0000
0001
0000
1000
0000
0000
0100
0000
0000
,
1000
0001
1001
0011
,
0001
0010
0001
1000
0100
0010
0100
0000
0000
0000
0000
0000
,
1100
0011
0101
1010
,
0001
0000
1000
0000
0100
0000
0010
0000
0000
0001
0000
0000
0100
0000
0010
0000
1000
0000
0001
0000
0000
1000
0000
0000
,
1100
0000
0000
0000
0000
0000
0010
0100
1000
0001
0000
0000
,
1000
0001
0010
0100
0000
0000
0011
0000
0000
1100
0000
0000
,
1000
0010
1000
0001
0000
0000
1100
0000
0000
0110
0000
0000
,
0010
0000
0100
0000
1000
0000
0001
0000
0000
1000
0000
0000
0010
0000
0100
0000
0001
0000
1000
0000
0000
0100
0000
0000
,
0010
0000
0000
0000
0000
0000
0100
0010
0001
1000
0000
0000
,
1010
0101
1001
0000
,
0001
0000
0000
0000
0010
0000
0000
0000
0100
0000
0000
0000
1000
0000
0000
0000
0001
0000
0000
0000
0010
0000
0000
0000
0100
0000
0000
0000
1000
0000
0000
0000
0001
0000
0000
0000
1000
0000
0000
0001
0000
0000
1000
0000
0000
0001
0000
0000
,
1000
0000
0101
0000
,
0001
0000
0100
0000
0001
0000
0010
0000
0100
0000
1000
0000
0200
2300
3002
0003
,
1000
0000
0000
0011
0000
0000
0101
0000
,
0100
2002
0000
3003
,
2010
0000
0100
0000
,
3001
0000
1000
0000
0100
0000
0010
0000
0001
0000
1000
0000
0002
2003
3002
0003
,
1000
0100
1000
0010
0100
0001
0010
0100
,
1000
0100
0010
0001
0010
0100
1000
0001
0010
0100
1000
0001
,
2001
0000
0100
0000
,
3001
0000
0010
0000
0100
0000
1000
0000
0001
0000
1000
0000
0002
0203
0302
2003
,
3100
0000
0000
0011
0000
0000
1100
0000
,
0000
2002
0000
3003
,
0021
0000
0001
0000
,
0130
0000
0000
0000
0110
0000
0000
0000
1001
0000
0000
0000
0002
2003
3002
0013
,
0001
0000
0000
1100
0000
0000
0011
0000
,
0000
0110
0000
0000
,
2002
0000
0000
0000
,
0000
0000
0000
0000
,
0000
0000
0000
0000
,
0000
0000
0000
0000
,
0000
0000
0000
0000
,
0000
0000
0000
0000
,
3003
0000
0101
0100
1000
0100
0001
1000
,
0100
0000
0000
0010
0000
0000
0021
0000
0000
0000
0000
0000
0100
0000
0000
0000
0000
0000
0031
0000
0010
0000
0100
0000
,
1000
0000
1010
0010
0001
0010
1000
0001
,
0010
0000
0000
0100
0000
0000
1200
0000
0000
0000
0000
0000
0010
0000
0000
0000
0000
0000
0310
0000
1000
0000
0001
0000
,
1000
0000
1100
0100
0010
0001
0100
1000
,
0100
0001
1000
0200
0000
0000
0310
0000
0000
1000
0100
0010
,
0100
0000
0011
0010
1000
0010
0001
1000
,
0100
1000
0001
1000
0000
0000
1100
0000
0000
0100
0010
0001
,
1000
0000
1001
0000
1000
1200
0000
0000
,
0310
0000
0011
0000
0001
0201
0000
0000
,
0310
0000
0100
0000
0001
0000
2000
0000
0000
0000
0000
0000
3010
0000
0000
0210
0000
0000
0000
0000
0000
0000
0000
0000
,
0310
0000
1001
1000
1001
1001
0000
0000
,
1000
0000
0100
0000
0010
0000
0001
0000
0000
0000
0000
0000
0010
0000
0000
0210
0000
0000
0000
0000
0000
0000
0000
0000
,
1300
0000
1010
0010
0110
0101
0000
0001
,
0010
0000
0000
0100
0000
0000
1000
0000
0100
0000
1000
0000
0010
0000
0100
0000
0010
0000
0100
0000
0001
0000
0100
0000
,
0001
1000
0001
0010
0100
1000
0100
0010
0001
0200
0000
0000
,
0000
0000
0310
1000
0100
0010
0100
1000
,
0001
1000
0100
0010
0100
1000
0001
0100
,
0010
0000
1000
0000
0100
0000
1000
0000
0000
0100
0000
0000
1000
0000
0000
0001
0000
0000
0010
0000
0000
0100
0000
0000
,
0010
0001
0100
0001
1000
0100
0010
0000
,
0001
1000
0001
1000
0001
0000
0100
0000
0010
0000
1000
0000
0001
0000
0010
0000
,
0100
0010
0001
0100
0010
1000
0001
0010
,
0100
0000
0000
0000
0010
0000
0000
0000
0001
0000
0000
0000
1000
0000
0000
0000
0000
0000
0000
0000
0000
0000
0000
0000
0000
0000
0000
0000
0000
0000
0001
0000
0000
0000
0000
0000
0200
0000
0000
0300
0000
0000
0000
0000
0000
0000
0000
0000
,
0200
0300
1000
0000
0000
0000
1001
0000
1001
0000
0000
0000
0002
0000
0203
0000
,
0320
2030
3100
0010
0100
1000
0001
0100
,
0001
0000
0010
0000
0100
0000
1000
0000
0000
0100
0000
0000
1000
0000
0000
0001
0000
0000
0100
0000
0000
0001
0000
0000
,
0010
0100
0010
0001
1000
0010
1000
0001
,
1000
0100
0010
0001
0000
0000
1100
0000
0000
1010
0000
0000
,
0110
0000
0101
0000
0001
1001
0000
1000
,
1001
0000
0000
0001
0000
0000
1001
0000
0000
1001
0000
0000
0001
0000
0100
0000
0010
0000
1000
0000
0000
1001
0000
0000
,
1000
0000
0000
0000
0010
0000
0000
0000
0100
0000
0000
0000
0001
0000
0000
0000
0000
0000
0000
0000
0000
0000
0000
0000
0000
0000
0000
0000
0000
0000
1000
0000
0000
0000
0000
0000
0020
0000
0000
0030
0000
0000
0000
0000
0000
0000
0000
0000
,
0020
0030
0001
0000
1000
0100
1000
0100
0010
0100
0010
0100
0010
0001
0010
0001
,
1000
0001
1000
0001
0100
0000
0000
0000
0000
0000
0000
0000
0000
0000
0000
0000
;
