#TITLE:MAX 300;
#SUBTITLE:;
#ARTIST:Ω;
#MUSIC:MAX 300.ogg;
#BANNER:;
#BACKGROUND:MAX 300-bg.png;
#LYRICSPATH:;
#CDTITLE:./CDTITLES/DDRMAX -Dance Dance Revolution 6thMIX-.PNG;
#SAMPLESTART:13.596;
#SAMPLELENGTH:15.000;
#BPMS:0.000000=302.521000,
4.000000=300.070000,
290.000000=214.286000,
291.000000=145.161000,
292.000000=104.651000,
293.000000=64.286000,
294.000000=300.131000
;
#STOPS:294.000000=1.200000;
#TIMESIGNATURES:;
#BGCHANGES:;
#FGCHANGES:;
#ATTACKS:;
#SPEEDS:;
#SCROLLS:;
#DISPLAYBPM:300.000;

//---------------dance-single - ---------------
#NOTES:
     dance-single:
     :
     Beginner:
     7:
     0,0,0,0,0:
// measure 0
0000
0000
0000
0000
,  // measure 1
0000
0000
0000
0000
,  // measure 2
0000
0000
0000
0000
,  // measure 3
0000
0000
0000
0000
,  // measure 4
0000
0000
0000
0000
,  // measure 5
0000
0000
0000
0000
,  // measure 6
0000
0000
0000
0000
,  // measure 7
0020
0000
0000
0000
,  // measure 8
0000
0000
0030
0000
,  // measure 9
1001
0000
0000
0000
,  // measure 10
0001
0000
0000
0000
,  // measure 11
1000
0000
0000
0000
,  // measure 12
0100
1000
0100
0000
,  // measure 13
1000
0000
0000
0000
,  // measure 14
0010
0000
0000
0000
,  // measure 15
0100
0000
0100
0000
,  // measure 16
0010
0100
0010
0000
,  // measure 17
0100
0000
0001
0000
,  // measure 18
1000
0000
0000
0000
,  // measure 19
0001
0000
0000
0000
,  // measure 20
1000
0100
1000
0100
,  // measure 21
1000
0000
0010
0000
,  // measure 22
1000
0000
0000
0000
,  // measure 23
0001
0000
0000
0000
,  // measure 24
0100
0010
0100
0010
,  // measure 25
0100
0000
0001
0000
,  // measure 26
0100
0000
0000
0000
,  // measure 27
0010
0000
0000
0000
,  // measure 28
1000
0001
1000
0001
,  // measure 29
1000
0000
0000
0000
,  // measure 30
0001
0000
0000
0000
,  // measure 31
1000
0000
0000
1000
0000
0000
1000
0000
,  // measure 32
0001
0100
0010
1000
,  // measure 33
0001
0000
0000
0000
,  // measure 34
0000
0000
1000
0000
,  // measure 35
0100
0100
0000
0000
,  // measure 36
0000
0000
0000
0010
,  // measure 37
0000
0010
0010
0000
,  // measure 38
0010
0010
0000
0000
,  // measure 39
1001
0000
0000
0001
,  // measure 40
0000
1000
1000
0000
,  // measure 41
0001
1000
0000
0000
,  // measure 42
0001
0000
0000
0000
,  // measure 43
0000
0000
0100
0000
,  // measure 44
0000
0000
0000
0000
,  // measure 45
0010
0000
0000
0000
,  // measure 46
0100
0000
0000
0000
,  // measure 47
0001
0000
0000
0000
,  // measure 48
1000
0000
0000
0000
,  // measure 49
0100
0000
0100
0000
,  // measure 50
0100
0000
0000
0000
,  // measure 51
1000
0000
0000
0000
,  // measure 52
0010
0000
0000
0000
,  // measure 53
0100
0000
0000
0000
,  // measure 54
0001
0000
0000
0000
,  // measure 55
0010
0000
0010
0000
,  // measure 56
0010
0000
1001
0000
,  // measure 57
0001
0000
0000
0000
,  // measure 58
1000
0000
0000
0000
,  // measure 59
0010
0000
0000
0000
,  // measure 60
0100
0001
0100
0000
,  // measure 61
0001
0000
0000
0000
,  // measure 62
1000
0000
0000
0000
,  // measure 63
0100
0000
0000
0000
,  // measure 64
1000
0010
1000
0000
,  // measure 65
0010
0000
0000
0000
,  // measure 66
0100
0000
0000
0000
,  // measure 67
0001
0000
0000
0000
,  // measure 68
0010
0100
0010
0000
,  // measure 69
0100
0000
0000
0000
,  // measure 70
1000
0000
0000
0000
,  // measure 71
1001
0000
0110
0000
,  // measure 72
1001
0000
0110
0000
,  // measure 73
0000
0000
0000
0001
,  // measure 74
0000
0000
0000
1000
,  // measure 75
0000
0000
0000
0010
,  // measure 76
0000
0000
0000
0100
,  // measure 77
0000
0000
0000
0001
,  // measure 78
0000
0000
0000
0010
,  // measure 79
0000
0000
0000
0100
,  // measure 80
0000
0000
0000
1000
,  // measure 81
0000
0000
0000
0001
,  // measure 82
0000
0000
1000
0000
,  // measure 83
0000
0010
0000
0000
,  // measure 84
0100
0000
0000
0001
,  // measure 85
0000
0000
0010
0000
,  // measure 86
0000
0100
0000
0000
,  // measure 87
1000
0000
0000
0100
,  // measure 88
0000
0000
1000
0000
,  // measure 89
0000
0001
0000
1000
,  // measure 90
0000
0001
0000
0100
,  // measure 91
0000
0000
0000
0001
,  // measure 92
0000
1000
0000
0100
,  // measure 93
0000
0000
0000
1000
,  // measure 94
0000
0001
0000
0100
,  // measure 95
0000
0001
0000
1000
,  // measure 96
0000
0100
0000
0010
,  // measure 97
0000
0000
0000
0100
,  // measure 98
0000
1000
0000
0010
,  // measure 99
0000
0000
0000
0100
,  // measure 100
0000
0001
0000
0010
,  // measure 101
0000
0000
0000
0100
,  // measure 102
0000
0010
0000
0001
,  // measure 103
0000
0000
0000
1001
,  // measure 104
0000
0000
0000
0110
,  // measure 105
0000
0000
0000
1001
,  // measure 106
0000
0110
0000
1001
;

//---------------dance-single - ---------------
#NOTES:
     dance-single:
     :
     Easy:
     10:
     0,0,0,0,0:
// measure 0
0000
0000
0000
0000
,  // measure 1
0000
0000
0000
0000
,  // measure 2
0000
0000
0000
0000
,  // measure 3
0000
0000
0000
0000
,  // measure 4
0000
0000
0000
0000
,  // measure 5
0001
0000
1000
0000
,  // measure 6
0010
0000
0100
0000
,  // measure 7
2002
0000
0000
0000
,  // measure 8
0000
0000
3003
0000
,  // measure 9
0001
0000
0100
0000
,  // measure 10
0010
0000
1000
0000
,  // measure 11
0100
0000
0010
0000
,  // measure 12
0001
1000
0001
0000
,  // measure 13
1001
0000
0010
0000
,  // measure 14
1001
0000
0100
0000
,  // measure 15
0101
0000
1100
0000
,  // measure 16
1000
0100
0010
0001
,  // measure 17
1000
0000
0001
0000
,  // measure 18
0100
0000
0010
0000
,  // measure 19
1000
0000
0001
0000
,  // measure 20
0010
0001
0100
0001
,  // measure 21
1000
0000
0001
0000
,  // measure 22
0100
0000
0010
0000
,  // measure 23
1000
0000
0100
0000
,  // measure 24
1000
0010
0100
0010
,  // measure 25
1000
0000
0001
0000
,  // measure 26
1000
0000
0100
0000
,  // measure 27
0010
0000
0001
0000
,  // measure 28
0010
0001
0100
0001
,  // measure 29
1001
0000
0001
0000
,  // measure 30
1001
0000
1000
0000
,  // measure 31
0001
0000
0000
0001
0000
0000
0001
0000
,  // measure 32
1000
0100
0010
0100
,  // measure 33
2000
0000
3000
0100
,  // measure 34
0000
0010
0002
0000
,  // measure 35
0103
0100
0000
0000
,  // measure 36
0000
0000
0000
0010
,  // measure 37
0000
0100
0100
0000
,  // measure 38
0001
0001
0000
0000
,  // measure 39
2000
0000
3000
0100
,  // measure 40
0000
0010
0010
0000
,  // measure 41
0001
1000
0000
0000
,  // measure 42
0020
0000
0130
0000
,  // measure 43
0001
0010
0200
0000
,  // measure 44
1300
0001
1000
0000
,  // measure 45
0001
1000
0001
0000
,  // measure 46
1000
0010
1000
0000
,  // measure 47
0001
0100
0001
0000
,  // measure 48
0010
0001
0010
0000
,  // measure 49
0100
1000
0100
1000
,  // measure 50
0001
0001
0000
0000
,  // measure 51
1000
0010
1000
0000
,  // measure 52
0010
0100
0010
0000
,  // measure 53
0100
0001
0100
0000
,  // measure 54
0001
1000
0001
0010
,  // measure 55
0001
1000
0010
0100
,  // measure 56
0001
0010
0200
0000
,  // measure 57
1300
0010
0200
0000
,  // measure 58
0310
1000
0002
0000
,  // measure 59
0013
0100
0010
0001
,  // measure 60
1000
0001
1001
0000
,  // measure 61
0001
1000
0200
0000
,  // measure 62
1300
0001
0020
0000
,  // measure 63
0130
0010
0001
0100
,  // measure 64
0010
1000
1001
0000
,  // measure 65
0001
0100
0020
0000
,  // measure 66
1030
0100
0020
0000
,  // measure 67
0130
1000
0001
0100
,  // measure 68
0010
1000
1001
0000
,  // measure 69
0021
0000
0130
0000
,  // measure 70
1020
0000
0130
0000
,  // measure 71
1001
0000
0110
0000
,  // measure 72
1001
0000
0220
0000
,  // measure 73
0000
0000
0330
1000
,  // measure 74
0000
0001
0000
0100
,  // measure 75
0000
0001
0000
0010
,  // measure 76
0000
0100
0000
0010
,  // measure 77
0000
0001
0000
0100
,  // measure 78
0000
0010
0000
1000
,  // measure 79
0000
0001
0000
1000
,  // measure 80
0000
0001
0000
0010
,  // measure 81
0000
0001
0000
1000
,  // measure 82
0100
0000
0010
0001
,  // measure 83
0000
0100
0010
0000
,  // measure 84
0100
0001
0000
1000
,  // measure 85
0100
0000
0010
0001
,  // measure 86
0000
0010
0100
0000
,  // measure 87
0010
0001
0000
0100
,  // measure 88
0010
0000
0100
0001
,  // measure 89
0010
0100
1000
0001
,  // measure 90
0000
1000
0001
0010
,  // measure 91
0100
0000
0000
0100
0000
0000
0010
0000
,  // measure 92
0000
0100
0010
0100
,  // measure 93
1000
0000
0000
0010
0000
0000
1000
0000
,  // measure 94
0000
0001
0100
0010
,  // measure 95
0000
0100
0001
1000
,  // measure 96
0000
0100
0010
0001
,  // measure 97
0011
0000
0000
1100
0000
0000
0100
0000
,  // measure 98
0000
1000
0010
0100
,  // measure 99
0000
0010
0100
0001
,  // measure 100
0000
0010
0100
1000
,  // measure 101
0001
0000
0000
0001
0000
0000
1000
0000
,  // measure 102
0100
0010
0001
0010
,  // measure 103
0100
1000
0001
0011
,  // measure 104
0000
0000
0000
1010
,  // measure 105
0000
0000
0000
0011
,  // measure 106
0000
1010
0000
1001
;

//---------------dance-single - ---------------
#NOTES:
     dance-single:
     :
     Medium:
     14:
     0,0,0,0,0:
// measure 0
0000
0000
0000
0000
,  // measure 1
0000
0000
0000
0000
,  // measure 2
0000
0000
0000
0000
,  // measure 3
0000
0000
0000
0000
,  // measure 4
0000
0000
0000
0000
,  // measure 5
0001
1000
0010
0000
,  // measure 6
1000
0001
0010
0000
,  // measure 7
0002
0000
0100
0000
,  // measure 8
1003
0001
1001
0000
,  // measure 9
0001
0100
0010
0100
,  // measure 10
0001
0010
0100
0010
,  // measure 11
0001
1000
0100
0010
,  // measure 12
0001
1000
1001
0000
,  // measure 13
0001
0000
0100
0000
0010
0100
0010
0100
,  // measure 14
0010
0000
1000
0000
0100
0010
0100
0010
,  // measure 15
0100
1000
0001
0000
0100
0001
1000
0000
,  // measure 16
0010
0100
0010
0100
0010
0100
0010
0100
,  // measure 17
0001
1000
0010
1000
,  // measure 18
0001
0010
0001
1000
,  // measure 19
0010
1000
0001
0100
,  // measure 20
0002
2003
3200
0320
,  // measure 21
0031
1000
0100
1000
,  // measure 22
0001
0100
0001
1000
,  // measure 23
0001
0010
0001
1000
,  // measure 24
0002
0023
0230
0320
,  // measure 25
0031
0010
0001
0010
,  // measure 26
0100
1000
0100
1000
,  // measure 27
0010
1000
0010
0100
,  // measure 28
0002
0023
0230
0310
,  // measure 29
0011
0010
0100
0000
,  // measure 30
1100
0100
0010
0000
,  // measure 31
0001
0000
1000
0010
0000
0010
0000
0010
,  // measure 32
0200
0320
2030
3002
,  // measure 33
0203
0310
1000
0100
,  // measure 34
0010
0001
0020
0130
,  // measure 35
1000
1000
0001
0100
,  // measure 36
0010
1000
0001
0010
,  // measure 37
0100
0010
0010
0100
,  // measure 38
0010
0010
0100
1000
,  // measure 39
0020
0130
0001
0010
,  // measure 40
0100
0010
0010
0001
,  // measure 41
0010
0010
0100
1000
,  // measure 42
0020
0130
0001
1000
,  // measure 43
0100
0000
0010
0001
0010
0001
0010
0000
,  // measure 44
0001
1000
1001
0000
,  // measure 45
0001
0001
0100
0100
,  // measure 46
0010
0010
1000
1000
,  // measure 47
0100
0100
0010
0010
,  // measure 48
0001
0001
0010
0010
,  // measure 49
0001
0001
0100
0100
,  // measure 50
0010
0010
0000
0000
,  // measure 51
0100
0100
0010
0010
,  // measure 52
0001
0001
0010
0010
,  // measure 53
1000
1000
0100
0100
,  // measure 54
0001
0001
0100
0100
,  // measure 55
0010
0010
0001
0001
,  // measure 56
1000
1000
1002
0000
,  // measure 57
0103
0000
0001
0000
0010
0100
0000
0100
,  // measure 58
1000
0000
0100
0000
0010
0001
0000
0001
,  // measure 59
0100
0000
0010
0000
0100
0001
0000
0001
,  // measure 60
1000
0001
1001
0000
,  // measure 61
0001
0000
1000
0000
0010
1000
0000
1000
,  // measure 62
0100
0000
0010
0000
0001
0010
0000
0010
,  // measure 63
0100
0000
0010
0000
0001
0100
0000
0100
,  // measure 64
0010
0100
1001
0000
,  // measure 65
1000
0000
0010
0000
0100
0001
0000
0010
,  // measure 66
0100
0000
1000
0000
0100
0010
0000
0100
,  // measure 67
1000
0000
0010
0000
0100
0001
0000
0010
,  // measure 68
0001
0100
1001
0000
,  // measure 69
1000
0000
0100
1000
0100
1000
0000
1000
,  // measure 70
0001
0000
0100
0001
0100
0001
0000
0100
,  // measure 71
0001
0000
0010
0000
0100
0000
1000
0000
0100
0000
0010
0000
,  // measure 72
0001
0000
0100
0000
0010
0000
2002
0000
0000
0000
0000
0000
,  // measure 73
0000
0000
3003
1000
,  // measure 74
0001
1000
0010
1000
,  // measure 75
0001
0010
0100
0010
,  // measure 76
0001
0100
0010
1000
,  // measure 77
0001
0010
0100
0010
,  // measure 78
0001
0100
0010
1000
,  // measure 79
0001
0010
0100
0010
,  // measure 80
0001
0100
0010
1000
,  // measure 81
0001
0000
1000
0000
0000
0000
0001
0100
,  // measure 82
0001
0100
0001
0000
1000
0100
1000
0100
,  // measure 83
1000
0000
0001
0100
0001
0100
0001
0000
,  // measure 84
1000
0100
1000
0100
1000
0000
0001
0010
,  // measure 85
0001
0010
0001
0000
1000
0010
1000
0010
,  // measure 86
1000
0000
0001
0010
0001
0010
0001
0000
,  // measure 87
1000
0010
1000
0010
1000
0000
0001
1000
,  // measure 88
0001
1000
0001
0000
1000
0001
1000
0001
,  // measure 89
1000
0001
1000
0001
1000
0001
1000
0000
,  // measure 90
0000
0100
0000
0100
0010
0000
0001
0000
,  // measure 91
0011
0000
0000
0101
0000
0000
0100
0000
,  // measure 92
0000
0100
0000
0100
0010
0000
1000
0000
,  // measure 93
1010
0000
0000
1100
0000
0000
0100
0000
,  // measure 94
0000
0100
0000
0100
0010
0000
0001
0000
,  // measure 95
0000
0001
0000
0001
1000
0000
0010
0000
,  // measure 96
0000
0100
0000
0100
0010
0000
1000
0000
,  // measure 97
1001
0000
0000
0110
0000
0000
0001
0000
,  // measure 98
0000
1000
0000
0100
0010
0000
0001
0000
,  // measure 99
0000
0010
0000
0100
1000
0000
0010
0000
,  // measure 100
0000
0100
0000
0001
1000
0000
0100
0000
,  // measure 101
0110
0000
0000
1001
0000
0000
0001
0000
,  // measure 102
0100
0001
0000
0010
0100
0000
1000
0000
,  // measure 103
1100
0000
0000
0000
0000
0000
0000
0000
0000
0011
0000
0000
0000
0000
0000
0000
0000
0000
0001
0000
0000
0000
0100
0000
,  // measure 104
0000
0010
0000
0000
0000
0000
0000
0000
0000
0100
0000
0010
,  // measure 105
0000
1000
0000
0000
0000
0000
0000
0000
0000
0001
0000
1000
,  // measure 106
0000
0010
0000
1000
0000
0001
0000
0010
0000
0200
0000
0000
,  // measure 107
0000
0000
0000
0000
,  // measure 108
0300
0000
0000
0000
;

//---------------dance-single - ---------------
#NOTES:
     dance-single:
     :
     Hard:
     16:
     0,0,0,0,0:
// measure 0
0000
0000
0000
0000
,  // measure 1
0000
0000
0000
0000
,  // measure 2
0000
0000
0000
0000
,  // measure 3
0000
0000
0000
0000
,  // measure 4
0000
0000
0000
0000
,  // measure 5
1000
0000
0001
0010
0001
0010
0001
0010
,  // measure 6
0001
0000
0001
0000
0100
0001
0100
0010
,  // measure 7
2000
0000
0000
0000
,  // measure 8
3010
0100
1001
0000
,  // measure 9
1000
0000
0010
1000
0010
1000
0010
1000
,  // measure 10
0010
0000
0010
0000
0010
0100
0001
1000
,  // measure 11
0001
0000
0010
0000
0010
0001
0010
0001
,  // measure 12
0010
0100
1100
0000
,  // measure 13
1001
0000
1000
0010
0100
0001
1000
0100
,  // measure 14
0010
0000
0001
0010
0100
1000
0001
0100
,  // measure 15
0010
1000
0100
0000
0100
1000
0010
0000
,  // measure 16
0010
0001
0010
0100
0001
1000
0100
0010
,  // measure 17
0001
0000
0010
0000
0000
0010
0000
0010
,  // measure 18
0100
0000
0010
0000
0000
0010
0000
0010
,  // measure 19
0100
0000
0010
0000
0000
0010
0000
0010
,  // measure 20
0110
1001
0011
0101
,  // measure 21
1010
0000
0010
0000
0000
0010
0000
0010
,  // measure 22
0100
0000
0100
0000
0000
0010
0000
0010
,  // measure 23
0100
0000
0100
0000
0000
0010
0000
0010
,  // measure 24
0110
1010
1001
1100
,  // measure 25
0011
0000
0001
0000
0100
0000
0010
0100
,  // measure 26
0001
0000
1000
0000
0010
0000
0100
0010
,  // measure 27
1000
0000
0100
0000
0010
0000
0100
1000
,  // measure 28
1010
0110
0101
0110
,  // measure 29
2001
0100
3001
0000
,  // measure 30
1002
0100
1003
0000
,  // measure 31
0101
0000
0000
1010
0000
0000
1100
0000
,  // measure 32
1000
0100
0010
0001
1000
0100
0010
0001
,  // measure 33
0100
1000
0100
0000
1000
0000
0100
0000
,  // measure 34
0001
0000
0010
0000
1000
0010
1000
0000
,  // measure 35
0010
0010
0001
1000
,  // measure 36
1000
0100
1000
0010
,  // measure 37
0100
0010
0010
0100
,  // measure 38
0010
0010
0100
0001
,  // measure 39
1000
0100
0001
0000
0100
0000
0010
0000
,  // measure 40
0001
0010
0010
0100
,  // measure 41
0010
0010
0100
1000
,  // measure 42
0001
0100
1000
0000
0100
0000
0010
0000
,  // measure 43
0010
0000
0100
0010
0100
1000
0100
0000
,  // measure 44
0101
1010
1001
0000
,  // measure 45
1000
0100
1000
0000
1000
0001
1000
0000
,  // measure 46
1000
0010
1000
0000
1000
0001
1000
0000
,  // measure 47
0001
0100
0001
0000
0001
1000
0001
0000
,  // measure 48
0001
0010
0001
0000
0001
1000
0001
0000
,  // measure 49
1000
0100
1000
0000
0001
0010
0001
0000
,  // measure 50
0100
0001
1000
0000
0000
0000
0000
0000
,  // measure 51
0001
0100
0001
0100
0010
1000
0010
1000
,  // measure 52
0001
1000
0001
1000
0001
0010
0001
0010
,  // measure 53
0100
0010
0100
0010
0100
1000
0100
1000
,  // measure 54
0001
1000
0001
1000
0010
1000
0010
1000
,  // measure 55
0010
0100
0010
0100
0010
0000
0100
0000
,  // measure 56
0001
1000
2001
0000
,  // measure 57
3001
0000
1000
0100
1000
0100
0010
0100
,  // measure 58
1000
0000
0100
1000
0100
1000
0100
0010
,  // measure 59
0100
0000
0100
0000
0100
0010
0001
0100
,  // measure 60
0010
1010
1001
0000
,  // measure 61
1000
0000
0001
0010
0001
0010
0100
0010
,  // measure 62
0001
0000
0010
0001
0010
0001
0010
0100
,  // measure 63
0010
0001
0100
0010
0100
0001
1000
0001
,  // measure 64
0101
1010
1001
0000
,  // measure 65
1000
0000
0001
0100
0001
1000
0100
0010
,  // measure 66
0001
0000
1000
0100
1000
0001
0010
0100
,  // measure 67
1000
0000
0100
0010
0100
1000
0010
0100
,  // measure 68
0101
1010
1001
0000
,  // measure 69
0101
0000
0001
0100
1000
0100
0001
1000
,  // measure 70
1100
0000
1000
0100
0001
0100
1000
0001
,  // measure 71
1000
0000
1000
0000
0010
0000
0100
0000
0100
0000
0001
0000
,  // measure 72
1000
0000
1000
0000
0001
0000
2002
0000
0000
0000
0000
0000
,  // measure 73
0000
0000
0000
0000
3003
0000
1000
0010
,  // measure 74
0100
0000
0100
0000
0010
1000
0010
1000
,  // measure 75
0001
1000
0001
1000
,  // measure 76
0001
0010
0001
0010
0001
0000
1000
0100
,  // measure 77
1000
0100
1000
0000
0010
0100
0010
0100
,  // measure 78
0001
0100
0001
1000
0001
1000
0100
0000
,  // measure 79
0010
0100
0010
0100
0010
0000
0001
1000
,  // measure 80
0001
0000
1000
0000
0100
0010
0100
0010
,  // measure 81
0100
0010
0100
0000
1001
0000
0001
0100
,  // measure 82
1000
0100
0001
0000
1000
0100
0001
0100
,  // measure 83
1000
0000
0001
0100
1000
0100
0001
0000
,  // measure 84
1000
0100
0001
0100
1000
0000
0001
0010
,  // measure 85
1000
0010
0001
0000
1000
0010
0001
0010
,  // measure 86
1000
0000
0001
0010
1000
0010
0001
0000
,  // measure 87
1000
0010
0001
0010
1000
0000
0001
0100
,  // measure 88
1000
0100
0001
0000
1000
0010
0001
0010
,  // measure 89
1000
0001
0010
0100
1000
0001
1000
0000
,  // measure 90
1000
0010
0000
0010
0100
0000
0001
0000
,  // measure 91
0011
0000
0000
1100
0000
0000
0001
0000
,  // measure 92
0001
0100
0000
0100
0010
0000
1000
0000
,  // measure 93
1100
0000
0000
1001
0000
0000
0001
0000
,  // measure 94
1000
0010
0000
0100
1000
0000
0100
0000
,  // measure 95
0001
0010
0000
0100
0001
0000
0100
0000
,  // measure 96
1000
0010
0000
0100
0001
0000
1001
0000
,  // measure 97
2000
0000
0000
3020
0000
0000
0130
0000
,  // measure 98
0010
1000
0001
0000
0011
0000
1100
0000
,  // measure 99
1000
0100
0010
0000
0011
0000
1100
0000
,  // measure 100
0001
1000
0010
0000
1010
0000
0101
0000
,  // measure 101
0001
1000
0010
0000
0110
0000
0001
1000
,  // measure 102
0001
1000
0010
0100
0010
0100
0001
1000
,  // measure 103
0010
0000
0000
0100
0000
0000
0001
0000
0000
1000
0000
0000
0010
0000
0000
0100
0000
0000
0001
0000
0000
0000
0001
0000
,  // measure 104
0000
0001
0000
0000
0000
0000
0000
0000
0000
1000
0000
1000
,  // measure 105
0000
1000
0000
0000
0000
0000
0000
0000
0000
0100
0000
0100
,  // measure 106
0000
0100
0000
0010
0000
0010
0000
0010
0000
2002
0000
0000
,  // measure 107
0000
0000
0000
0000
,  // measure 108
3003
0000
0000
0000
;
