#TITLE:氷上の激情;
#SUBTITLE:;
#ARTIST:Remixed by DJ NAGAI;
#TITLETRANSLIT:Hyoujou no gekijou;
#SUBTITLETRANSLIT:;
#ARTISTTRANSLIT:Trance Liquid;
#GENRE:;
#CREDIT:;
#MUSIC:Hyoujou no gekijou.ogg;
#BANNER:;
#BACKGROUND:;
#CDTITLE:;
#SAMPLESTART:29.964;
#SAMPLELENGTH:13.117;
#SELECTABLE:YES;
#OFFSET:-0.004;
#BPMS:0.000=156.000;
#STOPS:72.000=1.154;
#JACKET:;
#DISCIMAGE:;
#CDIMAGE:;
#BGCHANGES:;
#FGCHANGES:;

//--------------- dance-single - Pandemonium X ----------------
#NOTES:
     dance-single:
     Pandemonium X:
     Beginner:
     4:
     0,0,0,0,0:
0000
0000
0000
0000
,
0000
0000
0000
0000
,
0000
0000
0000
0000
,
0000
0000
0000
0000
,
0000
0000
0000
0000
,
0000
0000
0000
0000
,
0000
0000
0000
0000
,
0000
0000
0000
0000
,
0000
0000
0000
0000
,
0001
0000
0000
0000
,
0000
0000
1000
0000
,
0001
0000
0100
0000
,
0010
0000
0000
0000
,
0100
0000
0000
0000
,
0100
0000
0000
0000
,
0100
0000
0010
0000
,
1000
0000
0001
0000
,
0020
0000
0000
0000
,
0030
0000
0000
0000
,
0000
0100
0000
0000
,
0000
1000
0000
0001
,
0000
1000
0000
0000
,
0000
0100
0000
0010
,
0000
0100
0000
0000
,
0010
0010
0000
0001
,
0001
0001
0000
0000
,
0000
1000
0000
0001
,
0000
0100
0000
0000
,
0010
0010
0000
0100
,
0100
0001
0000
1000
,
0000
0100
0000
1000
,
1000
0001
0000
0000
,
0000
0100
0000
0010
,
0000
0100
0000
0002
,
0000
0000
0000
0000
,
0003
1001
0000
0000
,
0000
1001
0000
0000
,
0000
1000
0000
0001
,
0000
0100
0000
0000
,
0000
0010
0000
0000
,
0000
0100
0000
0000
,
0000
0001
0000
0000
,
0000
1000
0000
0000
,
0000
1001
0000
0000
,
0000
1001
0000
0000
,
0000
1000
0000
0001
,
0000
0110
0000
0000
,
0000
0001
0000
0000
,
0000
1000
0000
0000
,
0000
0100
0000
0010
,
0000
0001
0000
1000
,
0000
1001
0000
0000
,
0000
0001
0000
0000
,
0000
0100
0000
0000
,
0000
0010
0000
1000
,
0001
1000
0000
0000
,
0000
0100
0000
0000
,
0000
0010
0000
0000
,
0000
0001
0000
1000
,
0000
0001
0000
0000
,
0000
0100
0000
0010
,
0000
1000
0000
0100
,
0000
0010
0000
0000
,
0000
1001
0000
0001
,
0001
0001
0000
1000
,
1000
0001
0000
1000
,
0000
0010
0000
0000
,
0200
0310
0000
0000
,
0000
1000
0000
0001
,
0000
0010
0000
0000
,
0000
0100
0000
0010
,
0010
0001
0000
0000
,
1000
1000
0000
0001
,
1000
0001
0000
0000
,
0000
1000
0000
0010
,
0000
1001
0000
1001
,
0000
1001
0000
0010
,
0010
1001
0000
0001
,
0000
1000
0000
0100
,
0100
0100
0000
0000
,
0000
0010
0000
0001
,
0000
1000
0000
0000
,
0000
0110
0000
0000
;

//--------------- dance-single - Pandemonium X ----------------
#NOTES:
     dance-single:
     Pandemonium X:
     Easy:
     7:
     0,0,0,0,0:
0000
0000
0000
0000
,
0000
0000
0000
0000
,
0000
0000
0000
0000
,
0000
0000
0000
0000
,
0000
0000
0000
0000
,
0000
0000
0000
0000
,
0000
0000
0000
0000
,
0000
0000
0000
0000
,
0000
0000
0000
0000
,
1001
0000
0000
1000
,
0100
0010
0100
0010
,
0001
0100
0010
0100
,
0001
1000
0100
0010
,
0011
0000
0001
0001
,
0101
0000
1000
1000
,
1100
0100
0110
0010
,
0011
1100
0011
1100
,
2002
0000
0000
0000
,
3003
0000
0000
0000
0000
0000
0000
0000
0000
0000
0000
0000
0001
0000
0000
0100
,
0000
0001
1000
0000
0000
0000
0000
0000
,
0000
0100
0010
0000
0000
0100
1000
0000
,
0000
0000
0000
0000
0100
0000
0000
0100
0000
0000
0100
0000
0000
0000
0000
0000
,
0000
1000
1000
0000
0000
0000
0001
0000
,
1000
0000
0010
0000
0000
0000
0000
0100
,
0010
1000
0001
0000
0000
0000
0010
0000
,
0001
1000
0000
0000
,
0000
0100
1000
0010
,
0100
0000
0000
0000
0001
0000
0000
0001
0000
0000
0001
0000
0000
0000
1000
0000
,
0100
0010
0001
0000
0000
0000
1000
0000
,
0001
0000
0000
0000
0100
0000
0000
0100
0000
0000
0100
0000
0010
0000
0000
0010
,
0000
0010
1000
0000
0000
0000
0001
0000
,
1000
0100
0000
0000
,
0010
0100
0000
1000
,
0000
0001
0000
0200
,
0000
0000
0000
0000
,
0000
0310
0000
0000
,
0000
1000
0001
0000
0000
0000
0000
0000
,
0000
0000
0000
0000
0100
0000
0000
0000
0000
0000
0000
0000
0010
0000
0000
0010
,
0000
0010
1000
0000
0000
0000
0000
0000
,
0000
0000
0001
1000
0000
0000
0000
0000
,
0000
0000
0100
0010
0000
0000
0000
0000
,
0000
0001
0000
0010
,
0000
0000
0100
0000
0000
1000
0000
0000
,
0010
1001
0000
0000
,
0000
1000
0001
0000
0000
0000
0000
0000
,
0000
0000
0000
0000
0010
0000
0000
0000
0001
0000
0000
0000
1000
0000
0000
0100
,
0000
1000
0010
0000
0000
0000
0100
0000
,
0001
0000
1000
0001
0000
0000
0000
0000
,
0000
0000
0010
0100
0000
0000
0000
0000
,
0000
1000
0000
0100
,
0000
1000
0000
0001
,
0100
1010
0000
0000
,
0000
0010
0000
0100
,
0000
0001
0000
0000
,
0000
1000
0000
0001
,
1000
0000
0100
0000
0000
0000
0000
0010
,
0000
1001
0000
0001
,
1000
0100
0000
0000
,
0000
1000
0010
0100
,
0001
1000
0001
0010
,
0001
1000
0010
1000
,
0100
0001
0100
1000
,
0010
0100
1000
0100
,
0001
0101
0000
0001
,
1000
1100
0000
1000
,
0001
0101
0001
1100
,
1000
0000
0001
0100
0010
1000
0000
0000
,
0000
1001
0000
0000
,
0000
0001
0010
0000
0000
0001
0100
0000
,
0000
0000
0001
0000
1000
0000
0000
1000
0000
0000
1000
0000
0000
0000
0000
0000
,
0000
0100
0010
0000
0000
0100
1000
0000
,
0001
1000
0001
0000
0000
0000
0000
1000
,
0100
1000
0010
0000
0000
0000
0100
0000
,
0010
0100
0000
0000
,
0000
0010
0100
0001
,
1000
0000
0000
0000
0010
0000
0000
0010
0000
0000
0000
0000
0010
0000
0000
0010
,
0000
0000
0000
0000
0010
0000
0000
0010
0000
0000
0000
0000
0010
0000
0010
0000
,
0010
0000
0010
0000
0100
0000
0000
0010
0000
0000
1000
0000
0001
0000
0000
0010
,
0000
0100
1000
0000
0000
0000
0011
0000
,
0001
0000
1000
0000
0000
0000
0000
0001
,
0010
0100
1000
0000
0000
0100
0010
0000
,
0001
0100
0010
0000
0000
0000
0000
0000
,
0000
1001
0000
0000
;

//--------------- dance-single - Pandemonium X ----------------
#NOTES:
     dance-single:
     Pandemonium X:
     Medium:
     11:
     0,0,0,0,0:
0000
0000
0000
0000
,
0000
0000
0000
0000
,
0000
0000
0000
0000
,
0000
0000
0000
0000
,
0000
0000
0000
0000
,
0000
0000
0000
0000
,
0000
0000
0000
0000
,
0000
0000
0000
0000
,
0000
0000
0000
0000
,
0001
0000
0000
0001
0000
0000
0100
0000
0000
0000
0010
0000
0100
0000
0000
0000
,
0001
0000
0000
0000
1000
0000
0000
0000
0100
0000
0000
0100
0000
0000
0100
0000
,
0010
0000
0000
0010
0000
0000
0001
0000
1000
0000
0000
0001
0000
0000
0100
0000
,
0010
0100
0001
1000
,
1100
0000
0000
0000
0000
0000
1000
0100
1000
0000
0000
0100
0000
0000
0010
0000
,
0011
0000
0000
0000
0000
0000
0001
0010
0001
0000
0000
0010
0000
0000
0001
0000
,
0100
0000
0000
0010
0000
0000
1000
0000
0001
0000
0000
0010
0000
0000
0100
0000
,
0010
0001
0100
0010
1000
0001
0010
0100
,
2000
3200
0320
0032
,
0103
0000
0000
0000
0000
0000
0000
0000
0000
0000
0000
0000
0010
0000
0000
0100
,
0000
0001
1001
0000
1000
0000
0100
0000
,
1000
1010
0010
0101
,
0001
0000
0000
0000
0010
0000
0000
0001
0000
0000
1000
0000
0100
0000
0000
0000
,
1000
0010
0100
0000
0001
0000
1000
0000
,
0100
1000
0010
0000
0100
0000
0001
0010
,
0100
0010
0001
0000
1000
0000
0011
0000
,
1100
0000
0101
0000
0001
0000
1000
0001
,
0010
0100
1100
0000
0011
0000
0001
0010
,
0100
0000
0010
0000
0001
0000
0000
0001
0000
0000
0001
0000
0000
0000
0010
0000
,
0100
0010
0001
0000
0000
0000
0101
0000
,
1010
0000
0000
0000
1000
0000
0000
0001
0000
0000
0010
0000
0001
0000
0000
1000
,
0000
0000
0100
0000
0010
0000
0000
0000
0000
0000
0000
0000
0100
1000
0000
0000
,
0100
0000
1001
0000
0000
0000
0000
0001
,
0010
0001
0100
0000
0000
0000
0110
0000
,
0000
1010
0000
1000
,
0100
0010
0001
0010
,
0100
1100
0100
1000
,
0010
0100
0101
0000
0001
0000
0010
0000
,
0001
0000
0000
0000
1000
0000
0000
1000
0000
0000
1000
0000
0001
0000
0000
0010
,
0000
0100
2200
0000
3300
0000
0001
0000
,
1000
0000
0020
2030
3001
0000
0010
0000
,
0100
0000
0020
0032
1003
0000
0010
0000
,
0100
0002
2003
3200
,
0320
0000
0000
0000
0130
0000
0000
1000
0000
0000
0010
0000
0000
0100
0000
0000
,
1000
0100
0102
0000
1003
0000
0001
0000
,
0010
1000
0020
0000
0031
0000
0100
0000
,
1000
0000
0100
0000
1000
0000
0000
0100
0000
0000
0001
0000
1000
0000
0000
0100
,
0000
0010
0022
0000
0033
0010
0100
0010
,
0001
0000
2000
3002
0103
0000
0001
0000
,
1000
0000
0200
0320
0031
0000
0010
0000
,
0001
0000
2000
0000
0010
0000
3001
0100
,
0010
0000
1000
0000
0001
0000
0010
0000
0100
0000
1000
0000
0001
0000
0000
0001
,
0000
1000
1001
0000
0000
0110
0000
0000
,
0000
0000
1000
0000
0010
0000
0100
0000
0100
0000
0000
0000
0010
0000
0000
0010
,
0000
0010
0100
0000
0000
1001
0000
0000
,
0000
0001
0010
0100
0010
0001
1001
0000
,
0101
0000
0000
0000
1001
0000
0000
1000
0000
0000
0100
0000
0000
0000
1000
0000
,
0000
0000
0001
0100
0001
0000
0000
0000
0000
0000
0000
0000
0100
0000
0000
0000
,
0001
0000
0000
0000
1000
0000
0000
0100
0000
0000
0010
0000
0000
0000
0000
0000
,
0000
0000
0100
0000
0010
0000
0001
0000
1000
0000
0100
0000
1000
0000
0000
1000
,
0000
0000
1000
0000
0010
0000
0000
0010
0000
0000
0010
0000
0000
0000
0100
0000
,
0001
0000
0010
0000
0001
0000
1000
0000
0010
0000
0100
0000
0001
0000
0000
0001
,
0000
0000
0001
0000
1000
0000
0000
0100
0000
0000
1000
0000
0010
0000
0000
0100
,
0000
0001
0010
0000
0100
0010
0001
1000
,
0100
0000
0000
0000
1100
0000
0000
0000
0000
0000
1000
0010
1000
0000
0000
0010
,
0000
0000
0100
0000
0101
0000
0000
0000
0000
0000
0001
0010
0001
0000
0000
0010
,
0000
0000
0001
0000
0010
0000
0000
0100
0000
0000
1000
0000
0001
0000
0000
0100
,
0000
0010
1000
0100
0010
0001
0000
0000
,
0000
1001
0001
0100
,
0010
1000
1010
0000
0100
1000
1001
0000
,
0001
0000
1000
0000
1100
0000
0000
0100
0000
0000
0100
0000
0000
0000
0000
0000
,
1000
0010
1010
0000
0010
0100
0101
0000
,
0001
1000
1100
0000
1000
0000
0001
0100
,
0001
1000
1100
0000
0010
0000
0011
0000
,
1100
0101
1000
0001
,
0010
0000
0110
0000
0011
0000
0001
0010
,
0100
0000
0010
0000
1001
0000
0000
1001
0000
0000
0000
0000
1001
0000
0000
1001
,
0000
0000
1000
0001
1000
0000
0000
1001
0000
0000
0001
1000
0001
0000
1000
0000
,
0001
0000
1000
0000
0001
0000
0000
0001
0000
0000
1000
0000
0010
0000
0000
0010
,
0000
0000
1000
0000
0100
0000
0000
0000
0000
0000
0000
0000
0010
0001
0000
0000
,
0010
0000
1001
0000
0000
0000
0000
0100
,
0010
1000
0001
0000
0000
1000
1000
0000
,
0100
0010
0001
0000
0000
0000
0000
0000
,
0000
2002
0000
0000
,
3003
0000
0000
0000
;

//--------------- dance-single - Pandemonium X ----------------
#NOTES:
     dance-single:
     Pandemonium X:
     Hard:
     15:
     0,0,0,0,0:
0000
0000
0000
0000
,
0000
0000
0000
0000
,
0000
0000
0000
0000
,
0000
0000
0000
0000
,
0000
0000
0000
0000
,
0000
0000
0000
0000
,
0000
0000
0000
0000
,
0000
0000
0000
0000
,
0000
0000
0000
0000
,
1001
0000
0000
0001
0000
0000
0001
0000
0000
0000
0010
0100
0010
0001
1000
0010
,
1000
0100
0010
0001
1000
0100
0010
0001
0100
0000
0000
0100
0000
0000
0100
0000
,
0010
0000
0000
1000
0000
0000
0001
0000
0010
0000
0000
0001
0000
0000
1000
0000
,
0001
0000
0000
0000
1000
0001
0100
0010
1000
0100
0010
0001
1000
0000
0000
0000
,
1001
0000
0000
0000
1000
0001
1000
0001
0100
0000
0000
0100
0000
0000
0100
0000
,
0110
0000
0000
0000
0010
0100
0010
0100
0001
0000
0000
0001
0000
0000
0010
0000
,
0110
0000
0000
0010
0000
0000
0100
0000
1100
0000
0000
0001
0000
0000
1000
0000
,
0001
0100
0010
1000
0001
0100
0010
1000
0001
0010
0100
1000
0001
0010
0100
1000
,
0010
0100
0010
0100
0010
0100
0010
0100
0010
0100
0010
0100
,
1001
0000
1000
0001
0010
0000
0010
0001
1000
0000
1000
0001
0100
0000
0000
0010
,
0000
0100
1001
1000
0100
1000
0001
0000
,
0100
0000
0010
0100
0001
0000
0000
0000
1000
0000
0001
0010
0100
0000
0000
0000
,
0010
0000
0000
0000
0100
0000
0000
1000
0000
0000
0001
0000
0001
0000
0000
0000
,
0100
0000
0010
1000
0001
0000
0000
0000
0010
0000
0100
0000
1000
0100
0000
0000
,
0010
0000
0010
0001
0100
0000
0000
0000
0001
0000
0000
0000
1000
0000
0010
0000
,
0010
0000
1000
0000
0001
0000
0000
0000
0100
0000
0000
0000
0010
0100
0010
0100
,
0001
1000
0001
0100
0001
0000
0000
0000
1000
0000
0000
0000
0001
0000
0010
0000
,
0100
0000
1000
0000
0010
0000
0000
1000
0010
0000
0000
0100
0001
0000
1000
0000
,
0010
0000
1000
0000
1002
0000
0000
0100
0000
0000
1003
0000
0000
0000
0001
0000
,
0100
0000
0100
0000
0001
0000
0000
0000
0000
0000
0100
0001
0010
0000
0000
0000
,
1100
0000
0000
0000
1020
0000
0000
0100
0000
0000
1000
0000
2030
0000
0000
0100
,
0000
0000
3001
0000
1001
0000
0000
0000
0000
0000
0000
1000
0001
0100
0000
0100
,
0001
0010
0000
0100
1000
0000
0000
0000
0100
0000
0000
0000
0010
0000
0100
0000
,
1000
0001
0100
0000
0010
0000
1010
0000
,
1000
0000
0000
0000
1200
0000
0000
0000
1000
0000
0000
0000
1300
0100
0010
0001
,
1000
0100
0010
0001
0010
0100
0010
0001
1000
0100
0010
0001
0010
0100
1000
0100
,
0010
0001
0010
0100
2000
0000
0000
0000
3010
1000
0100
1000
0010
0100
0001
0010
,
0100
0000
1100
0000
1002
0000
0000
0000
0013
0100
0010
0001
0100
0001
0010
0100
,
0010
0000
0100
0000
1000
0200
0000
0310
0200
0000
1000
0000
0320
0000
0000
0230
,
0000
0000
0310
0000
1002
0000
0000
0000
0103
0001
0010
0001
1000
0100
0010
0100
,
2000
0000
0000
0000
3200
0000
2300
0000
3010
0100
0010
1000
0010
0100
0001
0010
,
0100
0000
1000
0001
0200
0000
0000
0000
0310
0000
1000
0010
1000
0001
0010
0001
,
2000
0000
3002
0000
0013
0100
0010
0001
2000
0000
0000
0000
3002
0000
0000
0000
,
0203
0000
0000
0000
1300
0200
0000
0302
0000
0000
0023
0000
0000
2030
0000
0000
,
3020
0000
0031
0000
1200
0000
0000
0000
0310
0001
0100
0001
0010
0100
1000
0001
,
0100
0000
0101
0000
2001
0000
0000
0000
3100
0010
0100
1000
0001
0100
0001
0010
,
0100
0000
1000
0000
0001
0020
0000
0130
0020
0000
0001
0000
0230
0000
0000
2300
,
0000
0000
3001
0000
2001
0000
0000
0000
0000
0000
3100
0010
0001
0010
0001
1000
,
0010
0100
0001
0010
0200
0000
0320
0000
0032
0000
0000
0000
0013
0000
0000
0010
,
0001
0000
0000
0000
1000
0000
0100
0000
0020
0000
0000
0000
0130
0000
0000
0100
,
1000
0000
0001
0000
2002
0000
0000
0000
3003
0000
0000
0000
1000
0100
0010
0001
,
0100
0010
1000
0001
0020
0000
0000
0000
0230
0000
0000
0000
1300
0000
0000
0100
,
0000
1000
1001
0000
0000
1010
0000
0000
,
0000
0001
0100
0010
0100
0000
0010
0100
0001
0000
0000
0000
1000
0000
0000
0100
,
0000
1000
1001
0000
0000
1100
0000
0000
,
0000
1000
0100
1000
0100
0010
0001
1000
0100
0010
0100
1000
0001
0100
0000
0000
,
0010
1000
0000
0000
0100
0000
0000
0010
0000
0000
0100
0000
0000
0000
0010
0000
,
0000
0000
0000
0000
0000
0000
0001
0000
1000
0000
0001
0000
0010
0000
0000
0000
0000
0000
0000
0000
0000
0000
0000
0000
0000
0000
0000
0000
0000
0000
0000
0000
0000
0000
0000
0000
0100
0000
0000
1000
0000
0000
0100
0000
0000
1000
0000
0000
,
0001
0010
0001
0010
0100
0000
0000
1000
0000
0000
0100
0000
0000
0000
0000
0000
,
0000
1000
0010
0100
0001
0010
0100
0010
0001
1000
0100
0010
0001
0000
0000
0001
,
0000
0000
0001
0000
2001
0000
0000
0001
0000
0000
3001
0000
0000
0010
0100
0010
,
0001
0010
0100
0010
0001
0100
0001
1000
0100
1000
0001
0100
0010
0000
0000
0010
,
0000
0000
0010
0000
1000
0000
0000
1000
0000
0000
1000
0000
0100
0000
0000
0010
,
0000
0000
0001
0000
0011
0000
0000
0000
0010
0100
1000
0100
0010
0001
1000
0100
,
1000
0000
0000
0000
1001
0000
0000
0000
0001
0000
0001
0100
0001
0000
0010
0100
,
0000
0100
1000
0000
0001
0000
0000
0000
0001
0000
0001
0100
0001
0000
0001
0100
,
0000
0100
0010
0000
1000
0000
0000
0100
0000
0000
0010
0000
0001
0000
0000
0100
,
0000
0000
0010
0000
1000
0100
0010
0001
1000
0100
0010
0001
0100
0000
0000
0020
,
0000
0000
1030
0000
1001
0000
0000
0001
0100
0000
0000
0100
0010
0000
1000
0000
,
0100
0010
0011
0000
0010
0100
1100
0000
,
0001
0000
1000
0001
0100
0000
0000
0001
0000
0000
0010
0000
0100
0000
0000
0000
,
1000
0000
0001
1000
0100
0000
0000
0000
0010
0000
0001
0000
0101
0000
0000
0000
,
1001
0000
1000
0100
1000
0000
0100
0000
1000
0000
0010
0000
0000
0000
0100
0000
,
0010
0000
1000
0000
1100
0000
0000
0000
0000
0000
0000
0000
0010
0001
0000
0000
,
0010
0100
0000
0000
1100
0000
0000
0000
0001
0000
0000
0000
0010
0000
0000
0000
,
0100
0000
0000
1000
0100
0000
0100
0010
0001
0000
0010
0100
1000
0000
0100
0000
,
0010
0000
0100
0000
1100
0000
0000
0011
0000
0000
0000
0000
1100
0000
0000
0011
,
0000
0000
1000
0100
1100
0000
0000
0011
0000
0000
0001
0010
0011
0000
0010
0000
,
0110
0000
0100
0000
1100
0000
0000
1000
0000
0000
0001
0000
0100
0000
0000
0010
,
0000
0000
1000
0000
1100
0000
0000
0000
0000
0000
0000
0000
0010
0001
0000
0000
,
0010
0000
0200
0000
1000
0000
0310
0100
,
1000
0010
0200
0000
0301
0100
0100
0000
,
0001
0100
0010
1000
0200
0000
0000
0000
0000
0000
0000
0000
0000
0000
0000
0000
,
0310
0100
1000
0001
1001
0000
0000
0000
0000
0000
0000
0000
0000
0000
0000
0000
;
