#TITLE:Hollywood Galaxy (DJ NAGAI Remix);
#SUBTITLE:;
#ARTIST:Remixed by DJ NAGAI;
#MUSIC:Hollywood Galaxy (DJ NAGAI Remix).ogg;
#BANNER:;
#BACKGROUND:;
#LYRICSPATH:;
#CDTITLE:;
#SAMPLESTART:82.673;
#SAMPLELENGTH:19.886;
#OFFSET:0.714;
#BPMS:0.000000=186.000000;
#STOPS:;
#TIMESIGNATURES:;
#BGCHANGES:;
#FGCHANGES:;
#ATTACKS:;
#SPEEDS:;
#SCROLLS:;

//---------------dance-single - ---------------
#NOTES:
     dance-single:
     :
     Beginner:
     5:
     0,0,0,0,0:
// measure 0
0000
0000
0000
0000
,  // measure 1
0000
0000
0000
0000
,  // measure 2
0000
0000
0000
0000
,  // measure 3
0000
0000
0000
0000
,  // measure 4
0000
0000
0000
0000
,  // measure 5
0000
0000
0000
0000
,  // measure 6
0000
0000
0000
0000
,  // measure 7
0000
0000
0000
0000
,  // measure 8
0000
0000
0000
0000
,  // measure 9
0001
0000
0000
0000
,  // measure 10
1000
0000
0000
0000
,  // measure 11
0001
0000
0000
0000
,  // measure 12
1000
0000
0000
0000
,  // measure 13
0010
0000
0000
0000
,  // measure 14
0100
0000
0000
0000
,  // measure 15
0001
0000
0000
0000
,  // measure 16
1000
1000
1000
0001
,  // measure 17
0010
0000
0100
0000
,  // measure 18
1000
0000
0100
0000
,  // measure 19
0010
0000
0001
0000
,  // measure 20
1000
0000
0010
0000
,  // measure 21
1000
0000
0001
0000
,  // measure 22
0010
0000
0001
0000
,  // measure 23
0100
0000
0010
0000
,  // measure 24
1000
0000
0001
0000
,  // measure 25
1000
0100
1000
0000
,  // measure 26
0001
0100
0001
0000
,  // measure 27
1000
0100
1000
0000
,  // measure 28
0001
0100
0001
0000
,  // measure 29
1000
0000
0001
0000
,  // measure 30
0100
0100
0010
0010
,  // measure 31
0100
0000
0001
0000
,  // measure 32
0000
1001
0000
0000
0000
0000
0000
0000
,  // measure 33
0220
0000
0000
0000
,  // measure 34
0000
0000
0330
0000
,  // measure 35
0001
0010
0001
0000
,  // measure 36
1000
0010
1000
0000
,  // measure 37
1001
0000
0000
0000
,  // measure 38
0110
0000
0000
0000
,  // measure 39
1001
0000
0110
0000
,  // measure 40
0001
0100
0010
1000
,  // measure 41
0100
0000
0000
0000
,  // measure 42
0010
0000
0000
0000
,  // measure 43
0001
0000
0010
0000
,  // measure 44
0001
0000
0000
1000
,  // measure 45
0001
0000
0000
0000
,  // measure 46
0010
0000
0000
0000
,  // measure 47
0001
0000
1000
0000
,  // measure 48
0001
0010
0100
1000
,  // measure 49
0010
0000
0000
0000
,  // measure 50
0100
0000
0000
0000
,  // measure 51
0001
0000
1000
0000
,  // measure 52
0001
0000
0000
0010
,  // measure 53
0100
0000
0000
0000
,  // measure 54
0010
0000
0000
0000
,  // measure 55
0001
0000
1000
0000
,  // measure 56
0001
0001
1000
1000
,  // measure 57
0010
0000
0000
0000
,  // measure 58
0100
0000
0000
0000
,  // measure 59
0001
0000
0000
0000
,  // measure 60
1000
0000
0000
0000
,  // measure 61
0100
0000
0000
0000
,  // measure 62
0010
0000
0000
0000
,  // measure 63
0001
0000
0000
0001
0000
0000
0001
0000
,  // measure 64
0001
0000
0000
0000
,  // measure 65
1001
0000
0000
1000
,  // measure 66
0001
0000
0100
0000
,  // measure 67
0010
0000
0000
0010
0000
0000
0010
0000
,  // measure 68
0010
0000
0000
0000
,  // measure 69
1010
0000
0000
1000
,  // measure 70
0001
0000
1000
0000
,  // measure 71
0100
0000
0000
0100
0000
0000
0010
0000
,  // measure 72
0100
0000
0000
0010
,  // measure 73
0011
0000
0000
0001
,  // measure 74
1000
0000
0001
0000
,  // measure 75
0100
0000
0000
0100
0000
0000
0010
0000
,  // measure 76
1000
0000
0000
0000
,  // measure 77
1001
0000
0000
0001
,  // measure 78
0001
0000
1000
0000
,  // measure 79
0100
0000
0000
0100
0000
0000
0100
0000
,  // measure 80
0110
0000
0000
0000
,  // measure 81
1000
0100
1000
0000
,  // measure 82
0001
0100
0001
0000
,  // measure 83
1000
0010
1000
0000
,  // measure 84
0001
0010
0001
1000
,  // measure 85
1001
0000
0000
0000
,  // measure 86
0110
0000
0000
0000
,  // measure 87
1001
0000
0110
0000
,  // measure 88
0001
0100
0010
1000
;

//---------------dance-single - ---------------
#NOTES:
     dance-single:
     :
     Easy:
     9:
     0,0,0,0,0:
// measure 0
0000
0000
0000
0000
,  // measure 1
0000
0000
0000
0000
,  // measure 2
0000
0000
0000
0000
,  // measure 3
0000
0000
0000
0000
,  // measure 4
0000
0000
0000
0000
,  // measure 5
0000
0000
0000
0000
,  // measure 6
0000
0000
0000
0000
,  // measure 7
0000
0000
0000
0000
,  // measure 8
0000
0000
0000
0000
,  // measure 9
0001
1000
0010
1000
,  // measure 10
0001
0010
0001
1000
,  // measure 11
0001
0100
0001
1000
,  // measure 12
0001
0010
0001
1000
,  // measure 13
0100
0010
0001
0010
,  // measure 14
0001
0010
0100
1000
,  // measure 15
0100
1000
0010
0100
,  // measure 16
0110
0110
0110
1001
,  // measure 17
0001
0100
0010
1000
,  // measure 18
0001
0100
0010
1000
,  // measure 19
0001
0100
0010
1000
,  // measure 20
0001
0010
0100
0010
,  // measure 21
0001
0100
0010
1000
,  // measure 22
0001
0100
0010
1000
,  // measure 23
0001
0100
0010
1000
,  // measure 24
1002
0000
1003
0011
,  // measure 25
1000
0000
0100
0000
0010
0001
0000
0000
,  // measure 26
0010
0000
0100
0000
1000
0001
0000
0000
,  // measure 27
0100
0000
0001
0000
0010
0100
0000
0000
,  // measure 28
0010
0000
0001
0000
1000
0000
0001
0010
,  // measure 29
0100
0010
0001
1000
,  // measure 30
0001
0100
1000
0100
,  // measure 31
0101
0001
0011
0010
,  // measure 32
0000
0000
0100
0000
0000
1000
0000
0000
0010
0000
0000
0100
0000
0000
0001
0000
,  // measure 33
2002
0000
0000
0000
,  // measure 34
0000
0000
3003
0000
,  // measure 35
1000
0000
0001
0000
0010
0100
0000
0000
,  // measure 36
0010
0000
0001
0000
1000
0000
0010
0100
,  // measure 37
0101
0001
0010
0100
,  // measure 38
1100
0100
1000
0010
,  // measure 39
0110
0100
0101
0001
,  // measure 40
1000
0100
0010
0001
0010
0100
0010
0001
,  // measure 41
2000
0000
0000
3000
,  // measure 42
0020
0000
0000
0030
,  // measure 43
0200
0300
0020
0030
,  // measure 44
0200
0000
0000
0000
0300
0010
1000
0001
,  // measure 45
2000
0000
0000
3000
,  // measure 46
0002
0000
0000
0003
,  // measure 47
0020
0030
0002
0003
,  // measure 48
2000
3200
0320
0230
,  // measure 49
1300
1000
1100
0000
,  // measure 50
0010
0010
0110
0000
,  // measure 51
2000
3001
0200
0310
,  // measure 52
2000
0000
0001
0000
3001
0000
1000
0100
,  // measure 53
0010
0010
0110
0000
,  // measure 54
0100
0100
1100
0000
,  // measure 55
0002
0103
0020
1030
,  // measure 56
0002
0023
0230
0320
,  // measure 57
0031
0001
0001
0001
,  // measure 58
1000
1000
1000
1000
,  // measure 59
0010
0010
0010
0010
,  // measure 60
0100
0100
0100
0100
,  // measure 61
0002
0000
0003
0010
,  // measure 62
0100
1000
0100
0010
,  // measure 63
0001
0000
0000
0100
0000
0000
1010
0000
,  // measure 64
2002
0000
0000
0000
3003
1000
0100
0010
,  // measure 65
0002
0000
0003
0010
,  // measure 66
0001
0100
0010
1000
,  // measure 67
0002
0000
0000
2003
0000
0000
3200
0000
,  // measure 68
0020
0000
0330
0000
,  // measure 69
2100
0000
0000
0000
3000
0001
0010
0100
,  // measure 70
1000
0010
1000
0100
,  // measure 71
1000
0001
1000
0001
1000
0001
1000
0001
,  // measure 72
1000
1000
0000
0000
0000
0100
0010
0001
,  // measure 73
0200
0000
0000
0000
0300
0010
1000
0001
,  // measure 74
1000
0100
0010
0100
,  // measure 75
2000
0000
0000
3002
0000
0000
0023
0000
,  // measure 76
0200
0000
0330
0000
,  // measure 77
0021
0000
0000
0000
0030
0100
1000
0001
,  // measure 78
1000
0010
0100
0001
,  // measure 79
1010
0000
0000
0101
0000
0000
0110
0000
,  // measure 80
2002
0000
3003
0000
,  // measure 81
1000
0000
0100
0000
0010
0010
0000
0000
,  // measure 82
0001
0000
0100
0000
0010
0010
0000
0000
,  // measure 83
0100
0000
0001
0000
1000
1000
0000
0000
,  // measure 84
0100
0000
0010
0000
0100
0000
0010
0001
,  // measure 85
0100
0100
0000
0000
0000
0000
0000
0000
,  // measure 86
0010
0010
0000
0000
0000
0000
0000
0000
,  // measure 87
1000
1000
0000
0000
0001
0001
0000
0000
,  // measure 88
1000
0100
0010
0001
0010
0100
1000
0010
;

//---------------dance-single - ---------------
#NOTES:
     dance-single:
     :
     Medium:
     12:
     0,0,0,0,0:
// measure 0
0000
0000
0000
0000
,  // measure 1
0000
0000
0000
0000
,  // measure 2
0000
0000
0000
0000
,  // measure 3
0000
0000
0000
0000
,  // measure 4
0000
0000
0000
0000
,  // measure 5
0000
0000
0000
0000
,  // measure 6
0000
0000
0000
0000
,  // measure 7
0000
0000
0000
0000
,  // measure 8
0020
0000
0130
1001
,  // measure 9
0001
0000
0000
0001
0000
0000
0001
0000
0000
0000
1000
0000
0000
0100
0000
0000
,  // measure 10
0010
0000
0000
0010
0000
0000
0010
0000
0000
0000
0100
0000
0000
0010
0000
0000
,  // measure 11
0001
0000
0000
0001
0000
0000
0001
0000
0000
0000
0100
0000
0000
0010
0000
0000
,  // measure 12
0100
0000
0000
0100
0000
0000
0100
0000
0000
0000
0010
0000
0000
1000
0000
0000
,  // measure 13
0001
0000
0000
1000
0000
0000
0100
0000
0000
0000
0110
0000
0000
0000
0100
0000
,  // measure 14
1000
0000
0000
0001
0000
0000
0010
0000
0000
0000
0101
0000
0000
0000
0100
0000
,  // measure 15
0010
0000
0000
1000
0000
0000
0100
0000
0000
0000
1001
0000
0000
0000
1000
0000
,  // measure 16
1100
0011
1100
1001
,  // measure 17
0001
0001
0100
0010
1000
0000
0100
0000
,  // measure 18
1000
1000
0001
0010
0100
0000
1000
0000
,  // measure 19
0010
0010
0100
0010
1000
0000
0001
0000
,  // measure 20
0001
0100
0010
1000
0001
0010
0100
1000
,  // measure 21
0001
0001
0010
0100
1000
0000
0010
0000
,  // measure 22
1000
1000
0001
0100
0010
0000
1000
0000
,  // measure 23
0100
0100
0010
0100
1000
0000
0001
0000
,  // measure 24
0001
0010
0100
1000
0001
0100
0110
0000
,  // measure 25
0001
0001
0100
0010
1000
0001
0000
0000
,  // measure 26
0001
0001
0100
0010
1000
0001
0000
0000
,  // measure 27
0001
0001
0100
0010
1000
0001
0000
0000
,  // measure 28
0001
0001
0100
0010
1000
0000
0001
0010
,  // measure 29
0100
0010
0001
0100
,  // measure 30
0010
0001
0010
1000
0100
0100
1000
1000
,  // measure 31
0001
0000
1000
0000
0010
0000
0000
0000
1000
0000
0001
0000
0010
0000
0100
0010
,  // measure 32
0000
0000
0100
0000
0000
1000
0000
0000
0010
0000
0000
0100
0000
0000
1001
0000
,  // measure 33
1000
1000
0100
0010
0001
1000
0000
0000
,  // measure 34
1000
1000
0100
0010
0001
1000
0000
0000
,  // measure 35
1000
1000
0100
0010
0001
1000
0000
0000
,  // measure 36
1000
1000
0100
0010
0001
0000
1000
0010
,  // measure 37
0100
0010
1000
0100
,  // measure 38
0010
1000
0010
0001
0100
0100
0001
0001
,  // measure 39
1000
0001
0010
0000
0001
1000
0010
0100
,  // measure 40
0010
0010
0100
0100
1000
0100
0001
1000
,  // measure 41
0002
0000
0000
0003
,  // measure 42
0020
0000
0000
0030
,  // measure 43
0200
0000
2300
0000
,  // measure 44
3020
0000
0000
0000
0000
0130
0001
1000
,  // measure 45
0002
0000
0000
0003
,  // measure 46
0020
0000
0000
0030
,  // measure 47
0200
0000
2300
0000
,  // measure 48
3002
0023
0230
0320
,  // measure 49
0031
0000
0001
0000
0101
0000
0100
0010
,  // measure 50
0000
0010
1000
0000
0001
1000
0100
0000
,  // measure 51
0010
0000
0010
0000
0110
0000
1000
0100
,  // measure 52
0000
0100
1000
0000
0100
0010
0001
0100
,  // measure 53
0010
0000
0010
0000
0101
0000
0001
0100
,  // measure 54
0000
0001
1000
0000
0100
0010
0001
0100
,  // measure 55
0020
0000
0130
0001
2000
0000
3001
0010
,  // measure 56
0200
0320
0032
2003
,  // measure 57
3002
0100
0010
1003
,  // measure 58
2000
0100
0010
3001
,  // measure 59
0002
0100
0010
1003
,  // measure 60
2000
0100
0001
3010
,  // measure 61
0202
0000
0000
0000
0303
0001
0100
0010
,  // measure 62
1000
0001
0010
0100
0010
0001
1000
0100
,  // measure 63
1100
0000
0000
0011
0000
0000
1010
0000
,  // measure 64
2002
0000
0000
0000
3003
0001
0010
0100
,  // measure 65
2200
0000
0000
0000
3300
0100
0010
0100
,  // measure 66
1000
0010
0100
0001
0010
0100
0010
0001
,  // measure 67
2000
0000
3001
0200
0000
0301
0020
0000
,  // measure 68
0200
0000
0330
0000
,  // measure 69
0022
0000
0000
0000
0033
0010
0001
1000
,  // measure 70
0001
0010
0100
1000
0100
0010
0100
1000
,  // measure 71
1001
0001
0001
1001
1000
1000
1001
0001
,  // measure 72
1001
1001
0000
0000
0000
0001
0100
0010
,  // measure 73
2020
0000
0000
0000
3030
1000
0010
0100
,  // measure 74
0010
1000
0001
0010
0001
1000
0100
0010
,  // measure 75
0200
0000
1300
0002
0000
0103
0002
0000
,  // measure 76
0020
0000
0033
0000
,  // measure 77
2002
0000
0000
0000
3003
0001
1000
0010
,  // measure 78
1000
0001
0010
0100
0010
0001
1000
0100
,  // measure 79
1000
1000
0100
0100
0010
0010
0001
0001
,  // measure 80
2002
0000
3003
0000
,  // measure 81
0001
0001
0100
0010
1000
0100
0000
0000
,  // measure 82
0010
0010
0001
0100
0001
1000
0000
0000
,  // measure 83
0100
0100
0010
0100
0010
0001
0000
0000
,  // measure 84
1000
1000
0100
1000
0010
0000
0001
1000
,  // measure 85
1001
1001
0000
0000
0000
0000
0000
0000
,  // measure 86
0110
0110
0000
0000
0000
0000
0000
0000
,  // measure 87
1001
1001
1000
0001
1001
1001
1000
0100
,  // measure 88
0010
0010
0001
0001
0100
1000
0100
0101
;

//---------------dance-single - ---------------
#NOTES:
     dance-single:
     :
     Hard:
     16:
     0,0,0,0,0:
// measure 0
0000
0000
0000
0000
,  // measure 1
0000
0000
0000
0000
,  // measure 2
0000
0000
0000
0000
,  // measure 3
0000
0000
0000
0000
,  // measure 4
0000
0000
0000
0000
,  // measure 5
0000
0000
0000
0000
,  // measure 6
0000
0000
0000
0000
,  // measure 7
0000
0000
0000
0000
,  // measure 8
1001
0000
0000
0000
0000
0000
0001
1000
0010
0000
0000
0000
0101
0000
0000
0000
,  // measure 9
0021
0000
0000
0100
0000
0000
0031
0000
0000
0000
1001
0000
0000
0000
1000
0000
,  // measure 10
1020
0000
0000
0100
0000
0000
1030
0000
0000
0000
1001
0000
0000
0000
1000
0000
,  // measure 11
2100
0000
0000
0010
0000
0000
3001
0000
0000
0000
1001
0000
0000
0000
0001
0000
,  // measure 12
0012
0000
0000
0100
0000
0000
1003
0000
0000
0000
1001
0000
0000
0000
0001
0000
,  // measure 13
0201
0000
0000
1000
0000
0000
0310
0000
0000
0000
0110
0000
0000
0000
0100
0000
,  // measure 14
0210
0000
0000
0001
0000
0000
0310
0000
0000
0000
1001
0000
0000
0000
1000
0000
,  // measure 15
1200
0000
0000
0001
0000
0000
1300
0000
0000
0000
1001
0000
0000
0000
0001
0000
,  // measure 16
0101
1100
0101
1001
,  // measure 17
1000
1000
0100
0010
1000
0010
0001
1000
,  // measure 18
0001
0001
0010
0100
0001
0100
1000
0001
,  // measure 19
1000
1000
0100
0010
1000
0010
0001
1000
,  // measure 20
0001
0001
0100
0010
0001
0010
1000
0001
,  // measure 21
1000
1000
0010
0100
1000
0100
0001
1000
,  // measure 22
0001
0001
0100
0010
0001
0010
1000
0001
,  // measure 23
1000
1000
0010
0100
1000
0100
0001
1000
,  // measure 24
0001
0010
0100
1000
0001
1000
2100
0000
,  // measure 25
3001
0010
0001
0010
0100
0000
1000
0000
0001
0000
0010
0000
0000
0000
0000
0000
,  // measure 26
1000
0100
1000
0100
0010
0000
0001
0000
1000
0000
0100
0000
0000
0000
0000
0000
,  // measure 27
0010
0100
0010
0100
1000
0000
0001
0000
1000
0000
0010
0000
0000
0000
0000
0000
,  // measure 28
0100
0010
0100
0010
1000
0000
0001
0000
1000
0000
0000
1000
0010
0100
0010
1000
,  // measure 29
0001
0010
0100
1000
0100
1000
0001
1000
,  // measure 30
0010
0100
0010
1000
0001
1000
0001
0010
0001
0010
0100
0010
0100
1000
0100
1000
,  // measure 31
0001
0010
0100
0000
0100
1000
0010
0000
0010
0100
0001
1000
0001
0010
0100
1000
,  // measure 32
0000
0000
1100
0000
0000
1010
0000
0000
0101
0000
0000
0011
0000
0000
1100
0000
,  // measure 33
1000
0001
1000
0001
1000
0001
1000
0001
1000
0001
1000
0001
1000
0001
1000
0001
,  // measure 34
1000
0001
1000
0001
1000
0001
1000
0001
0200
0000
0000
0000
0300
0000
0000
0000
,  // measure 35
0010
1000
0010
1000
0100
0000
1000
0000
0001
0000
1000
0000
0000
0000
0000
0000
,  // measure 36
0100
0010
0100
0010
0001
0000
1000
0000
0001
0000
0000
0001
0010
0100
0010
0001
,  // measure 37
1000
0000
0000
0000
0010
0000
0000
0000
0100
0000
0000
0000
0001
0000
0001
0010
,  // measure 38
0100
0000
0000
0000
1000
0000
0000
0000
0001
0000
0000
0000
1000
0000
0000
1000
,  // measure 39
0001
0010
0100
0000
0100
1000
0010
0000
0010
1000
0001
0000
0001
0010
0001
1000
,  // measure 40
0001
0100
0001
0100
0010
0100
0010
1000
0010
1000
0001
1000
0001
0010
0001
1000
,  // measure 41
0020
0000
0000
0030
,  // measure 42
0200
0000
0000
0300
,  // measure 43
0020
0000
0230
0000
,  // measure 44
0302
0000
0000
0000
0000
0013
0100
1000
,  // measure 45
0020
0000
0000
0030
,  // measure 46
0200
0000
0000
0300
,  // measure 47
0002
0000
2003
0000
,  // measure 48
3002
0023
0230
0320
,  // measure 49
0031
0000
0000
0000
0001
0000
0000
0000
0100
0000
0100
0000
0001
1000
0001
0000
,  // measure 50
1000
0000
0100
0000
0100
0000
0000
0000
0010
0000
0010
0000
0001
1000
0100
0000
,  // measure 51
0010
0000
0000
0000
0010
0000
0000
0000
0100
0000
0100
0000
1000
0010
1000
0000
,  // measure 52
0010
0100
0010
0100
0010
0000
0100
0000
0010
1000
0010
0000
1000
0000
0100
0000
,  // measure 53
1000
0000
0000
0000
1000
0000
0000
0000
0100
0000
0100
0000
1000
0010
1000
0000
,  // measure 54
0001
0000
0001
0000
1000
0000
0000
0000
0010
0000
0100
0001
0100
0000
0001
0000
,  // measure 55
1000
0100
1000
0000
0001
0000
0100
0001
0100
0000
0001
0000
0010
0000
0100
0000
,  // measure 56
1000
0100
1000
0000
0001
0100
0001
0000
1000
0010
1000
0000
0001
0010
0001
0000
,  // measure 57
1000
0000
0000
0000
1000
0000
0000
0000
1000
0001
0000
0000
1001
0000
0000
0000
,  // measure 58
0001
0000
0000
0000
0001
0000
0000
0000
0001
1000
0000
0000
1001
0000
0000
0000
,  // measure 59
1000
0000
0000
0000
1000
0000
0000
0000
1000
0001
0000
0000
1001
0000
0000
0000
,  // measure 60
0001
0000
0000
0000
0001
0000
0000
0000
0001
1000
0000
0000
1001
0000
0000
0000
,  // measure 61
2100
0000
0000
0000
3000
0001
0010
0100
,  // measure 62
0010
0100
1000
0100
1000
0001
0010
0100
,  // measure 63
1100
0000
0000
0011
0000
0000
0101
0000
,  // measure 64
1020
0000
0000
0000
0030
0100
0001
1000
,  // measure 65
1200
0000
0000
0000
0000
0310
0001
0100
,  // measure 66
0001
1000
0100
0010
0100
1000
0001
1000
,  // measure 67
0002
0100
1003
2000
0100
3001
2000
0000
,  // measure 68
3001
0000
0000
0001
1000
0000
0000
0000
1000
0000
0000
1000
0001
0000
0010
0000
,  // measure 69
0200
0000
0000
0000
0000
0310
0100
0100
,  // measure 70
0010
0100
1000
0010
0100
0010
1000
0001
,  // measure 71
0021
0000
0001
0000
0031
0000
1200
0000
1000
0000
1300
0000
1010
0000
0010
1000
,  // measure 72
0010
0000
0110
0000
0000
0000
0100
0000
0001
1000
0001
1000
0001
0000
0010
0000
,  // measure 73
0021
0000
0000
0000
0000
0130
1000
0010
,  // measure 74
1000
0001
0010
0100
0010
0001
1000
0001
,  // measure 75
2000
0010
3001
0002
0010
1003
0002
0000
,  // measure 76
1003
0000
0000
0001
1000
0000
0000
0000
1000
0000
0000
1000
0001
0000
1000
0000
,  // measure 77
0200
0000
0000
0000
0000
0310
0100
0100
,  // measure 78
0010
0001
0010
0100
1000
0010
0100
0010
,  // measure 79
2000
0000
0010
0000
3001
0000
0002
0000
0010
0000
1003
0000
0001
0100
0001
0100
,  // measure 80
0020
0000
0030
0000
,  // measure 81
1000
0001
0010
0001
0010
0000
0001
0000
1000
0000
0010
0000
0000
0000
0000
0000
,  // measure 82
1000
0100
0010
0100
0010
0000
0001
0000
1000
0000
0100
0000
0000
0000
0000
0000
,  // measure 83
0010
0100
0010
0100
1000
0000
0010
0000
0100
0000
0010
0000
0000
0000
0000
0000
,  // measure 84
0100
0001
0100
0001
0010
0000
0100
0000
0010
0000
0000
0100
0010
0001
0010
0001
,  // measure 85
1000
0000
1010
0000
1000
0010
1000
0100
1000
0100
1000
0100
1000
0000
0001
0000
,  // measure 86
1001
0000
0101
0000
0001
0100
0001
0010
0001
0010
0001
0010
0001
0000
1000
0000
,  // measure 87
1001
0000
0011
0000
0010
0100
1000
0010
0100
0000
0101
0000
0100
0001
0010
0100
,  // measure 88
1000
0010
1000
0100
0010
0100
0010
0001
0010
0000
0001
0000
0100
0000
0101
0000
;
