#TITLE:Fly you to the star;
#SUBTITLE:;
#ARTIST:Another Infinity Feat. Mayumi Morinaga;
#TITLETRANSLIT:;
#SUBTITLETRANSLIT:;
#ARTISTTRANSLIT:;
#GENRE:;
#CREDIT:Pandemonium X;
#MUSIC:Fly you to the star.ogg;
#BANNER:Fly you to the star.png;
#BACKGROUND:Fly you to the star-bg.png;
#CDTITLE:;
#SAMPLESTART:55.494;
#SAMPLELENGTH:15.356;
#SELECTABLE:YES;
#OFFSET:0.636;
#BPMS:0.000=140.990;
#STOPS:;
#BGCHANGES:;
#FGCHANGES:;

//--------------- dance-single - Pandemonium X ----------------
#NOTES:
     dance-single:
     Pandemonium X:
     Beginner:
     4:
     0,0,0,0,0:
0000
0000
0000
0000
,
0000
0000
0000
0000
,
0000
0000
0000
0000
,
0000
0000
0000
0000
,
0000
0000
0000
0000
,
0001
0000
0000
0000
,
1000
0000
0000
0000
,
0001
0000
0000
0000
,
1000
0000
0010
0010
,
0020
0000
0000
0000
,
0000
0000
0000
0030
,
0100
0000
0010
0000
,
1000
0001
1000
0000
,
0001
0000
1000
0000
,
0100
0010
0100
0000
,
0010
0000
0001
0000
,
1000
0001
1000
0000
,
0010
0000
0010
0000
,
0010
0010
0010
0000
,
0100
0000
0100
0000
,
0100
0100
0100
0000
,
0001
0000
0001
0000
,
0001
0001
0001
0000
,
1000
0000
1000
0000
,
1000
1000
1000
0000
,
0001
0000
1000
0000
,
0010
0000
1000
0000
,
0100
0000
0010
0000
,
0001
0001
0001
0000
,
0010
0000
0001
0000
,
1000
0000
0010
0000
,
0100
0000
0010
0000
,
1001
0000
0000
0000
,
1000
0000
0001
0000
,
0200
0300
0010
0000
,
1000
0000
0100
0000
,
2000
3000
0001
1000
,
0001
0000
0010
0000
,
0002
0003
0100
0000
,
0001
0000
1000
0000
,
0200
0300
0010
0010
,
0001
0001
0001
0000
,
1000
0000
0000
0000
,
0010
0010
0010
0000
,
0100
0000
0000
0000
,
0001
0001
0001
0000
,
0010
0000
0000
0000
,
0100
0000
1000
0000
,
0001
0000
1000
0001
,
0200
0000
0000
0000
,
0000
0000
0000
0300
,
0010
0000
1000
0000
,
0001
1000
0001
0000
,
0010
0000
0100
0000
,
1000
0001
1000
0000
,
0001
0000
0010
0000
,
0100
0010
0100
0000
,
1000
0000
0001
0000
,
1000
0000
0001
1000
,
0010
0010
0010
0000
,
0100
0100
0100
0000
,
0001
0001
0001
0000
,
1000
1000
1000
0000
,
0001
0001
0001
0000
,
1000
1000
1000
0000
,
0010
0010
0010
0000
,
0100
0000
0110
1001
,
0110
0000
0000
0000
;

//--------------- dance-single - Pandemonium X ----------------
#NOTES:
     dance-single:
     Pandemonium X:
     Easy:
     7:
     0,0,0,0,0:
0000
0000
0000
0000
,
0000
0000
0000
0000
,
0000
0000
0000
0000
,
0000
0000
0000
0000
,
0000
0000
0000
0000
,
0001
0000
0000
1000
0000
0000
0001
0000
,
1000
0000
0000
0001
0000
0000
1000
0000
,
0001
0000
0000
1000
0000
0000
0001
0000
,
0100
0100
0110
1001
,
0220
0000
0000
0000
,
0000
0000
0000
0330
,
0001
1000
0100
0000
,
1000
0000
0100
0000
0010
0001
0200
0000
,
0310
1000
0001
0000
,
0010
0001
0100
0000
,
0010
1000
0001
0010
,
0001
0010
0100
0000
,
1000
0100
1000
0000
,
0001
0100
0001
0000
,
0010
0001
0010
0000
,
0100
0010
0002
0003
,
1000
0010
1000
0000
,
0001
0100
0001
0000
,
1000
0100
1000
0000
,
0010
0100
0002
0003
,
1001
1100
1010
0000
,
0001
1000
0010
0100
,
0101
0011
1001
0000
,
1000
0001
1001
0000
,
0101
0011
0110
0000
,
0010
0001
0100
0010
,
1010
0110
1010
0110
,
1001
0000
0001
1000
,
0001
0100
0001
0010
,
0100
1000
0100
1000
,
0010
0100
0001
1000
,
0100
1000
0001
0010
,
0100
1000
0100
1000
,
0010
0100
0001
0010
,
0100
0010
0001
1000
,
0001
0100
0110
1001
,
0201
0001
0002
0303
,
1000
0000
0001
0000
,
1020
1000
2000
3030
,
0110
1001
0110
0000
,
1002
1000
1003
0000
,
0001
0000
1000
0000
,
0021
0031
1200
1300
,
1001
0000
0101
1010
,
1000
0100
0010
0002
,
2000
0000
0000
3003
,
0001
0100
0010
1000
,
0100
0010
0100
1000
,
0001
0100
0001
0010
,
0100
0010
0001
1000
,
0001
1000
0010
1000
,
0100
0010
0100
1000
,
0001
0100
0010
1000
,
0001
1000
1001
0110
,
1001
0001
0100
0010
,
1000
1100
0100
0010
,
0001
0100
0001
1001
,
0001
0020
0130
0010
,
0001
0010
0100
1000
,
1100
1010
0010
0100
,
0001
1000
1001
0011
,
1001
0000
0000
0000
0001
0100
0010
1000
,
0001
0000
0000
0000
;

//--------------- dance-single - Pandemonium X ----------------
#NOTES:
     dance-single:
     Pandemonium X:
     Medium:
     11:
     0,0,0,0,0:
0000
0000
0000
0000
,
0000
0000
0000
0000
,
0000
0000
0000
0000
,
0000
0000
0000
0000
,
0000
0000
0000
0000
,
0001
0000
1000
0100
0000
1000
0010
0000
,
1000
0000
0001
0010
0000
0001
0100
0000
,
0010
0000
0100
0001
0000
0100
0010
0000
,
1001
0000
1001
0000
0001
0100
0010
1000
,
0002
0000
0010
0000
1003
0000
0000
0001
,
0010
0100
0010
0100
1000
0000
0000
0000
,
2000
0000
0001
0000
3100
0000
0000
0010
,
0001
0010
0100
1000
0002
2003
3002
0000
,
0203
0000
0010
0000
0301
0000
0000
1000
,
0100
1000
0001
0100
0001
0010
0100
0000
,
0021
0130
2100
3001
,
0001
0000
0100
0000
0001
0000
1000
0000
0100
0000
0000
0100
0010
0000
0001
0000
,
1001
0000
0011
0000
0101
0000
0000
0001
,
0010
0100
0010
0001
2000
0000
3000
0000
,
0101
0000
1100
0000
1001
0000
0000
0001
,
0010
0001
1000
0010
0200
0302
0020
0033
,
1100
0000
1010
0000
1001
0000
0000
1000
,
0001
0010
0001
1000
0200
0000
0300
0010
,
0110
0000
1100
0000
1001
0000
0000
1000
,
0001
0100
1000
0002
0200
0000
0303
0000
,
1010
0000
1100
0000
1001
0000
0000
0001
,
0100
0000
0000
0100
0000
0000
0100
0000
0010
0000
0100
0000
0001
0000
1000
0000
,
1001
0000
1100
0000
0110
0000
0000
0100
,
1000
0000
0000
0001
0000
0000
0100
0000
1001
0000
0000
0000
0000
0000
0000
0000
,
0011
0000
0101
0000
1010
0000
0000
0001
,
0100
0000
0000
0100
0000
0000
0100
0000
0010
0000
1000
0000
0001
0000
0010
0000
,
0200
1300
0002
0103
,
1001
0000
0000
0001
0100
1000
0100
0001
,
1000
0100
0010
0001
0010
0100
0000
0021
,
0000
0000
0030
0000
0001
0010
0001
0100
,
0010
1000
0001
0010
0001
1000
0000
1200
,
0000
0000
0300
0000
0010
0100
1000
0001
,
0100
0001
1000
0100
1000
0001
1000
1020
,
0000
0000
0030
0000
0100
0001
0010
0001
,
1000
0100
0010
0100
1000
0001
0000
0201
,
0000
0000
0300
0000
0010
0100
0001
1000
,
1100
0000
1010
0000
1001
0000
0000
0001
,
1000
0000
0000
1000
0000
0000
1000
0000
0001
0000
0010
0000
0100
0000
1000
0000
,
1100
0000
0011
0000
0101
0000
0000
0001
,
0100
0000
0000
0100
0000
0000
0001
0000
0101
0000
0000
0000
0000
0000
0000
0000
,
0011
0000
0110
0000
0011
0000
0000
0010
,
0001
0000
0000
0001
0000
0000
0001
0000
0010
0000
0100
0000
1000
0000
0001
0000
,
0101
1010
1001
1100
,
1001
0000
0000
0001
0100
0010
1000
0001
,
1000
0100
1000
0100
0010
0002
0000
2000
,
0000
0000
0000
3003
,
0001
0100
0001
0010
0100
1000
0000
1200
,
0000
0000
0300
0000
1000
0010
1000
0001
,
0010
0001
1000
0001
0100
0010
0000
0210
,
0000
0000
0300
0000
0001
0010
0100
1000
,
0001
1000
0010
1000
0100
0010
0100
2100
,
0000
0000
3000
0000
0100
1000
0010
0100
,
0001
0010
0100
0010
0001
0100
0000
0120
,
0000
0030
1001
0110
,
1001
0001
0100
0001
0010
0001
0100
0010
,
1000
0010
0100
0001
0010
0100
1000
0100
,
0010
0001
0010
0001
0100
0001
1000
0010
,
1000
0001
0010
0100
0010
0001
0100
0010
,
1000
0100
0010
0100
1000
0001
0100
0001
,
0010
0100
1000
0100
0010
0100
1000
0010
,
0100
0001
0010
0100
0010
0001
0100
0010
,
1000
0001
1000
0000
0001
0100
1000
0010
,
0002
0003
0000
0000
;

//--------------- dance-single - Pandemonium X ----------------
#NOTES:
     dance-single:
     Pandemonium X:
     Hard:
     13:
     0,0,0,0,0:
0000
0000
0000
0000
,
0000
0000
0000
0000
,
0000
0000
0000
0000
,
0000
0000
0000
0000
,
0000
0000
0000
0000
,
0001
0000
0001
0100
0000
0100
0010
0000
,
1001
0000
1000
0100
0000
0100
0010
0000
,
1001
0000
0001
1000
0000
1000
0001
0000
,
2001
0000
0001
0000
3001
0010
0100
1000
,
1100
0000
1010
0000
1001
0000
0000
0001
,
0100
0000
1000
0000
0100
0000
0010
0000
2000
3000
2000
3000
2000
3000
0000
0000
,
0101
0000
0011
0000
1001
0000
0000
1000
,
0100
0000
0002
0003
0002
0003
0002
0003
0100
0000
0010
0001
0200
0000
0300
0000
,
1010
0000
1001
0000
1100
0000
0000
1000
,
0001
0000
1000
0000
0020
0030
0020
0030
0020
0030
0100
0000
1001
0000
0000
0000
,
1010
0000
0000
0000
0110
0000
0000
0000
0101
0000
0000
0000
1001
0000
0002
0003
,
0002
0003
0002
0003
0100
0000
0010
0000
1000
0000
0000
1000
0010
0000
1000
0000
,
1100
1010
0102
0013
,
0100
0000
0010
0000
0001
0000
1000
0000
0002
0003
0002
0003
0002
0003
0000
0000
,
0101
0000
1100
0000
1001
0000
0001
1000
,
0100
0000
0020
0030
0020
0030
0020
0030
0100
0000
1000
0001
0200
0000
0000
0000
,
0310
0000
1010
0000
0201
0000
0310
0100
,
0001
0000
0010
0000
0200
0300
0200
0300
0200
0300
0010
0000
0001
0000
0000
0000
,
0011
0000
0000
0000
1010
0000
0000
0000
1002
0000
0000
0000
0000
0000
2003
3000
,
2000
3000
2000
3000
2000
3000
0100
0000
0020
0000
0000
0000
0031
0000
0000
0000
,
1001
0000
0000
1000
0100
0000
0000
0100
0010
0000
0000
0010
0001
0000
0100
0000
,
0010
0000
0000
0100
0010
0000
0000
0010
1000
0000
0000
1000
0001
0000
1000
0000
,
1001
0000
0000
0001
0010
0000
0000
0010
0100
0000
0000
0100
1000
0000
0001
0000
,
0100
0000
0001
0010
0000
0010
0100
0000
2000
0000
0000
0000
3001
0000
0000
0000
,
1001
0000
0000
0001
0010
0000
0000
0010
0100
0000
0000
0100
1000
0000
0001
0000
,
1000
0000
0000
0001
0100
0000
0000
0100
0010
0000
1000
0000
0001
0000
0010
0000
,
0011
1001
0101
1010
,
1001
0000
0000
0001
0100
1000
0100
0001
,
0010
1000
0010
0001
0100
0001
0000
2020
,
0000
0000
0000
0000
3030
0000
0000
0000
2000
3000
2000
3000
2000
3000
0100
0000
,
0010
0100
1000
0001
0100
0001
0000
0022
,
0003
0000
0002
0003
0002
0003
0032
0000
1003
0000
0100
1000
0020
0000
0000
0000
,
0130
1000
0100
0010
1000
0001
0010
0220
,
0000
0000
0030
0000
0320
0030
0020
0030
0020
0030
0100
0000
1000
0000
0001
0000
,
1000
0000
0010
0000
0001
0000
0010
0000
0100
0000
0001
0000
0000
0000
2002
0003
,
0002
0003
0002
0003
3002
0000
0103
0000
0001
0000
0010
0000
0100
0000
1000
0000
,
1200
0000
0010
0000
2000
0000
3300
0100
,
1000
0000
0100
1000
0000
1000
0001
0000
0010
0000
0100
0000
1000
0000
0010
0000
,
1020
0000
0100
0000
2000
0000
3030
0010
,
1000
0000
0001
0100
0000
0100
0010
0000
2000
0000
0000
0000
3000
0000
0000
0000
,
0021
0000
0100
0000
0002
0000
0033
0010
,
0001
0000
0010
0001
0000
0001
0100
0000
0010
0000
1000
0000
0001
0000
1000
0000
,
2100
3010
0102
0013
,
1001
0000
0000
0001
1000
0100
0001
0100
,
0010
0100
1000
0001
1000
0020
0000
1030
,
0001
0010
0001
0000
1000
0010
1000
0000
0001
0100
0001
0100
0010
1000
0010
1000
,
0100
0010
0100
1000
0010
0100
0001
1000
,
0001
0000
2000
3000
2000
3000
2000
3000
0100
0000
1000
0000
0010
0000
0100
0000
,
0001
0000
0010
0000
0100
0000
0010
0000
0001
0000
0100
0000
0020
0030
0020
0030
,
0020
0030
0100
0001
0020
0000
0000
0000
0130
0000
0010
0000
0001
0000
1000
0000
,
0010
0000
0100
0000
0001
0000
0010
0000
0001
0000
1000
0000
0100
0000
0020
0030
,
0020
0030
0020
0030
0020
0030
0100
0000
1000
0000
0001
0000
0100
0000
0001
0000
,
1000
0000
0100
0000
1000
0000
0001
0000
0200
0300
0200
0300
0200
0300
0200
0300
,
0200
0300
0000
0000
1001
0000
0000
0000
1000
0000
0100
0000
0010
0000
0001
0000
,
1000
0010
0100
0001
0010
0100
1000
0001
,
0100
0000
0002
0003
0002
0003
0002
0003
0010
0000
0001
0000
0100
0000
0010
0000
,
1000
0000
0100
0000
0010
0000
0100
0000
0010
0000
0001
0000
0200
0300
0200
0300
,
0200
0300
0010
0100
0002
0000
0000
0000
0013
0000
0100
0000
1000
0000
0001
0000
,
1000
0000
0100
0000
0010
0000
0100
0000
0010
0000
0001
0000
0010
0000
0200
0300
,
0200
0300
0200
0300
0200
0300
1000
0000
0100
0000
1000
0000
0010
0000
1000
0000
,
0001
0000
0010
0000
0100
0000
1000
0000
0002
0003
0002
0003
0002
0003
0002
0003
,
0002
0003
1000
0000
1001
0000
0000
0000
1020
0000
0130
0000
0102
0000
0013
0000
,
2200
3300
0000
0000
;

//--------------- dance-double - Pandemonium X ----------------
#NOTES:
     dance-double:
     Pandemonium X:
     Easy:
     5:
     0,0,0,0,0:
00000000
00000000
00000000
00000000
,
00000000
00000000
00000000
00000000
,
00000000
00000000
00000000
00000000
,
00000000
00000000
00000000
00000000
,
00000000
00000000
00000000
00000000
,
00000000
00000000
00000000
00000000
,
00000000
00000000
00000000
00000000
,
00000000
00000000
00000000
00000000
,
00000000
00000000
00001000
00010000
,
00022000
00000000
00000000
00000000
,
00000000
00000000
00000000
00000000
,
00000000
00000000
00000000
00033000
,
00000000
00000000
00000000
00000000
,
00001000
01000000
00001000
00000000
,
01000000
00100000
01000000
00000000
,
00010000
00100000
00010000
10000000
,
01000000
00100000
00010000
00000000
,
00100000
00001000
00010000
00000000
,
00000100
00001000
00000010
00000000
,
00000100
00000001
00001000
00000000
,
00000100
00010000
00002000
00003000
,
00010000
00001000
01000000
00000000
,
00010000
10000000
01000000
00000000
,
00100000
01000000
10000000
00000000
,
01000000
00100000
00010000
00000000
,
00100000
00001000
00010000
00000000
,
00000100
00001000
00000010
00000100
,
00000001
00001000
00000100
00000000
,
00010000
00001000
00011000
00000000
,
00001000
00010000
00000100
00000000
,
00001000
00000010
00010000
00001000
,
01000000
01000000
00010000
00010000
,
10010000
00000000
10000000
01000000
,
00100000
01000000
10000000
00010000
,
02000000
03000000
00100000
01000000
,
00001000
00010000
00000100
00001000
,
00000020
00000030
00000200
00000301
,
00000010
00000001
00000100
00000001
,
00002000
00003000
00000100
00010000
,
00001000
01000000
00001000
00010000
,
00000100
00000000
00010000
00001000
,
00022000
00000000
00000000
00033000
,
00010000
00000000
00001000
00000000
,
00100000
00000000
00001000
00000000
,
00010000
00001000
00011000
00000000
,
00010000
00000000
00000100
00000000
,
00010000
00000000
00000100
00000000
,
00001000
00000000
00010000
00000000
,
00011000
00000000
00001000
01000000
,
00100000
10000000
01000000
00100000
,
00020000
00000000
00000000
00000000
,
00130000
00001000
00010000
00000100
,
00002000
00003000
00000010
00000100
,
00000001
00000010
00000100
00001000
,
00000200
00000300
00001000
00000100
,
00010000
00001000
01000000
00010000
,
00200000
00300000
01000000
10000000
,
00010000
01000000
00010000
00100000
,
00002000
00003000
00010000
00001000
,
00021000
00001000
00001000
00001000
,
00031000
00000000
00100000
00010000
,
02010000
00010000
00010000
00010000
,
03010000
00000000
00010000
10000000
,
12000000
10000000
10000000
10000000
,
13000000
00000000
01000000
00100000
,
00210000
00010000
00010000
00010000
,
00310000
00000000
00100000
00001000
,
00011000
00000000
00000000
00000000
;

//--------------- dance-double - Pandemonium X ----------------
#NOTES:
     dance-double:
     Pandemonium X:
     Medium:
     9:
     0,0,0,0,0:
00000000
00000000
00000000
00000000
,
00000000
00000000
00000000
00000000
,
00000000
00000000
00000000
00000000
,
00000000
00000000
00000000
00000000
,
00000000
00000000
00000000
00000000
,
00010000
00000000
00001000
00010000
00000000
00010000
00001000
00000000
,
00011000
00000000
00001000
00010000
00000000
00010000
00001000
00000000
,
00011000
00000000
00010000
00001000
00000000
00001000
00010000
00000000
,
00000100
00000000
00000100
00000000
00000100
00001000
00000100
00010000
,
00002000
00000000
00000000
00000000
,
00000000
00000000
00000000
00003000
,
00010000
00000000
00000100
00000000
00001000
00000000
00000000
00000010
,
00000001
00000010
00000100
00000001
00001000
00000000
00000000
00000000
,
00000010
00000000
00001000
00000000
00000010
00000000
00000000
00000100
,
00001000
00010000
00001000
00010000
00000100
00000000
00000000
00000000
,
00010000
00000000
00001000
00000000
01000000
00000000
00100000
00010000
,
00100000
10000000
01000000
00100000
00010000
00000000
00000000
00000000
,
10000000
00100000
02000000
03010000
,
00100000
00010000
00100000
00001000
00020000
00000000
00030000
00000000
,
00000100
00001000
00000020
00000130
,
00001000
00000100
00000001
00001000
00000100
00000010
00000002
00000000
,
00000013
00000001
00002000
00003001
,
00000010
00000100
00001000
00000100
00020000
00000000
00031000
00000000
,
00010000
00001000
02000000
03000000
,
00100000
10000000
00100000
10000000
02000000
00000000
03000000
00000000
,
00110000
01010000
10010000
00000000
,
00010000
00100000
00001000
00010000
,
00010100
00001100
00001010
00000000
,
00000010
00000000
00000000
00000010
00000000
00000000
00000100
00000000
00000002
00000000
00000000
00000000
00000003
00000000
00000000
00000000
,
00001001
00000011
00001100
00000000
,
00000100
00010000
00001000
01000000
,
01010000
00110000
10010000
11000000
,
10010000
00000000
00000000
00000000
10000000
01000000
00100000
00010000
,
01000000
00000000
00010000
00000000
01000000
00001000
00000000
00020000
,
00000000
00030000
00000100
00001000
,
00000010
00000000
00000100
00000000
00000001
00001000
00000000
00000020
,
00000000
00000030
00000100
00000001
,
00001000
00000000
00000100
00000000
00010000
00000000
00001000
00020000
,
00000000
00030000
00001000
00100000
,
00010000
10000000
01000000
00100000
,
02000000
03000000
11000000
00110000
,
20010000
00100000
00020000
30030000
,
00010000
01000000
00010000
00100000
,
00201000
00010000
00002000
00303000
,
00010000
00000000
00000000
00001000
00000000
00000000
00010000
00000000
00000100
00000000
00000000
00000000
00000000
00000000
00000000
00000000
,
00001020
00000100
00002000
00003030
,
00000001
00000000
00000000
00000001
00000000
00000000
00000001
00000000
00000100
00000000
00000000
00000000
00000010
00000000
00000000
00000000
,
00001200
00010300
00012000
01003000
,
10010000
00000000
11000000
00110000
,
10000000
00010000
00100000
00001000
,
00010000
00001000
00010000
00001000
00010000
00001000
00010000
00001000
,
00010000
00000000
00000100
00000000
00001000
00000010
00000000
00000200
,
00000000
00000300
00000010
00001000
,
00000001
00000000
00000010
00000000
00000001
00001000
00000000
00000200
,
00000000
00000300
00010000
00001000
,
01000000
00000000
00010000
00000000
00100000
00000000
00001000
00020000
,
00000000
00030000
00000100
00001000
,
00000010
00000000
00000100
00000000
00000001
00001000
00000000
00000020
,
00000000
00000030
00000110
00001001
,
00001001
00000001
00000100
00000010
00001000
00000100
00000000
00020000
,
00000000
00030000
00001000
01000000
,
00100000
10000000
00010000
00100000
01000000
10000000
00000000
00020000
,
00000000
00030000
10000000
11000000
,
01000000
00100000
00010000
00100000
00001000
00010000
00000100
00002000
,
00000000
00000000
00003000
00000000
00000010
00000100
00000010
00000000
,
00000100
00000001
00000010
00000100
00001000
00000100
00000000
00020000
,
00000000
00030000
00001010
00110000
,
00011000
00000000
00000000
00000000
;

//--------------- dance-double - Pandemonium X ----------------
#NOTES:
     dance-double:
     Pandemonium X:
     Hard:
     11:
     0,0,0,0,0:
00000000
00000000
00000000
00000000
,
00000000
00000000
00000000
00000000
,
00000000
00000000
00000000
00000000
,
00000000
00000000
00000000
00000000
,
00000000
00000000
00000000
00000000
,
00010000
00000000
00001000
00010000
00000000
00001000
00010000
00000000
,
00011000
00000000
00010000
00001000
00000000
00010000
00001000
00000000
,
00011000
00000000
00001000
00010000
00000000
00001000
00010000
00000000
,
00010100
00000000
01010000
00000000
00010000
01000000
00001000
00010000
,
00000200
00001000
00010000
00000000
,
00010000
00001000
00010300
00000000
,
00001000
00000000
01000000
00000000
01010000
00000000
00000000
00010000
,
01000000
00100000
10000000
01000000
00100000
00000000
00000000
00000000
,
01000000
00000000
00100000
00000000
00010000
00000000
00000000
00100000
,
00010000
00001000
00000100
00000010
00000001
00000000
00000000
00000000
,
00000100
00001000
00000100
00000010
,
00000010
00000100
00001000
00010000
00001000
00000000
00000000
00000000
,
00010000
00000100
00002000
00003010
,
00000100
00001000
00000100
00000001
00002000
00000000
00003100
00000000
,
00001100
00000000
01010000
00000000
00011000
00000000
00001000
01000000
,
00010000
00100000
10000000
00100000
00010000
01000000
00200000
00000000
,
01300000
10000000
02000000
03010000
,
00100000
00010000
10000000
01000000
00200000
00000000
01300000
00000000
,
21000000
30100000
01020000
00130000
,
00100000
00001000
00010000
00000010
00000100
00000000
00000000
00000000
,
00001000
00000100
00000002
00001003
,
00000100
00000000
00010000
00000000
00100000
00001000
00010000
00000100
,
00001000
00000010
00000001
00000010
,
00001000
00000000
00000000
00000100
00000000
00000000
00010000
00000000
00011000
00000000
00000000
00000000
00000000
00000000
00000000
00000000
,
00001000
01000000
10000000
01000000
,
00010000
00000000
00100000
00000000
10000000
00100000
00010000
01000000
,
01001000
00011000
00001100
00001010
,
00000101
00000000
00000000
00000100
00001000
00010000
00100000
01000000
,
00010000
00100000
10000000
00100000
00001000
00010000
00000000
00022000
,
00000000
00000000
00033000
00000000
00010000
00000100
00001000
00000010
,
00000100
00001000
00010000
00001000
01000000
00100000
00000000
20020000
,
00000000
00000000
30030000
00000000
10000000
01000000
00010000
01000000
,
10000000
01000000
00100000
00001000
00010000
00000010
00010000
00022000
,
00000000
00000000
00033000
00000000
00010000
00000100
00001000
00000100
,
00010000
00000100
00001000
00000100
00000010
00000001
00000000
00002200
,
00000000
00000000
00003300
00000000
00000100
00010000
00001000
00100000
,
00201000
00010000
00002000
00303000
,
00100000
00001000
00010000
00000100
,
00001200
00010000
00002000
00003300
,
00001000
00000000
00000000
00000100
00000000
00000000
00010000
00000000
00011000
00000000
00000000
00000000
00000000
00000000
00000000
00000000
,
02001000
00100000
00002000
03003000
,
01000000
00000000
00000000
00010000
00000000
00000000
00100000
00000000
10000000
00000000
00100000
00000000
00010000
00000000
00100000
00000000
,
00201000
00310000
00021000
00030100
,
00011000
00000000
00000000
00010000
00001000
00000010
00000001
00001000
,
00000010
00000001
00000010
00000100
00001000
00000100
00000000
00020200
,
00000000
00000000
00000000
00030300
,
00000100
00010000
00001000
01000000
00010000
00100000
00000000
22000000
,
00000000
00000000
33000000
00000000
01000000
00010000
01000000
00100000
,
00010000
01000000
00001000
00010000
00000100
00001000
00000000
00002020
,
00000000
00000000
00003030
00000000
00000010
00000001
00000010
00000100
,
00000001
00000010
00001000
00000010
00000100
00001000
00000100
00020200
,
00000000
00000000
00030300
00000000
00000100
00010000
00001000
01000000
,
00001000
00010000
00000100
00001000
00000010
00000100
00000000
00002002
,
00000000
00003003
00000101
00001100
,
00000100
00001000
00000100
00010000
00001000
01000000
00001000
00010000
,
00000100
00001000
00001000
00001000
00000010
00000001
00000010
00000100
,
00000001
00000010
00000100
00001000
00000100
00010000
00001000
00001000
,
00001000
00010000
00000200
00000000
00010300
00000000
00011000
00000000
,
00001000
01000000
00010000
00100000
01000000
10000000
01000000
00100000
,
00100000
00100000
00100000
00010000
01000000
00010000
10000000
00010000
,
00100000
00001000
00010000
00000100
00001000
00001000
00001000
00001000
,
00000010
00000000
00000100
00000000
00000100
00001000
00010000
00100000
,
01100000
00000000
00000000
00000000
;
