#TITLE:Fire Beat;
#SUBTITLE:;
#ARTIST:kors k;
#TITLETRANSLIT:;
#SUBTITLETRANSLIT:;
#ARTISTTRANSLIT:;
#GENRE:;
#CREDIT:;
#MUSIC:Fire Beat.ogg;
#BANNER:;
#BACKGROUND:Fire Beat-bg.png;
#CDTITLE:;
#SAMPLESTART:18.589;
#SAMPLELENGTH:16.083;
#SELECTABLE:YES;
#OFFSET:0.519;
#BPMS:0.000=157.000000
,164.000=300.000000
;
#STOPS:;
#BGCHANGES:;
#FGCHANGES:;

//--------------- dance-single - Pandemonium X ----------------
#NOTES:
     dance-single:
     Pandemonium X:
     Beginner:
     5:
     0,0,0,0,0:
0000
0000
0000
0000
,
0000
0000
0000
0000
,
0000
0000
0000
0000
,
0000
0000
0000
0000
,
0000
0000
0000
0000
,
0001
0000
0001
0000
,
0001
0000
0000
0000
,
1000
0000
1000
0000
,
1000
0000
0000
0000
,
0010
0000
0010
0000
,
0010
0000
0000
0000
,
0100
0000
0100
0000
,
0100
0000
0001
1000
,
1001
0000
0001
0000
,
1000
0000
0001
0000
,
0100
0000
0001
0000
,
0010
0010
0010
0000
,
0100
0000
1000
0000
,
0001
0000
1000
0000
,
0110
0000
0000
0000
,
1001
0000
0000
1000
,
0001
0000
0010
0000
,
0001
0000
1000
0000
,
0100
0000
0010
0000
,
0100
0100
0100
0000
,
0010
0000
0001
0000
,
1000
0000
0010
0000
,
0110
0000
0000
0000
,
1001
0000
0000
0000
,
0001
0000
1000
0000
,
0100
0000
0000
0000
,
1000
0000
0001
0000
,
0100
0000
0000
0000
,
0001
0000
1000
0000
,
0010
0000
0000
0000
,
1000
0000
0001
0000
,
0100
0000
0010
0000
,
1001
0000
0000
0000
,
1001
0000
0000
0000
,
1001
0000
1001
0000
,
1001
0000
0000
0000
,
0001
0000
0000
0000
,
1000
0000
0000
0000
,
0010
0000
0000
0000
,
0100
0000
0000
0000
,
0010
0000
0000
0000
,
1000
0000
0000
0000
,
0100
0000
0000
0000
,
0010
0000
0001
0000
,
0100
0000
0000
0000
,
0010
0000
0000
0000
,
0100
0000
0000
0000
,
0001
0000
0000
0000
,
1000
0000
0000
0000
,
0001
0000
0000
0000
,
0010
0000
0000
0200
,
0000
0000
0000
0300
,
1000
0000
0000
0000
,
0001
0000
0000
0000
,
0100
0000
0000
0000
,
0010
0000
0100
0000
,
0010
0000
0000
0000
,
1000
0000
0000
0000
,
1001
0000
0001
0000
,
0010
0000
0100
0000
,
1000
0000
0000
0000
,
0100
0000
0000
0000
,
1000
0000
0000
0000
,
0010
0000
0000
0000
,
0100
0000
0000
0000
,
0001
0000
0000
0000
,
1000
0000
0000
0000
,
0001
0000
1000
0000
,
0110
0000
0001
0000
,
0001
0000
1000
0000
,
1000
0000
0000
0000
,
0001
0000
0000
0000
,
0100
0000
0010
0000
,
0010
0000
0100
0000
,
0100
0000
0000
0000
,
0010
0000
0000
0000
,
0110
0000
0000
0000
,
0100
0000
0000
0000
,
0010
0000
0010
0000
,
0010
0000
0000
0000
,
1000
0000
0000
0000
,
0001
0000
0000
0000
,
0010
0000
0000
0000
,
0100
0000
0100
0000
,
1001
0000
0000
0000
,
0001
0000
0000
0000
,
1000
0000
0001
0000
,
0100
0000
0010
0000
,
1000
0000
0000
0000
,
0001
0000
0000
0000
,
0010
0000
0001
0000
,
1000
0000
0100
0000
,
0010
0000
0000
0000
,
0100
0000
0000
0000
,
0010
0000
0001
0000
,
0100
0000
0010
0000
,
1000
0000
0000
0000
,
0001
0000
0000
0000
,
0101
0000
0000
0000
,
1100
0000
0000
0000
,
1001
0000
0000
0000
;

//--------------- dance-single - Pandemonium X ----------------
#NOTES:
     dance-single:
     Pandemonium X:
     Easy:
     8:
     0,0,0,0,0:
0000
0000
0000
0000
,
0000
0000
0000
0000
,
0000
0000
0000
0000
,
0000
0000
0000
0000
,
0000
0000
0000
0000
,
1001
0002
0103
0002
,
1003
0100
0010
0001
,
1001
2000
3010
2000
,
3001
0010
0100
1000
,
0101
0002
1003
0002
,
0013
0100
0010
0001
,
1000
0001
0100
0010
,
2000
0000
0001
3001
,
1100
0000
1000
0010
,
1000
0001
1000
0001
,
0010
0100
0010
0001
,
1000
0001
0100
0001
,
0011
0000
0010
0100
,
0010
0001
1000
0001
,
0200
0000
0000
0310
0000
0000
0000
0000
,
0020
0000
0000
0130
0000
0000
0010
0000
,
1001
0000
1000
1000
,
0010
0100
0001
0010
,
0010
0001
1000
0100
,
0010
0001
1000
0010
,
1001
0000
1000
0010
,
1000
0100
0010
0001
,
2000
0000
0000
3001
0000
0000
0000
0000
,
0200
0000
0000
0310
0000
0000
0000
0000
,
1000
0200
0310
0200
,
1300
0010
1000
0001
,
0011
0020
0130
0020
,
0031
0010
0001
0100
,
0110
0020
1030
0020
,
0130
0010
0100
0001
,
1100
0100
0010
0001
,
2000
0000
3002
0000
,
0013
0000
0000
0000
0000
0000
0000
0100
,
0100
0000
0000
0000
0000
0000
0000
0100
,
0100
0000
0000
0000
0100
0000
0000
0100
,
0100
0000
0000
0100
0000
0000
0100
0000
0000
0000
0000
0000
0000
0000
0000
0000
,
1001
0000
1000
0000
,
0010
0000
1000
0000
,
0001
0000
0010
0000
,
0100
0000
1000
0100
,
1000
0000
0100
0000
,
1000
0000
0010
0000
,
0100
0000
0001
0000
,
1000
0000
1001
0000
,
0001
0000
0100
0000
,
0001
0000
0010
0000
,
0100
0000
0010
0000
,
0001
0000
1000
0001
,
1000
0000
0001
0000
,
0100
0000
0001
0010
,
0100
0000
0010
0002
,
0000
0000
0000
0000
,
0103
0000
0010
0000
,
0100
0000
0001
0000
,
1000
0000
0100
0000
,
0010
0000
0200
0000
,
1300
0000
0010
0000
,
0100
0000
0001
0000
,
1001
0000
0001
0010
,
0100
1000
0001
0000
,
1000
0000
0001
0000
,
0010
0000
0001
0000
,
0100
0000
0001
0000
,
0010
0000
0200
0000
,
1300
0000
0100
0000
,
1000
0000
0010
0000
,
0100
0000
0001
0000
,
1001
0000
0110
0000
,
1001
0000
0001
0100
,
0001
0000
1000
0100
,
1000
0000
0001
0000
,
0100
0000
0010
0000
,
0100
0000
0001
0100
,
0001
0000
1000
0100
,
1000
0000
1000
0000
,
0001
0000
0001
0000
,
1001
0000
1000
0010
,
1000
0000
0001
0010
,
0001
0000
0010
0000
,
0100
0000
1000
0000
,
0002
0000
0103
0000
,
0020
0000
1030
0000
,
2001
0000
0000
0000
,
0001
0000
3001
0000
,
0101
0000
0001
0100
,
0010
0000
0100
0010
,
1000
0000
0010
0000
,
0100
0000
0001
0000
,
0011
0000
0001
0010
,
0100
0000
0010
0100
,
1000
0000
0100
0000
,
1000
0010
0100
0001
,
1000
0000
0001
0100
,
0010
0000
0100
0010
,
1000
0000
0001
0000
,
0010
0000
0100
0000
,
0010
0000
0001
0000
,
0100
0000
0010
0000
,
1000
0010
1000
0000
,
0001
0100
0001
0000
,
2002
0000
0000
0000
,
0000
0000
0000
0000
,
0000
0000
0000
0000
,
0000
0000
0000
0000
,
3003
0000
0000
0000
;

//--------------- dance-single - Pandemonium X ----------------
#NOTES:
     dance-single:
     Pandemonium X:
     Medium:
     12:
     0,0,0,0,0:
0000
0000
0000
0000
,
0000
0000
0000
0000
,
0000
0000
0000
0000
,
0000
0000
0000
0000
,
0000
0000
0000
0000
,
1001
0000
0001
0010
0001
0000
0001
0010
,
0001
0000
1000
0000
0010
0100
0001
1000
,
0100
0000
1000
0010
1000
0000
1000
0010
,
1000
0000
0010
0000
0100
1000
0100
0001
,
1000
0000
0001
0100
0001
0000
0001
0100
,
0001
0000
0100
0000
0001
0010
0100
1000
,
0001
0000
0000
0001
0000
0000
0001
0000
1000
0000
0000
1000
0000
0000
1000
0000
,
0010
0000
1000
0100
,
1001
0000
1000
0000
0100
0000
0100
1000
,
0000
1100
0000
0011
0000
0000
0010
0001
,
0001
0000
0100
0001
1000
0001
0000
1001
,
0000
0110
0000
1001
0000
0000
1000
0001
,
0101
0000
0000
0000
0001
0100
0000
0001
,
0000
1000
0000
0100
0000
0000
0010
0100
,
2000
0000
0001
0002
0000
0000
3003
1000
,
0020
0000
0130
0002
0000
0000
0013
0100
,
0110
0000
1001
0000
1000
0000
0001
0010
,
0000
0011
0000
1100
0000
0000
0100
0100
,
0100
0000
1000
0010
0100
0001
0000
0101
,
0000
1100
0000
1001
0000
0000
0001
1000
,
1010
0000
0000
0000
1000
0100
0000
1100
,
0000
0101
0000
1001
0000
0000
0001
0010
,
0200
0000
0010
0320
0000
0000
0000
0130
,
2000
0000
3001
2002
0000
0000
3003
0000
,
1001
0000
1000
0100
1000
0000
1000
0100
,
1000
0000
0001
0000
0100
0010
1000
0001
,
0010
0000
0001
0100
0001
0000
0001
0100
,
0001
0000
0100
0000
0010
0001
0010
1000
,
0001
0000
1000
0010
1000
0000
1000
0010
,
1000
0000
0010
0000
1000
0100
0010
0001
,
1000
0000
0000
1000
0000
0000
1000
0000
0001
0000
0000
0001
0000
0000
0001
0000
,
0100
0000
0001
0010
,
2010
0000
0000
0000
0000
0000
0000
0001
,
3001
0000
0000
0000
0000
0000
0000
1000
,
1000
0000
0000
0000
0001
0000
0000
1000
,
1000
0000
0000
1000
0000
0000
1000
0000
0020
0000
0000
0000
0000
0000
0030
0000
,
0100
0001
0100
0001
,
0100
0010
0010
0100
,
0010
0100
0010
1000
,
0100
0000
0010
0000
0001
0100
0001
0100
,
0001
0100
0100
0010
,
0100
0010
0010
1000
,
0100
0010
0100
1000
,
0001
1000
0110
0000
,
0001
0010
0001
0100
,
0010
1000
1000
0010
,
0100
0001
0010
0100
,
0010
0000
0001
0000
1000
0010
1000
0010
,
1000
0010
0100
0001
,
0010
0100
1000
0001
,
0002
0000
1000
2000
,
0000
0000
0003
0000
,
3100
0010
0100
1000
,
0001
0100
0100
0001
,
0010
0100
0010
0001
,
1000
0010
0200
0000
,
0310
0100
0001
0010
,
0100
0010
0001
1000
,
1001
0000
0002
0023
,
0230
2300
3002
0000
,
1003
1000
0010
0100
,
0010
0010
0100
0001
,
0010
0010
0100
0010
,
0100
0100
2000
0000
,
3001
0200
0310
2000
,
3010
0200
0301
2000
,
3100
0100
0010
0010
,
0011
0000
1100
0000
,
1001
0000
0001
0100
,
0001
0000
0001
0100
,
0001
0000
0000
1000
0000
0000
0100
0000
,
1000
0010
0100
0001
,
1000
0000
0010
1000
,
0010
0000
0010
1000
,
0010
0000
0000
0100
0000
0000
0001
0000
,
1000
0100
0010
0001
,
1000
0000
0010
0100
,
0010
0000
0010
0100
,
0010
0000
0000
0010
0000
0000
0100
0000
,
0001
0010
0100
1000
,
0100
0000
0000
1000
0000
0000
0010
0000
,
0100
0000
0000
0001
0000
0000
0010
0000
,
0200
0000
0000
0000
,
0010
0000
1300
0000
,
1001
0001
0100
0100
,
0010
0010
1000
1000
,
0100
0100
0010
0010
,
0001
0001
0010
0001
,
0100
0100
0010
0010
,
1000
1000
0001
0001
,
1000
0001
0100
0001
,
0010
0100
1100
0000
,
1000
1000
0100
0100
,
1000
1000
0001
0001
,
0100
0100
0001
0001
,
1000
1000
0001
0001
,
1000
0000
0000
1000
0000
0000
1000
0000
,
0001
0000
0000
0001
0000
0000
0001
0000
,
1000
0010
1010
0000
,
0001
0100
0101
0000
,
2002
0000
0000
0000
,
0000
0000
0000
0000
,
0000
0000
0000
3000
,
0000
0000
0000
0000
,
0003
0000
0000
0000
;

//--------------- dance-single - Pandemonium X ----------------
#NOTES:
     dance-single:
     Pandemonium X:
     Hard:
     16:
     0,0,0,0,0:
0000
0000
0000
0000
,
0000
0000
0000
0000
,
0000
0000
0000
0000
,
0000
0000
0000
0000
,
0000
0000
0000
0000
,
0101
0000
0000
0000
0010
0100
0010
1000
0100
0000
0000
0000
0010
0100
0010
0001
,
1000
0010
1000
0100
0000
0000
0010
0100
0010
0100
1000
0001
1000
0000
0001
0000
,
0011
0000
0000
0000
0010
0100
0010
0100
1000
0000
0000
0000
0010
0100
0010
0100
,
0001
1000
0001
0100
0000
0010
0100
0010
1000
0001
0010
0100
1000
0001
0100
0000
,
1010
0000
0000
0000
0010
0100
0010
0100
0001
0000
0000
0000
0010
0100
0010
0100
,
1000
0001
1000
0100
0000
0010
0100
1000
0001
1000
0001
0100
0001
0000
1000
0000
,
0001
0010
0100
0020
0000
0031
0200
0000
0320
0000
1030
0002
0000
0013
0100
0010
,
0002
0000
0010
0013
,
1200
0000
1300
0001
0010
0100
1000
0001
,
0100
0001
1000
0100
0000
0000
0100
0010
,
0011
0000
1100
0100
0100
0010
0000
0011
,
0000
1010
0000
1001
0000
0000
1000
0100
,
1100
0000
1000
0000
0001
0100
0001
0010
,
0100
0010
0001
1000
0000
0000
0001
0100
,
2000
0000
0100
3100
0000
0000
0000
1000
,
0200
0000
0301
2000
0000
0000
3100
0010
,
0011
0000
1000
0001
1000
0100
0010
0001
,
0100
0001
1000
0010
0100
0000
0010
0100
,
0101
0000
0001
0001
1000
0100
0000
1100
,
0000
0101
0000
1001
0000
0000
1000
0100
,
0110
0000
0001
0000
0010
0001
0100
0001
,
1000
0100
0010
0100
1000
0000
1000
0010
,
0002
0000
0010
0023
0000
0000
0000
0130
,
0020
0000
0130
2002
0000
0000
3000
0000
,
1003
0000
0000
0000
0010
0100
0001
0010
0100
0000
0000
0000
0010
0100
1000
0010
,
0100
0001
0100
0010
0000
0010
0100
0001
0010
0100
1000
0001
1000
0000
0001
0000
,
0011
0000
0000
0000
0010
0100
1000
0010
0100
0000
0000
0000
0010
1000
0100
0010
,
0100
1000
0001
0100
0000
0100
0010
1000
0001
0010
0100
1000
0001
1000
0001
1000
,
0100
0000
0000
0000
0010
0001
1000
0010
0100
0000
0000
0000
0010
0100
0001
1000
,
0001
1000
0001
0100
0000
0100
0010
1000
0001
0010
0100
1000
0001
0000
1000
0000
,
0100
0010
0001
0200
0000
0310
2000
0000
3100
1000
0100
2000
0000
3100
0010
0001
,
1000
0001
1000
0001
1000
0001
1000
0001
1000
0000
0001
0000
1000
0010
0100
0000
,
1001
0000
0000
0000
0000
0000
0000
0101
,
1010
0000
0000
0000
0000
0000
0000
1100
,
0011
0000
0000
0000
0110
0000
0000
1001
,
0101
0000
0000
1010
0000
0000
1001
0000
0000
0000
0000
0000
0000
0000
0000
0000
,
1000
0001
1000
0001
,
0100
0001
0100
0000
0100
0000
0100
0001
,
1000
0000
0100
0010
0100
0010
0001
0010
,
0001
0100
0010
0000
2000
3002
2003
3002
,
1003
0000
0001
0100
0001
0000
1000
0100
,
1000
0100
1000
0000
1000
0000
1000
0100
,
0010
0001
0100
0010
0000
1010
0000
0001
,
0100
0000
0010
1000
0200
0000
0000
0000
,
0310
0100
1000
0010
,
0100
0001
0100
0000
0100
0000
0100
0010
,
1000
0000
0001
0010
0001
1000
0100
1000
,
0001
1000
0010
0000
2000
3002
2003
3002
,
1003
0000
0010
0100
0010
0000
0100
0001
,
0100
0001
1000
0000
0100
0000
0110
0000
,
1100
0000
1010
0204
,
0000
0000
0000
0303
,
1010
1000
0100
1000
,
0001
0000
0100
0000
0001
0000
0010
0100
,
0010
0100
0010
0000
0001
0000
1000
0010
,
1000
0010
1000
0000
0200
0000
0000
0000
,
0310
0000
0001
0000
0100
0000
0001
1000
,
0001
1000
0001
0000
1000
0000
0100
0000
,
2100
0000
3002
2003
,
3010
0100
0010
0100
0020
0000
2030
0000
,
3001
0000
1000
0000
0100
0000
0010
0100
,
0010
0100
0010
0000
0001
0000
0001
1000
,
0001
1000
0001
0000
0001
0000
0100
0010
,
0100
0010
0100
0000
0020
0000
0000
0000
,
1030
1100
0100
0110
,
0010
0000
0011
0000
0001
0000
0001
1000
,
0001
0100
0010
1000
0100
0010
0001
1000
,
0020
0000
2030
0000
,
3100
0000
0000
0000
0010
0100
1000
0010
,
0100
0000
0000
0000
0010
0100
0010
1000
,
0001
1000
0001
0100
0000
0000
0010
0100
,
0001
0100
0010
1000
0001
0000
1000
0000
,
0100
0000
0000
0000
0010
0001
0100
0010
,
0100
0000
0000
0000
0010
0100
0001
0010
,
0001
1000
0001
0100
0000
0001
1000
0001
,
1000
0100
0010
0001
0010
0100
0010
0000
,
0001
0000
0000
0000
1000
0100
0010
0001
,
0100
0000
0000
0000
0010
0100
0001
1000
,
0001
0010
0001
0100
0000
0000
0100
0010
,
1000
0001
0010
0100
1000
0000
0001
1000
,
0200
0000
0310
0002
0000
1003
0002
0000
,
0023
0000
0031
0200
0000
0310
1000
0001
,
2000
0000
0000
0000
,
3002
0000
0023
0000
,
0130
1000
0100
1000
0100
1000
0100
1000
,
0001
0100
0001
0100
0001
0100
0001
0100
,
0010
0100
0010
0100
0010
0100
0010
0100
,
0001
1000
0001
1000
0001
0000
1001
0000
,
1000
0010
1000
0010
1000
0010
1000
0010
,
0100
0001
0100
0001
0100
0001
0100
0001
,
0200
0000
0302
0000
0023
0000
0130
1000
,
0001
0010
0100
1000
0001
0100
0001
0000
,
0010
0100
0010
0100
0010
0100
0010
0100
,
1000
0001
1000
0001
1000
0001
1000
0001
,
0100
0010
0100
0010
0100
0010
0100
0010
,
1000
0100
0010
0001
1000
0000
1001
0000
,
0001
0100
0001
2000
0000
3100
0020
0000
,
0230
0000
0310
0002
0000
0013
0100
1000
,
0020
1000
0130
0000
,
0200
0001
0310
0000
,
2002
0000
0000
0000
,
0000
0000
0000
0000
,
0000
0000
0000
3000
,
0000
0000
0000
0000
,
0003
0000
0000
0000
;
