#TITLE:Fantasia;
#SUBTITLE:;
#ARTIST:Smiley;
#TITLETRANSLIT:;
#SUBTITLETRANSLIT:;
#ARTISTTRANSLIT:;
#GENRE:;
#CREDIT:;
#MUSIC:Fantasia.ogg;
#BANNER:Fantasia-bn.png;
#BACKGROUND:Fantasia-bg.png;
#CDTITLE:;
#SAMPLESTART:52.457;
#SAMPLELENGTH:17.364;
#SELECTABLE:YES;
#OFFSET:-0.091;
#BPMS:0.000=82.500
,16.000=41.250
,18.000=165.000
,113.500=175.000
,114.500=185.000
,115.500=195.000
,116.500=205.000
,117.500=215.000
,118.500=225.000
,119.500=235.000
,120.500=245.000
,121.500=255.000
,122.500=265.000
,123.500=285.000
,125.000=165.000
,173.000=82.500
,189.000=165.000
;
#STOPS:;
#DISPLAYBPM:41.000:165.000;
#BGCHANGES:;
#FGCHANGES:;

//--------------- dance-single - Pandemonium X ----------------
#NOTES:
     dance-single:
     Pandemonium X:
     Beginner:
     4:
     0,0,0,0,0:
0000
0000
0000
0000
,
0000
0000
0000
0000
,
0000
0000
0000
0000
,
0000
0000
0000
0000
,
1001
0000
0010
0000
,
0000
0000
0100
0000
,
0001
0000
1000
0000
,
0000
0000
0001
0000
,
0000
1000
0001
0000
,
0000
0000
1000
0000
,
0001
0000
0010
0000
,
0000
0000
0100
0000
,
0000
0000
0010
0000
,
0000
0000
0001
0000
,
0000
0000
1000
0000
,
0000
0000
0000
0000
,
0000
0000
0010
0000
,
0000
0000
0100
0000
,
0010
0000
1000
0000
,
0000
0000
0001
0000
,
0000
0000
1000
0000
,
0001
0000
0100
0000
,
0000
0000
0001
0000
,
1000
0000
0100
0000
,
0000
0000
1000
0000
,
0001
0000
0010
0000
,
0000
0000
0100
0000
,
1000
0000
0010
0000
,
0100
0000
0000
0002
0000
0000
0000
0000
,
0000
0000
0000
0000
,
0000
0000
0000
0000
0000
0000
0000
0003
,
0000
1000
0000
0001
,
0000
0010
0010
0010
,
0000
0001
0000
1000
,
0000
0100
0000
0110
,
0110
1000
0000
0001
,
0000
0100
0100
0100
,
0000
0010
0000
1000
,
0000
0001
0000
1001
,
1001
0001
0000
1000
,
0000
0020
0000
0000
,
0030
1000
0000
0001
,
0000
0200
0000
0000
,
0300
0001
0000
1000
,
0001
0010
0000
0001
,
1000
0100
0000
1000
,
0001
0200
0000
0000
,
0000
0310
0000
0100
,
0000
0001
0001
0001
,
0001
1000
0000
0001
,
0000
1000
0000
0010
,
0110
0100
0000
0010
,
0000
1000
1000
1000
,
1000
0001
0000
1000
,
0000
0010
0000
0100
,
0110
0001
0000
1000
,
0000
0001
0000
1000
,
0100
1000
0000
0010
,
0000
0100
0000
1000
,
1001
0001
0000
0010
,
0000
0001
0000
0010
,
0010
0100
0000
1000
,
0000
0001
0000
1000
,
1001
0001
0001
0001
,
0001
0002
0000
0000
,
0003
1000
1000
1000
,
1000
2000
0000
0000
,
3000
1001
0000
0000
;

//--------------- dance-single - Pandemonium X ----------------
#NOTES:
     dance-single:
     Pandemonium X:
     Easy:
     7:
     0,0,0,0,0:
0000
0000
0000
0000
,
0000
0000
0000
0000
,
0001
0100
0010
1000
,
0001
0100
0010
1000
,
2001
0000
3100
0100
,
1000
0010
0100
0001
,
0011
0101
0001
0100
,
0010
1000
0100
0010
,
0100
1000
0100
0000
1000
0000
0001
0000
,
0100
0001
1000
0010
,
1010
1100
0100
1000
,
0010
0100
0001
0010
,
0001
0000
0010
0001
0010
0000
0001
0000
,
0100
0010
1000
0001
,
0010
0100
0010
0001
,
0100
0100
0200
0000
,
0000
0000
0310
0001
,
0010
1000
0100
0010
,
0011
0110
0100
1000
,
0001
0100
0001
1000
,
0001
0100
0001
0000
0100
0000
0010
0000
,
1000
0100
0000
0020
0000
0000
0000
0000
,
0000
0000
0130
1000
,
0001
0100
0001
2000
0000
0000
0000
0000
,
0000
0000
3001
0010
,
0001
0100
0000
0020
0000
0000
0000
0000
,
0000
0000
0000
0000
0130
0000
0000
0010
,
0000
0100
0000
0001
0000
0000
0000
1000
,
0000
0000
0000
1001
0000
0000
0000
0000
,
0000
0000
0000
0000
,
0000
0000
0000
0000
,
0000
0001
0000
1000
,
0000
0010
1000
0100
,
0010
0001
0000
0010
,
0000
0000
0001
0000
0000
0000
0100
0100
,
0100
0010
0000
0100
,
0000
0001
0010
0100
,
1000
0100
0000
1000
,
0000
0000
0001
0000
0000
0000
0010
0010
,
0010
0001
0100
0001
,
1000
0100
0010
0100
,
1000
0001
0010
0001
,
1000
0010
1000
0100
,
0010
0001
0010
0000
0100
0000
1000
0000
,
0010
0000
0100
0000
1000
0000
0100
0010
,
0100
0010
1000
0001
,
0010
0100
0010
0011
,
1100
1001
0001
1000
,
0010
0100
0001
0010
,
0100
0010
0001
1000
,
0100
0000
1001
0000
0000
0000
1000
0100
,
1000
0001
0010
0001
,
1000
0100
0010
0001
,
1001
0001
1000
0010
,
1000
0000
0100
0000
0000
0000
0010
0001
,
0010
0001
0100
1000
,
0100
0010
0001
0010
,
0100
0001
0010
1000
,
0010
0000
0100
0000
0000
0000
0010
0001
,
0010
0001
0010
1000
,
0010
0100
0100
1000
,
1000
0100
1000
0010
,
0001
0000
0010
0000
0100
0000
0001
1000
,
0001
1000
0100
0010
,
0001
1000
0100
0010
,
0001
0010
0100
1000
,
0001
0010
0100
1000
,
0001
0110
0000
0000
;

//--------------- dance-single - Pandemonium X ----------------
#NOTES:
     dance-single:
     Pandemonium X:
     Medium:
     11:
     0,0,0,0,0:
0000
0000
0000
0000
,
0000
0000
0000
0000
,
0001
0000
0000
1000
0100
0000
1000
0000
0010
0100
0010
0000
1001
0000
0000
1000
,
1000
0000
0000
0001
0010
0000
0001
0000
0100
0010
0100
0000
0110
0000
0000
0000
,
2002
0000
0000
0003
3001
0100
0010
0100
,
0000
0010
1000
0100
0000
0010
0000
0100
,
1000
0000
1001
0000
0001
0100
0010
0100
,
0000
0010
1000
0100
0000
0000
0000
0000
,
0000
0000
0011
0000
0010
0100
1000
0100
,
0000
0010
0001
0100
0000
0100
0000
0010
,
0100
0000
1001
0000
0001
0100
0010
1000
,
0000
1000
0100
0010
0100
0000
0100
0000
,
0100
0000
0100
0100
1000
0100
1000
0010
,
0000
0000
0000
0100
0000
0001
0000
0010
,
0100
0000
0010
0000
0001
0100
0000
0010
,
1000
0010
0100
0010
2000
0000
0000
0000
,
0000
0000
0000
0000
3001
0010
0100
0010
,
0000
0100
1000
0010
0000
0100
0000
0010
,
0100
0000
1001
0000
0001
1000
0010
1000
,
0000
0100
0010
0100
1000
0000
1000
0000
,
1000
1000
1000
0000
0001
0000
0100
0001
,
0010
0100
0000
1100
0000
0000
0000
1000
,
0000
0001
0000
1000
0001
0000
1000
0010
,
0100
0010
0000
1010
0000
0000
0000
0000
,
0000
0000
0000
0010
0010
0000
0100
0001
,
1000
0100
0000
0011
0000
0000
0000
0001
,
0000
0100
0000
0010
1000
0000
0000
1001
,
0000
0100
0000
1001
0000
0000
0000
0010
,
0000
0000
0000
2002
0000
0000
0000
0000
,
0000
0000
0000
0000
,
0000
0000
0000
0000
,
3003
0001
1000
0100
,
0010
0000
0001
0100
0001
0010
0001
0000
,
0101
0001
1000
0010
,
0100
0000
1010
0000
0000
0000
1100
1100
,
1100
1000
0001
0100
,
0010
0000
1000
0100
0010
0001
1000
0000
,
1001
0001
1000
0010
,
0100
0000
0101
0000
0000
0000
0011
0011
,
0011
0001
0010
0100
,
1000
0100
0000
1000
0010
0100
0000
1000
,
0000
0100
0010
0100
,
0010
1000
0002
0000
0100
0000
0100
0000
,
0103
0001
2000
0000
3200
0000
0302
0000
,
0203
0000
0000
0000
0320
0000
0000
0000
0032
0000
0000
0000
0013
0100
1000
0000
,
1001
0000
0000
1000
0002
0000
0000
0000
0203
0000
0000
0000
2300
0000
0000
0000
,
3200
0000
0000
0000
0320
0000
0000
0000
2030
0000
0000
0000
3001
0100
0010
0100
,
0010
1000
0100
0010
1001
0000
0000
0000
1000
0000
0000
0000
0010
0000
0000
0000
,
0100
0000
1000
0100
0001
1000
0100
0000
,
0011
0000
0010
0100
0000
0010
0000
0001
,
1000
0100
0010
0000
0000
0000
1001
1001
,
1001
0000
1000
0001
0000
0001
0000
1000
,
0010
0001
0010
0100
0001
0010
0100
0000
,
1100
0000
0100
0010
0000
0100
0000
0010
,
0000
0001
0101
0000
0000
0000
1001
1001
,
1001
0000
0001
0100
0000
1010
0000
1000
,
0000
0100
0010
0000
0000
0100
0010
0000
,
1100
0000
0001
0100
0000
0110
0000
0101
,
0100
0001
1000
0000
0000
0000
1001
1001
,
0101
0000
1000
0100
0000
1100
0000
1010
,
0010
0100
0001
0000
0000
1000
0100
1000
,
0010
0000
0100
0001
0000
0011
0000
0010
,
0100
1000
1001
0000
0000
0000
0011
0011
,
1100
1000
0001
0100
,
0001
0010
0000
0100
0010
0100
0000
1000
,
0000
1100
1000
1000
,
0100
0010
0000
0100
0010
0100
0000
0010
,
0000
0001
1001
0000
0000
0000
0000
0000
;

//--------------- dance-single - Pandemonium X ----------------
#NOTES:
     dance-single:
     Pandemonium X:
     Hard:
     13:
     0,0,0,0,0:
0000
0000
0000
0000
,
0000
0000
0000
0000
,
0001
0100
1000
0100
0001
1000
0100
0001
0200
0000
0000
1000
0000
0000
0310
0000
,
1000
0100
0001
0100
1000
0001
0100
1000
0100
0010
1000
0001
0010
0100
1000
0001
,
2001
0000
0000
0000
0000
0000
0000
0000
0000
0000
0000
0000
0000
0000
0000
3001
1001
0000
0000
0000
1000
0000
0000
0000
0001
0000
0000
0000
1000
0000
0000
0000
,
0000
0000
0100
0000
1000
0000
0010
0000
0000
0000
0001
0000
0000
0000
0010
0100
,
0001
0000
0011
0000
0001
0001
1000
0001
,
0000
0100
0001
0100
0010
0000
0010
0000
,
0010
0010
1001
0000
0001
1000
0001
0001
,
0000
0000
0010
0000
0001
0000
0100
0000
0000
0000
1000
0000
0000
0000
0100
0010
,
1000
0000
1100
0000
1000
1000
0100
1000
,
0000
0001
0100
0010
0100
0000
0100
0000
,
0100
0000
0100
0100
0010
0001
0010
1000
,
0100
0001
0100
0010
0200
0000
0001
0000
,
1000
0000
0310
0000
0001
0100
1000
0100
,
0001
0010
0100
1000
0200
0000
1000
0000
,
0010
0000
1000
1300
0001
0010
0010
0001
,
0000
0000
1000
0000
0010
0000
1000
0000
0000
0000
1010
0000
0000
0000
1000
0100
,
0010
0000
0011
0000
1000
0100
0100
1000
,
0000
0001
0100
0001
0010
0000
0010
0000
,
0010
0010
0010
0000
1001
0000
1000
0001
,
0010
1000
0010
0001
2000
0000
0100
0000
,
0010
0000
3001
1000
0001
0000
0100
1000
,
0100
0001
1000
0100
0020
0000
0100
0000
,
0001
0000
0130
1000
0020
0000
0031
0010
,
1000
0001
1000
0100
0020
0000
0130
2000
,
0000
0010
0000
3001
1001
0000
1000
1100
,
0000
0011
0000
1001
0001
0000
1000
1100
,
0000
0000
0011
0000
0000
0000
0004
4000
0000
0000
0000
0000
0000
0000
0000
0000
,
0000
0000
0000
0000
,
0000
0000
0000
0000
,
3003
0000
0001
0100
0001
0010
0001
0100
,
0010
1000
0010
0010
0100
0100
0101
0000
,
1001
0000
1000
1100
0000
0011
0000
0010
,
0100
0000
0100
0000
1001
0000
0000
0000
0000
0000
0001
0100
0001
0000
0001
0000
,
0101
0000
0001
0100
0000
1010
0000
1000
,
0001
0001
0100
1000
0100
0010
1010
0000
,
0101
0000
0001
1001
0000
1010
0000
1001
,
0000
0000
0001
0000
0011
0000
0000
0000
0000
0000
0010
0100
1000
0000
1000
0000
,
1001
0000
1000
0100
0001
0100
1000
0010
,
0001
0010
0100
1000
0100
0001
0000
1000
,
0000
1000
0001
0010
1000
0010
0001
0100
,
1000
0100
0020
0000
0100
0000
1000
0000
,
0100
0000
0130
0000
1002
0000
1003
0100
0020
0000
0031
0100
0020
0000
0130
0000
,
1010
0000
0010
1000
0010
0000
0000
0000
1002
0000
0000
0000
1003
0000
0010
0000
0200
0000
0000
0000
0310
0000
0100
0000
0010
0000
1000
0000
0100
0000
0000
0000
,
0021
0000
0000
0031
0201
0000
0301
1000
0020
0000
0130
0001
1000
0000
1001
0000
,
0101
0000
0100
0001
0100
0000
0000
0000
1002
0000
0000
0000
0000
0000
0100
0000
0100
0000
0000
0000
1000
0000
0000
0000
1003
0000
1000
0010
0100
0001
0010
0001
,
0010
0100
1000
0100
0010
0001
0010
0100
1000
0000
0000
0000
0010
0000
0000
0000
0100
0000
0000
0000
0001
0000
0000
0000
0010
0000
0000
0000
0100
0000
0000
0000
,
0010
0001
0100
0100
0010
1000
1100
0000
,
1001
0000
0001
0010
1000
0010
0001
0010
,
0100
0000
0100
0000
1100
0000
0000
0000
0000
0000
0001
1000
0010
0000
0010
0000
,
0110
0000
1000
1001
0000
0011
0000
0010
,
0100
1000
0010
0010
0100
0001
0011
0000
,
1001
0000
0001
0101
0000
1010
0000
1001
,
0000
0000
1000
0000
1001
0000
0000
0000
0000
0000
1000
0010
0100
0000
0100
0000
,
0110
0000
0001
0100
0010
0100
0001
0010
,
0100
1000
2100
0000
3010
0200
1000
0000
,
0301
0000
0001
0100
0001
1000
0010
0100
,
0001
0000
0010
0000
0021
0000
0000
0000
0000
0000
0031
0100
0010
0000
0010
0000
,
1001
0000
1000
0010
0001
0010
0100
0001
,
0010
0100
2100
0000
0000
3001
0100
0010
,
1010
0000
0010
0100
1000
0100
0001
1000
,
0100
0000
0010
0000
0012
0000
0000
0000
0000
0000
0013
0100
1000
0000
1000
0000
,
1001
0000
0001
0100
1000
0100
0001
1000
,
0100
0001
0100
1000
0001
0200
0000
1000
,
0000
0310
1000
0010
0001
0010
1000
0001
,
0010
1000
0010
0001
1000
0020
0000
0001
,
0000
0130
1001
0000
0000
0000
0000
0000
;
