#TITLE:Fading Stars;
#SUBTITLE:;
#ARTIST:Nhato;
#MUSIC:Fading Stars.ogg;
#BANNER:;
#BACKGROUND:;
#LYRICSPATH:;
#CDTITLE:;
#SAMPLESTART:80.501;
#SAMPLELENGTH:14.578;
#OFFSET:0.58;
#BPMS:0.000000=148.000000;
#STOPS:;
#TIMESIGNATURES:;
#BGCHANGES:;
#FGCHANGES:;
#ATTACKS:;
#SPEEDS:;
#SCROLLS:;

//---------------dance-single - ---------------
#NOTES:
     dance-single:
     :
     Beginner:
     5:
     0,0,0,0,0:
// measure 0
0000
0000
0000
0000
,  // measure 1
0000
0000
0000
0000
,  // measure 2
0000
0000
0000
0000
,  // measure 3
0000
0000
0000
0000
,  // measure 4
0000
0000
0000
0000
,  // measure 5
0001
0000
0000
0000
,  // measure 6
1000
0000
0001
0000
,  // measure 7
0110
0000
0000
0000
,  // measure 8
0001
0001
0001
0001
,  // measure 9
1000
0000
0001
0000
,  // measure 10
0100
0000
0010
0000
,  // measure 11
0100
0000
0001
0000
,  // measure 12
1000
0000
0100
0000
,  // measure 13
0010
0000
0100
0000
,  // measure 14
1000
0000
0001
0000
,  // measure 15
0100
0000
0010
0000
,  // measure 16
0100
0100
0100
0000
,  // measure 17
0010
0000
0000
0010
0000
0000
0010
0000
,  // measure 18
0000
0010
0000
0000
0100
0000
0010
0000
,  // measure 19
0100
0000
0000
0100
0000
0000
0100
0000
,  // measure 20
0000
0000
0000
0000
,  // measure 21
0001
0000
0000
0001
0000
0000
0001
0000
,  // measure 22
0000
1000
0000
0000
0001
0000
0001
0000
,  // measure 23
1000
0000
0000
1000
0000
0000
0001
0000
,  // measure 24
0000
0000
0000
0000
,  // measure 25
0100
0000
0000
0010
,  // measure 26
0000
0000
1000
0001
,  // measure 27
1000
0000
0000
0100
,  // measure 28
0000
0010
0000
0100
,  // measure 29
1000
0000
0000
0000
,  // measure 30
0001
0000
0000
0000
,  // measure 31
0100
0000
0000
0000
,  // measure 32
0010
0000
0000
0000
,  // measure 33
2000
0000
0000
3000
0000
0000
0000
0000
,  // measure 34
0002
0000
0000
0003
0000
0000
0000
0000
,  // measure 35
0200
0300
0020
0030
,  // measure 36
0200
0000
0000
0300
0000
0000
0010
0000
,  // measure 37
2000
0000
0000
3000
0000
0000
0000
0000
,  // measure 38
0002
0000
0000
0003
0000
0000
0000
0000
,  // measure 39
0010
0000
0100
0000
,  // measure 40
1000
0000
0001
0000
,  // measure 41
1001
0000
0000
0000
,  // measure 42
0110
0000
0000
0000
,  // measure 43
1010
0000
0101
0000
,  // measure 44
1001
0000
0000
0000
,  // measure 45
1100
0000
0110
0000
,  // measure 46
0011
0000
0110
0000
,  // measure 47
1100
0000
1001
0000
,  // measure 48
0101
0000
2002
0000
,  // measure 49
3003
0000
0000
0000
,  // measure 50
0001
0001
0001
0000
,  // measure 51
1000
1000
1000
0000
,  // measure 52
0010
0000
0100
0000
,  // measure 53
0010
0010
0010
0000
,  // measure 54
0100
0000
0000
0000
,  // measure 55
0001
0000
0000
0000
,  // measure 56
1000
0000
0001
0000
,  // measure 57
0100
0010
0100
0001
,  // measure 58
1000
1000
1000
0000
,  // measure 59
0001
0001
0001
0000
,  // measure 60
0100
0000
0010
0000
,  // measure 61
0100
0100
0100
0000
,  // measure 62
0010
0000
0100
0000
,  // measure 63
0001
0000
1000
0000
,  // measure 64
0100
0000
0010
0000
,  // measure 65
0001
0000
1000
0000
,  // measure 66
1001
0000
0000
0001
0000
0000
0100
0000
,  // measure 67
0000
0010
0000
0000
1000
0000
0001
0000
,  // measure 68
1000
0000
0000
0100
0000
0000
0010
0000
,  // measure 69
0000
0100
1000
0001
,  // measure 70
0100
0000
0000
0000
,  // measure 71
0010
0000
0000
0000
,  // measure 72
0100
0000
0000
0000
,  // measure 73
0002
0000
0000
0000
,  // measure 74
0003
0000
0000
0000
;

//---------------dance-single - ---------------
#NOTES:
     dance-single:
     :
     Easy:
     7:
     0,0,0,0,0:
// measure 0
0000
0000
0000
0000
,  // measure 1
0000
0000
0000
0000
,  // measure 2
0000
0000
0000
0000
,  // measure 3
0000
0000
0000
0000
,  // measure 4
0000
0000
0000
0000
,  // measure 5
1001
0001
0000
0000
,  // measure 6
1001
1000
0001
0100
,  // measure 7
0110
0000
0000
0000
,  // measure 8
0110
1001
0110
1001
,  // measure 9
0001
1000
0100
0110
,  // measure 10
0010
0001
0100
0010
,  // measure 11
1000
0001
0100
0110
,  // measure 12
0010
1000
0100
0010
,  // measure 13
0001
0010
0100
1100
,  // measure 14
0100
1000
0010
0100
,  // measure 15
0010
1000
0001
0101
,  // measure 16
0001
1000
0100
0010
,  // measure 17
0001
0000
0000
0010
0000
0000
0001
0000
,  // measure 18
0000
1000
0000
0000
0001
0000
0010
0000
,  // measure 19
0100
0000
0000
0010
0000
0000
0001
0000
,  // measure 20
0000
1000
0010
0100
,  // measure 21
0001
0000
0000
1000
0000
0000
0100
0000
,  // measure 22
0000
1000
0000
0000
0001
0000
1000
0000
,  // measure 23
0001
0000
0000
0010
0000
0000
0001
0000
,  // measure 24
0000
0010
0100
1000
,  // measure 25
0001
0000
0000
0001
0000
0000
0001
0000
,  // measure 26
0000
1000
0000
0000
0001
0000
1000
0000
,  // measure 27
0010
0000
0000
0010
0000
0000
0100
0000
,  // measure 28
0000
0010
0100
0001
,  // measure 29
1000
0000
0000
1000
0000
0000
1000
0000
,  // measure 30
0000
0001
0000
0000
1000
0000
0001
0000
,  // measure 31
1000
0000
0000
0001
0000
0000
0010
0000
,  // measure 32
0000
0100
0010
0001
,  // measure 33
0200
0000
0000
0300
0000
0000
0000
0000
,  // measure 34
0020
0000
0000
0030
0000
0000
0000
0000
,  // measure 35
2000
3000
0002
0003
,  // measure 36
0020
0000
0000
0030
0000
0000
0100
0000
,  // measure 37
2000
0000
0000
3000
0000
0000
0000
0000
,  // measure 38
0020
0000
0000
0030
0000
0000
0000
0000
,  // measure 39
0200
0300
0020
0030
,  // measure 40
2000
3000
0002
0003
,  // measure 41
2002
0000
0000
3003
0000
0000
0000
0000
,  // measure 42
0202
0000
0000
0303
0000
0000
0000
0000
,  // measure 43
0011
0000
1100
0000
,  // measure 44
2020
0000
3030
0010
,  // measure 45
0200
0000
0302
0000
,  // measure 46
0023
0000
0230
0000
,  // measure 47
2300
3200
0320
0032
,  // measure 48
0203
0320
2030
0002
,  // measure 49
3003
0000
0000
0000
,  // measure 50
1000
0000
0000
1000
0000
0000
1000
0000
0000
0000
0000
0000
0000
0000
0000
0000
,  // measure 51
0001
0000
0000
0001
0000
0000
0001
0000
0000
0000
0000
0000
0000
0000
0000
0000
,  // measure 52
0100
0000
0000
0100
0000
0000
0000
0000
0010
0000
0000
0010
0000
0000
0000
0000
,  // measure 53
0100
0000
0000
0100
0000
0000
0100
0000
0000
0000
0000
0000
0010
0000
0000
0000
,  // measure 54
1000
0000
0000
1000
0000
0000
0001
0000
0000
0000
0000
0000
0000
0000
0000
0000
,  // measure 55
0001
0000
0000
0001
0000
0000
1000
0000
0000
0000
0000
0000
0000
0000
0000
0000
,  // measure 56
0001
0000
1000
0000
,  // measure 57
0010
0000
0100
0000
,  // measure 58
0010
0000
0000
1000
0000
0000
0010
0000
0000
0000
0000
0000
0000
0000
0000
0000
,  // measure 59
0100
0000
0000
0001
0000
0000
0100
0000
0000
0000
0000
0000
0000
0000
0000
0000
,  // measure 60
0001
0000
0000
0010
0000
0000
0000
0000
0100
0000
0000
1000
0000
0000
0000
0000
,  // measure 61
0010
0000
0000
0100
0000
0000
0001
0000
0000
0000
0000
0000
1000
0000
0000
0000
,  // measure 62
0001
0000
0000
0001
0000
0000
0001
0000
1000
0000
0000
1000
0000
0000
1000
0000
,  // measure 63
0010
0000
0000
0010
0000
0000
0010
0000
0100
0000
0000
0100
0000
0000
0100
0000
,  // measure 64
0010
0000
0000
0100
0000
0000
0010
0000
1000
0000
0000
0001
0000
0000
1000
0000
,  // measure 65
0001
0000
0000
0010
0000
0000
0100
0000
1000
0000
0000
0100
0000
0000
0010
0000
,  // measure 66
0001
0000
0000
0010
0000
0000
0100
0000
,  // measure 67
0000
1000
0000
0000
0100
0000
1000
0000
,  // measure 68
0010
0000
0000
0100
0000
0000
0001
0000
,  // measure 69
0000
1000
0100
0010
,  // measure 70
0100
0000
0000
0010
0000
0000
0001
0000
,  // measure 71
0000
0100
0000
0000
0010
0000
0100
0000
,  // measure 72
0001
0000
0000
1000
0000
0000
0001
0000
,  // measure 73
0000
0020
0230
2000
,  // measure 74
3300
0000
0000
0000
;

//---------------dance-single - ---------------
#NOTES:
     dance-single:
     :
     Medium:
     11:
     0,0,0,0,0:
// measure 0
0000
0000
0000
0000
,  // measure 1
0000
0000
0000
0000
,  // measure 2
0000
0000
0000
0000
,  // measure 3
0000
0000
0000
0000
,  // measure 4
0000
0000
0000
0000
,  // measure 5
0001
0100
0010
1000
,  // measure 6
0100
0100
0100
0100
,  // measure 7
2001
0001
0001
3001
,  // measure 8
0101
1100
0101
1001
,  // measure 9
1010
0000
0000
0000
0010
0000
0000
0000
0100
0000
0000
0001
1000
0000
0000
0000
,  // measure 10
0100
0010
0001
1000
,  // measure 11
0100
0000
0000
0000
0010
0000
0000
0000
0100
0000
0000
1000
0001
0000
0000
0000
,  // measure 12
0100
0001
1000
0001
,  // measure 13
0010
0000
0000
0000
0001
0000
0000
0000
1000
0000
0000
0000
0010
0000
0000
0100
,  // measure 14
0000
0000
0001
0000
0000
0001
0000
0001
0010
0000
0000
0010
0000
0000
0010
0000
,  // measure 15
0100
0000
0000
0000
1100
0000
0000
0000
1000
0000
0000
0000
1010
0000
0000
0010
,  // measure 16
0000
0000
0010
0000
0000
0010
0000
0010
0100
0000
0010
0000
0200
0000
0302
0000
,  // measure 17
1003
0000
0000
0100
0000
0000
0001
0000
,  // measure 18
0000
0100
0000
0000
1000
0001
0100
0001
,  // measure 19
0010
0000
0000
1000
0000
0000
0010
0010
,  // measure 20
0000
0100
0001
0100
1000
0001
0100
0001
,  // measure 21
0001
0000
0000
0100
0000
0000
1000
0000
,  // measure 22
0000
0100
0000
0000
0001
1000
0010
1000
,  // measure 23
0100
0000
0000
0001
0000
0000
0100
0100
,  // measure 24
0000
0010
1000
0010
0001
0100
0010
1000
,  // measure 25
0001
0000
0000
0000
0001
0000
0000
0000
1000
0000
0000
1000
0001
0000
0000
0000
,  // measure 26
1000
1000
0010
0010
,  // measure 27
0100
0000
0000
0000
0100
0000
0000
0000
0001
0000
0000
0001
0100
0000
0000
0000
,  // measure 28
0100
0100
0010
0010
,  // measure 29
0100
0000
0000
0000
0000
0000
0001
0000
0000
0000
0000
0010
0100
0000
0000
0000
,  // measure 30
0000
1000
0000
0000
0100
0010
0001
1000
,  // measure 31
0010
0000
0000
0000
0000
0000
0100
0000
0000
0000
0000
0001
1000
0000
0000
0000
,  // measure 32
0000
0100
0001
0100
1000
0010
0100
0001
,  // measure 33
0010
0000
0000
0010
0000
0000
0010
0000
0000
0000
0000
0000
0000
0000
0000
0000
,  // measure 34
0100
0000
0000
0100
0000
0000
0100
0000
0000
0000
0000
0000
0000
0000
0000
0000
,  // measure 35
1000
0000
0000
1000
0000
0000
0000
0000
0001
0000
0000
0001
0000
0000
0000
0000
,  // measure 36
0100
0000
0000
0100
0000
0000
0100
0000
0000
0000
0000
0000
0010
0000
0100
0000
,  // measure 37
0001
0000
0000
0001
0000
0000
0010
0000
0000
0000
0000
0000
0000
0000
0000
0000
,  // measure 38
0100
0000
0000
0100
0000
0000
1000
0000
0000
0000
0000
0000
0000
0000
0000
0000
,  // measure 39
0100
0000
0000
0100
0000
0000
0100
0000
0010
0000
0000
0010
0000
0000
0010
0000
,  // measure 40
0001
0000
0000
0001
0000
0000
0001
0000
1000
0000
0000
1000
0000
0000
1000
0000
,  // measure 41
0001
0000
0000
1000
0000
0000
1010
0000
0000
0000
0000
0000
0000
0000
0000
0000
,  // measure 42
1000
0000
0000
0001
0000
0000
0011
0000
0000
0000
0000
0000
0000
0000
0000
0000
,  // measure 43
0101
0000
0000
0101
0000
0000
0000
0000
1100
0000
0000
1100
0000
0000
0000
0000
,  // measure 44
1000
0000
0000
0001
0000
0000
0110
0000
0000
0000
0000
0000
0001
0000
1000
0000
,  // measure 45
1010
0000
0000
0010
0000
0000
1000
0000
1100
0000
0000
0100
0000
0000
0010
0000
,  // measure 46
0011
0000
0000
0001
0000
0000
0100
0000
0110
0000
0000
0010
0000
0000
1000
0000
,  // measure 47
1010
0000
0000
1010
0000
0000
1010
0000
0101
0000
0000
0101
0000
0000
0101
0000
,  // measure 48
0011
0000
0000
0110
0000
0000
1100
0000
0110
0000
0000
0011
0000
0010
0200
0000
,  // measure 49
0000
0000
0000
0300
,  // measure 50
1100
0000
0000
0110
0000
0000
0011
0000
0000
0000
0000
0000
0000
0000
0000
0000
,  // measure 51
0011
0000
0000
0110
0000
0000
1100
0000
0000
0000
0000
0000
0000
0000
0000
0000
,  // measure 52
1001
0000
0000
0101
0000
0000
0000
0000
1001
0000
0000
1100
0000
0000
0000
0000
,  // measure 53
1001
0000
0000
1001
0000
0000
1001
0000
0000
0000
0000
0000
0001
0000
0100
0000
,  // measure 54
0110
0000
0000
1010
0000
0000
0110
0000
0000
0000
0000
0000
0000
0000
0000
0000
,  // measure 55
0110
0000
0000
0101
0000
0000
0110
0000
0000
0000
0000
0000
0000
0000
0000
0000
,  // measure 56
0100
0000
0000
0100
0000
0000
0100
0000
0010
0000
0000
0010
0000
0000
0010
0000
,  // measure 57
0100
0000
0000
0001
0000
0000
1000
0000
0010
0000
0000
0100
0000
0001
0010
0000
,  // measure 58
0200
0000
0000
1000
0000
0000
0310
0000
0000
0000
0000
0000
0000
0000
0000
0000
,  // measure 59
0020
0000
0000
0001
0000
0000
0130
0000
0000
0000
0000
0000
0000
0000
0000
0000
,  // measure 60
0020
0000
0000
0001
0000
0000
0130
0000
2000
0000
0000
0010
0000
0000
3001
0000
,  // measure 61
0200
0000
0000
0010
0000
0000
0301
0000
0000
0000
0000
0000
0010
0000
0100
0000
,  // measure 62
2000
0000
0000
0010
0000
0000
3001
0000
0002
0000
0000
0100
0000
0000
1003
0000
,  // measure 63
2000
0000
0000
0010
0000
0000
3001
0000
0002
0000
0000
0010
0000
0000
1003
0000
,  // measure 64
1200
0000
0000
1000
0000
0000
1300
0000
0021
0000
0000
0001
0000
0000
0031
0000
,  // measure 65
0102
0000
0000
0100
0000
0000
1003
0000
2100
0000
0000
0100
0000
3100
0010
0000
,  // measure 66
0001
1000
0000
0000
0010
0000
0000
0100
0000
0000
0001
0000
0000
0010
0000
0000
,  // measure 67
0100
0010
0000
0000
0100
0000
0000
1000
0000
0000
0001
0000
0100
0000
0001
0000
,  // measure 68
1000
0100
0000
0000
0010
0000
0000
0100
0000
0000
1000
0000
0000
0100
0000
0010
,  // measure 69
0001
1000
0100
0001
0100
0010
0001
1000
,  // measure 70
0010
0000
0000
1000
0000
0000
0001
0000
,  // measure 71
0000
0010
0000
0000
0100
0010
0001
1000
,  // measure 72
0100
0000
0000
1000
0000
0000
0010
0010
,  // measure 73
0000
0200
0320
0032
0023
2030
3002
0023
,  // measure 74
0030
0000
0000
0000
;

//---------------dance-single - ---------------
#NOTES:
     dance-single:
     :
     Hard:
     14:
     0,0,0,0,0:
// measure 0
0000
0000
0000
0000
,  // measure 1
0000
0000
0000
0000
,  // measure 2
0000
0000
0000
0000
,  // measure 3
0000
0000
0000
0000
,  // measure 4
0000
0000
0000
0000
,  // measure 5
0001
0100
0000
0000
0010
0000
0000
1000
0000
0000
0001
0000
0000
0010
0000
0100
,  // measure 6
1000
0010
1000
0010
0100
0010
0100
0010
1000
0001
1000
0001
1000
0100
0010
0001
,  // measure 7
1000
0000
0000
0000
,  // measure 8
0001
0100
0000
0000
0010
1000
0000
0000
0001
0100
0000
0000
0010
1000
0001
0010
,  // measure 9
0100
0000
0010
0000
0001
0000
0000
0000
0010
0000
0000
0010
0100
0000
0000
0000
,  // measure 10
1000
0001
0100
0000
0010
0001
0010
1000
,  // measure 11
0001
0000
0010
0000
0100
0000
0000
0000
0010
0000
0000
0010
0001
0000
0000
0000
,  // measure 12
0010
0000
1000
0000
0010
0001
0000
1100
0000
1000
0010
0000
0100
0000
0000
0000
,  // measure 13
0001
0000
0000
0000
1000
0000
0000
0000
0010
0000
0000
0000
0100
0000
0000
0001
,  // measure 14
0000
0000
0100
0000
0000
0010
0000
1000
0010
0000
0000
0100
0000
0000
0001
0000
,  // measure 15
1000
0000
0000
0000
0100
0000
0000
0000
0010
0000
0000
0000
0100
0000
0000
1000
,  // measure 16
0000
0000
0001
0000
0000
0100
0000
0001
0010
0001
0010
0001
1000
0100
0010
0001
,  // measure 17
1000
0000
0100
0000
0010
0000
0100
0000
0000
0000
1000
0001
1000
0000
0000
0000
,  // measure 18
0001
0010
0000
0100
0010
0001
0010
0100
,  // measure 19
1000
0000
0010
0000
0100
0000
1000
0000
0000
0000
0100
0010
0100
0000
0001
0000
,  // measure 20
0000
0010
1000
0010
0001
0100
1000
0100
,  // measure 21
0001
0000
0100
0000
0010
0000
1000
0000
0000
0000
0001
0010
0001
0000
0000
0000
,  // measure 22
1000
0100
0000
0010
1000
0010
0001
1000
,  // measure 23
0100
0000
0010
0000
0001
0000
1000
0000
0000
0000
0010
0100
0010
0000
1000
0000
,  // measure 24
0000
1000
0001
0010
1000
0010
0001
1000
,  // measure 25
0010
0000
0000
0100
0000
0000
0001
0000
,  // measure 26
0000
1000
0000
0000
0001
0100
0010
1000
,  // measure 27
0001
0000
0000
1000
0000
0000
0010
0010
,  // measure 28
0000
0100
1000
0100
0001
0010
1000
0010
,  // measure 29
0002
0000
0000
0000
0000
0000
0013
0000
0000
0000
0000
0100
2000
0000
0000
0000
,  // measure 30
0000
3100
0000
0000
1000
0100
0010
0001
,  // measure 31
2000
0000
0000
0000
0000
0000
3001
0000
0000
0000
0000
1000
0010
0000
2000
0000
,  // measure 32
0000
3001
0010
1000
0010
0001
0100
1000
,  // measure 33
0100
0000
0000
0001
0000
0010
0100
0000
0000
0000
0000
0000
0000
0000
0000
0000
,  // measure 34
0010
0000
0000
0100
0000
1000
0010
0000
0000
0000
0000
0000
0000
0000
0100
0010
,  // measure 35
1000
0000
0000
0001
0000
0000
0000
0000
1000
0000
0000
1000
0000
0000
0010
0000
,  // measure 36
0100
0000
0000
0001
0000
0000
0100
0000
0000
0000
0000
0000
0010
0100
0001
1000
,  // measure 37
0100
0000
0000
0010
0000
0100
0010
0000
0000
0000
0000
0000
0000
0000
0000
0000
,  // measure 38
0100
0000
0000
0010
0000
0001
1000
0000
0000
0000
0000
0000
0000
0100
0010
0100
,  // measure 39
0010
0000
0000
0100
0000
0000
0100
0000
1000
0000
0000
1000
0000
0000
1000
0000
,  // measure 40
0010
0000
0000
0010
0000
0000
0010
0000
0100
0000
0000
0100
0000
0100
0001
1000
,  // measure 41
0100
0010
0000
0000
0001
0000
0000
1000
0000
0000
0100
0000
0000
0010
0000
0000
,  // measure 42
0001
1000
0000
0000
0010
0000
0000
1000
0000
0000
0001
0000
0100
0000
0001
0000
,  // measure 43
1000
0001
0000
0000
0010
0000
0000
0100
0000
0000
0010
0000
0000
0001
0000
0000
,  // measure 44
1000
0010
0000
0000
0100
0000
0000
0001
0000
0000
1000
0000
0001
1000
0100
0010
,  // measure 45
0002
0000
0000
0100
0000
0000
1003
0000
2000
0000
0000
0100
0000
0000
3001
0000
,  // measure 46
0020
0000
0000
0001
0000
0000
0130
0000
0200
0000
0000
0001
0000
0000
1300
0000
,  // measure 47
2100
0000
0000
3010
0000
0000
0100
0000
0102
0000
0000
0013
0000
0000
0100
0000
,  // measure 48
1000
0001
1000
0001
1000
0001
1000
0001
1000
0001
1000
0001
0100
0010
1000
0001
,  // measure 49
0100
0000
0000
0000
0001
0010
0000
1100
0000
0011
0000
0000
1001
0000
0000
0000
,  // measure 50
1100
0000
0100
0010
0000
0010
0001
0000
1000
0000
0001
0100
0010
0000
0000
0000
,  // measure 51
1000
0000
0010
0100
0000
0100
0001
0000
1000
0000
0100
0000
0010
0000
0001
0000
,  // measure 52
1000
0000
0100
0010
0000
0000
0010
0000
0001
0000
0100
0010
0000
0000
0100
0000
,  // measure 53
0010
0000
1000
0100
0000
1000
0001
0000
0000
0000
0000
0000
0010
0100
1000
0001
,  // measure 54
1000
0000
0001
0010
0000
0010
0100
0000
0000
0000
0000
0010
0001
0000
0000
0000
,  // measure 55
0100
0000
0100
0010
0000
0010
1000
0000
0100
0000
0000
1000
0000
0000
0001
0000
,  // measure 56
0100
0000
0001
0100
0000
0100
0010
0000
0100
0000
0001
1000
0000
1000
0100
0000
,  // measure 57
0010
0000
0100
1000
0000
0001
0100
0000
0001
0000
1000
0100
0000
0010
0100
0000
,  // measure 58
1000
0000
0100
0010
0000
0001
1000
0000
0000
0000
0000
0010
1000
0000
0000
0000
,  // measure 59
0001
0000
1000
0010
0000
0100
0010
0000
0000
0000
0000
0000
0100
0000
0001
0000
,  // measure 60
0010
0000
0100
0010
0000
0100
1000
0000
0001
0000
0100
0010
0000
0100
0001
0000
,  // measure 61
1000
0000
0001
0010
0000
0100
1000
0000
0000
0000
0000
0000
0001
0100
0010
0100
,  // measure 62
0010
0000
1000
0010
0000
0010
0100
0000
0001
0000
0010
0100
0000
0100
1000
0000
,  // measure 63
0001
0000
1000
0100
0000
0100
0010
0000
0001
0000
0010
0001
0000
0001
0100
0000
,  // measure 64
0101
0000
0000
1010
0000
0000
1001
0000
1100
0000
0000
0011
0000
0000
1001
0000
,  // measure 65
0101
0000
0000
0011
0000
0000
0110
0000
1100
0000
0000
0110
0000
0010
0001
0000
,  // measure 66
1000
0010
0000
0000
0100
0000
0000
0001
0000
0000
1000
0000
0000
0100
0000
0000
,  // measure 67
1000
0001
0000
0000
0100
0000
0000
0001
0000
0000
0001
0000
0100
0000
1000
0000
,  // measure 68
0100
0001
0000
0000
1000
0000
0000
0100
0000
0000
0010
0001
1000
0000
0100
0000
,  // measure 69
0010
0001
0010
0001
1000
0010
1000
0010
0100
0010
0100
0010
0100
0001
1000
0100
,  // measure 70
0010
0000
0000
0100
0000
0000
1000
0000
,  // measure 71
0000
0001
0000
0000
0100
1000
0100
0001
,  // measure 72
1000
0000
0000
0001
0000
0000
0010
0100
,  // measure 73
0000
0000
0200
0000
0002
0300
0200
0003
2000
0300
0020
3000
0002
0030
0020
0003
,  // measure 74
0030
0000
0000
0000
;

//---------------dance-single - ---------------
#NOTES:
     dance-single:
     :
     Challenge:
     15:
     0,0,0,0,0:
// measure 0
0000
0000
0000
0000
,  // measure 1
0000
0000
0000
0000
,  // measure 2
0000
0000
0000
0000
,  // measure 3
0000
0000
0000
0000
,  // measure 4
0000
0000
0000
0000
,  // measure 5
0001
1000
0000
0000
0100
0000
0000
0100
0000
0000
0100
0000
0000
0100
0000
0100
,  // measure 6
0010
0001
0010
0001
1000
0001
1000
0001
0010
0100
0010
0100
1000
0100
1000
0001
,  // measure 7
0100
0100
0100
0100
,  // measure 8
0001
1000
0001
1000
0000
0000
0010
0100
0010
0100
0000
0000
0001
1000
0001
1000
0000
0000
0010
0100
0010
0100
0010
0100
,  // measure 9
0010
0000
1000
0001
1000
0100
0010
0100
0000
1000
0000
0010
0001
0000
0010
0000
,  // measure 10
0100
0000
0010
0100
0001
0100
0000
0001
0000
1000
0000
0100
0001
0000
0100
0000
,  // measure 11
1000
0000
0001
1000
0001
0010
0000
0100
0000
0010
0000
0100
0001
0000
0100
0000
,  // measure 12
1000
0000
0000
0000
0000
0000
0010
0000
0000
1000
0000
0000
0010
0000
0000
0100
0000
0000
0000
0000
0000
1001
0000
0000
0000
0000
0000
0000
0000
0000
0001
0000
0100
0000
0001
0000
0100
0000
0000
0000
0000
0000
0010
0000
0000
0000
0000
0000
,  // measure 13
1010
0000
0000
0000
0101
0000
0000
0000
0011
0000
0000
0000
0110
0000
0000
1100
,  // measure 14
0000
0000
0110
0000
0000
1100
0000
1000
0010
0000
0000
0110
0000
0000
0101
0000
,  // measure 15
1001
0000
0001
1000
0010
0000
0010
1000
0001
0000
0010
0100
1000
0000
0100
0010
,  // measure 16
0001
0000
0000
0100
0000
0000
0001
0000
0000
0100
0000
0000
0010
0000
0000
0100
0000
0000
0010
0000
0000
1000
0000
0000
0001
0000
0000
0100
0000
0000
0010
0000
0000
1000
0000
0000
0100
0000
0010
0000
0100
0000
0010
0000
0100
0000
0010
0000
,  // measure 17
0100
0000
0010
0000
0001
0000
1000
0000
0001
0000
0010
0100
0010
0000
0001
0000
,  // measure 18
1000
0010
0100
0010
1000
0100
0010
0001
,  // measure 19
0100
0000
0010
0000
0100
0000
0010
0000
1000
0000
0001
0100
0010
0000
0100
0000
,  // measure 20
0001
1000
0010
1000
0001
0001
1000
1000
,  // measure 21
0001
0000
0010
0000
0100
0000
0010
0000
0001
0000
1000
0100
0010
0000
0100
0000
,  // measure 22
0010
0001
0010
0001
1000
0100
0010
0001
,  // measure 23
1000
0000
0010
0000
1000
0000
0100
0000
1000
0000
0001
0010
0100
0000
0010
0000
,  // measure 24
0001
1000
0100
0010
0001
0010
0001
0010
,  // measure 25
0100
0000
0000
0000
0010
0000
0000
0000
0100
0000
0000
1000
0100
0000
0000
0000
,  // measure 26
0010
0000
0100
0000
1000
0001
0100
0001
,  // measure 27
1000
0000
0000
0000
0010
0000
0000
0000
0100
0000
0000
0001
1000
0000
0001
0000
,  // measure 28
1000
0100
1000
0001
0100
0001
1000
0100
,  // measure 29
2000
0000
0000
0100
0000
0000
0010
0000
,  // measure 30
0000
0001
0000
0000
3010
0100
0010
0100
,  // measure 31
0002
0000
0000
0100
0000
0000
0010
0010
,  // measure 32
0000
1003
0100
0010
0001
0100
0010
1000
,  // measure 33
0100
0000
0000
0100
0000
0100
0010
0000
0000
0000
0000
0000
0000
0000
0000
0000
,  // measure 34
0010
0000
0000
0010
0000
0010
0001
0000
0000
0000
0000
0000
0000
0000
0001
1000
,  // measure 35
0001
0000
0001
1000
0000
0000
0000
0000
1000
0000
1000
0010
0000
0000
0010
0000
,  // measure 36
0010
0000
0010
0100
0000
0100
0001
0000
0000
0000
0000
0000
0001
0100
0010
1000
,  // measure 37
0001
0000
0000
0001
0000
0001
0010
0000
0000
0000
0000
0000
0000
0000
0000
0000
,  // measure 38
0010
0000
0000
0010
0000
0010
0100
0000
0000
0000
0000
0000
0000
0100
1000
0001
,  // measure 39
1000
0000
0000
1000
0000
1000
0010
0000
0010
0000
0000
0010
0000
0010
0100
0000
,  // measure 40
0100
0000
0000
0100
0000
0100
0001
0000
0001
0000
0000
1000
0000
1000
0001
0100
,  // measure 41
0010
1000
0000
0000
1001
0000
0000
0011
0000
0000
1001
0000
0000
1010
0000
0000
,  // measure 42
1000
0100
0000
0000
0110
0000
0000
0011
0000
0000
0110
0000
1100
0000
0011
0000
,  // measure 43
0001
0100
0000
0000
0110
0000
0000
1010
0000
0000
0101
0000
0000
1001
0000
0000
,  // measure 44
1000
0100
0000
0000
0110
0000
0000
0011
0000
0000
1001
0000
0001
1000
0010
1000
,  // measure 45
0100
0000
0100
0010
0000
0010
0001
0000
1000
0000
0001
0100
0000
0100
0010
0000
,  // measure 46
0100
0000
0001
0100
0000
0100
0010
0000
1000
0000
1000
0010
0000
0010
0100
0000
,  // measure 47
0001
0000
1000
0100
0000
1000
0001
0000
1000
0000
0001
0100
0000
0001
1000
0000
,  // measure 48
0001
0000
0000
0000
0000
0000
0010
0000
0000
0100
0000
0000
0000
0000
0000
1000
0000
0000
0001
0000
0000
0000
0000
0000
0100
0000
0000
0000
0000
0000
0001
0000
1000
0000
0001
0000
1000
0000
0000
0100
0000
0000
1000
0000
0000
0001
0000
0000
,  // measure 49
0000
0000
0000
0000
0000
0000
0000
0000
1000
0000
0020
0030
0000
0000
0020
0030
0000
0000
0001
0000
0000
0000
0000
0000
1001
0000
0000
0000
0000
0000
0000
0000
,  // measure 50
0201
0000
0000
1000
0000
0301
1000
0000
0100
0000
0010
0100
1000
0000
0001
0000
,  // measure 51
0020
0000
0000
1000
0000
0031
1000
0000
0010
0000
0100
0001
1000
0000
0100
0000
,  // measure 52
0020
0000
0000
0001
0000
0000
1030
0000
1020
0000
0000
0001
0000
0000
0130
0000
,  // measure 53
2100
0000
0000
0001
0000
0000
3001
0000
0000
0000
0000
0000
1000
0010
1000
0100
,  // measure 54
0020
0000
0000
1000
0000
0000
0031
0000
0000
0000
0000
1000
0010
0000
0100
0000
,  // measure 55
0210
0000
0000
1000
0000
0000
0301
0000
1000
0000
0000
1000
0000
0000
1000
0000
,  // measure 56
1100
0000
0100
1000
0100
0000
0100
0010
0100
0000
0010
0001
0010
0000
0010
0100
,  // measure 57
0010
0001
0010
0001
1000
0010
1000
0010
0100
0001
0100
0010
1000
0010
0100
0001
,  // measure 58
1000
0000
0001
1000
0000
0100
0010
0000
0100
0000
1000
0100
0001
0000
0100
0000
,  // measure 59
1000
0000
1000
0001
0000
0010
0100
0000
0010
0000
0001
0000
1000
0000
0000
0000
,  // measure 60
0100
0000
1000
0001
0000
0001
0010
0000
0100
0000
0100
0010
0000
0010
0001
0000
,  // measure 61
0010
0000
0010
0100
0000
0100
1000
0000
0001
0000
1000
0000
0010
0100
0001
1000
,  // measure 62
0001
0000
1000
0100
0000
0001
0100
0000
1001
0000
1000
0010
0000
0001
0010
0000
,  // measure 63
1010
0000
0001
0100
0000
1000
0100
0000
0101
0000
0001
0010
0000
1000
0010
0000
,  // measure 64
0011
0000
0000
0101
0000
0000
1001
0000
1100
0000
0000
1001
0000
0000
0101
0000
,  // measure 65
1001
0000
0000
1010
0000
0000
1100
0000
0110
0000
0000
0011
0000
0001
1000
0000
,  // measure 66
0010
1000
0000
0000
1100
0000
0000
0110
0000
0000
0011
0000
0000
0110
0000
0000
,  // measure 67
0100
1000
0000
0000
1001
0000
0000
0110
0000
0000
0101
0000
0110
0000
1001
0000
,  // measure 68
0001
0010
0000
0000
0110
0000
0000
0011
0000
0000
0110
0000
0000
1100
0000
1000
,  // measure 69
0001
0100
0001
1000
0010
1000
0010
0100
0010
1000
0010
1000
0010
0100
0010
0100
,  // measure 70
0001
0000
0000
1000
0000
0000
0100
0000
,  // measure 71
0000
0010
0000
0000
0100
1000
0001
1000
,  // measure 72
0001
0000
0000
1000
0000
0000
0100
0100
,  // measure 73
0000
2000
3200
0320
0230
2300
3002
0200
,  // measure 74
0303
0000
0000
0000
;
