#TITLE:FUNKAHOLIC;
#SUBTITLE:;
#ARTIST:PROUX x Discoholic;
#TITLETRANSLIT:;
#SUBTITLETRANSLIT:;
#ARTISTTRANSLIT:;
#GENRE:;
#CREDIT:;
#MUSIC:FUNKAHOLIC.ogg;
#BANNER:FUNKAHOLIC-bn.png;
#BACKGROUND:FUNKAHOLIC-bg.png;
#CDTITLE:;
#SAMPLESTART:35.814;
#SAMPLELENGTH:16.073;
#SELECTABLE:YES;
#OFFSET:-0.060;
#BPMS:0.000=120.000;
#STOPS:;
#BGCHANGES:;
#FGCHANGES:;

//--------------- dance-single - Pandemonium X ----------------
#NOTES:
     dance-single:
     Pandemonium X:
     Beginner:
     4:
     0,0,0,0,0:
0000
0000
0000
0000
,
0000
0000
0000
0000
,
0000
0000
0000
0010
,
0000
0000
0000
0010
,
0000
0010
0000
0010
,
1000
0001
1001
0000
,
0001
0000
1000
0000
,
0001
0000
1000
0000
,
0001
0000
1000
0000
,
0010
0010
0010
0000
,
0100
0000
0000
0000
,
0010
0000
0010
0000
,
0100
0000
0001
0000
,
1000
1000
1000
0000
,
0001
0000
0000
0000
,
0010
0000
0000
0000
,
0100
0000
0100
0000
,
1000
0000
0000
0000
,
0001
0000
1000
0000
,
0100
0000
0020
0030
,
0001
0000
0001
0000
,
1000
0001
1001
0000
,
1000
0000
0001
0000
,
0100
0000
0020
0030
,
0100
0000
0010
0000
,
1000
0001
1001
0000
,
0002
0003
0000
0010
,
0100
0000
0000
0100
,
1000
0000
0001
0000
,
0100
0001
0100
0000
,
0010
0000
0010
0000
,
1000
0001
1000
0100
,
1000
0000
0001
0000
,
0100
0100
0100
0000
,
0020
0030
0100
0001
,
2000
3000
0001
1000
,
0100
0000
1000
0000
,
0001
0001
0002
0003
,
0200
0300
0010
0000
,
2000
3000
0100
0000
,
0010
0000
0100
0000
,
1000
1000
1000
0000
,
0001
0000
0100
0000
,
0010
0000
0100
0000
,
0001
0000
1000
0000
,
0100
0000
0110
0000
,
0100
0100
0100
0000
,
1000
0000
0001
0000
,
0100
0100
0100
0000
,
0010
0000
0100
0000
,
0001
1000
1001
0000
,
1000
0000
1000
0000
,
0001
1000
0001
0000
,
0100
0000
0010
0000
,
0100
0010
0110
0000
,
0001
0000
0000
0000
,
1000
0000
0000
0000
,
0010
0000
0000
0000
,
0100
0000
0010
0000
,
1000
0000
0000
0000
,
0001
0000
0000
0000
,
1000
0000
0000
0000
,
0010
0000
0100
0000
,
0001
0000
0000
0000
;

//--------------- dance-single - Pandemonium X ----------------
#NOTES:
     dance-single:
     Pandemonium X:
     Easy:
     6:
     0,0,0,0,0:
0000
0000
0000
0000
,
0000
0000
0000
0000
,
0000
0000
0000
1001
,
0000
0000
0000
1001
,
0000
1001
0000
1001
,
0002
0203
0020
0330
,
0010
0000
0200
0300
,
0001
0000
2000
3000
,
0100
0000
0020
0030
,
0100
0100
1000
0000
,
0002
0100
0103
0000
,
0020
0100
0130
0000
,
0002
1000
1003
0000
,
0001
1000
0110
0000
,
0001
1000
0100
0000
,
1000
0001
0100
0000
,
0001
0000
1000
0000
,
0020
0000
0000
0030
,
1000
0100
0010
0001
,
0010
0100
2000
3000
,
0101
0000
1100
0000
,
0001
1000
0110
0000
,
0001
1000
0100
0000
,
1000
0001
0100
0000
,
1001
0000
0110
0000
,
1001
0110
1001
0000
,
1000
0001
0100
0000
,
0001
1000
0010
1000
,
0100
0100
0010
0010
,
0001
0010
0100
1000
,
0001
0000
1000
0000
,
0001
0100
0010
0000
,
0100
0000
0010
0000
,
0100
0001
1000
0000
,
0002
0003
1000
0001
,
0200
0300
0010
1000
,
0100
0010
0100
1000
,
0001
0000
1000
0000
0200
0000
0000
0300
,
0020
0030
0001
0010
,
0002
0003
1000
0010
,
0100
0100
0010
0010
,
1000
0001
1000
0000
,
0001
0010
0100
1000
,
0001
1001
1000
1001
,
0001
0100
0010
1000
,
0100
0100
0010
0010
,
0001
0100
0010
0000
,
1010
0000
0011
0000
,
1001
0010
1001
0000
,
0101
0000
1100
0000
,
1001
0110
1001
0000
,
0101
0000
1100
0000
,
1001
0100
1001
0000
,
1010
0000
0011
0000
,
1001
0110
2002
3003
,
0002
0003
1000
0001
,
0200
0300
0010
1000
,
0100
1000
0001
0100
,
0020
0000
0000
0030
,
0200
0300
0010
1000
,
0020
0030
0100
0001
,
0100
0000
0001
0000
,
1000
0001
0200
0300
,
0010
0000
0000
0000
;

//--------------- dance-single - Pandemonium X ----------------
#NOTES:
     dance-single:
     Pandemonium X:
     Medium:
     9:
     0,0,0,0,0:
0000
0000
0000
0000
,
0000
0000
0000
0000
,
0001
1000
0001
0110
,
1000
0001
1000
0110
,
0001
0110
1000
0110
,
1001
0101
2002
3003
,
1000
0100
1000
0000
0001
0100
0001
0000
,
1000
0010
1000
0000
0001
0010
0001
0000
,
1000
0100
0010
0000
0100
0010
0001
0000
,
0010
0100
0010
0001
1001
0000
0110
0000
,
1000
0010
0100
0000
0010
0000
1010
0000
,
0001
0010
0100
0000
0010
0000
0011
0000
,
0001
1000
0010
0000
1000
0000
1100
0000
,
1000
0001
0100
0001
2000
0000
3100
0000
,
0010
0001
0100
0010
1000
0000
1001
0000
,
1000
0010
0100
0001
1000
0000
1001
0000
,
1000
0100
1000
0000
0001
0100
0001
0000
,
0020
0000
0000
0030
,
0100
0000
0000
0100
0000
0000
0100
0000
1000
0000
0000
1000
0000
0000
1000
0000
,
0001
0000
0000
0001
0000
0000
0001
0000
2000
0000
0000
0000
3000
0000
0000
0000
,
0001
0100
0001
0000
1000
0010
1000
0000
,
0011
1010
1001
0000
,
0001
0000
0000
0000
1000
0000
0000
0001
0000
0000
0000
0000
0010
0000
0100
0000
,
1000
0000
0000
0100
0000
0000
1000
0000
0020
0000
0000
0000
0030
0000
0000
0000
,
0101
0000
1010
0000
1000
0010
0100
0000
,
0001
0010
0100
1000
1001
0000
0000
0000
,
0001
0100
0001
1000
,
0100
1000
0001
0100
,
0101
0000
0011
0000
0010
0100
1000
0000
,
1100
0000
1010
0000
0010
0100
0010
0000
,
1000
0000
0001
0000
0010
0100
1000
0000
,
0100
0000
1000
0000
0001
1000
0100
0000
,
0010
0000
0100
0000
0010
0001
0100
0000
,
0020
0230
0002
0303
,
2001
0000
3001
0100
,
0020
0000
0130
0001
,
1000
0100
0010
0001
,
0010
0100
0020
0030
,
0002
0000
1003
0100
,
0020
0000
0130
1000
,
0100
0010
0001
0100
,
0001
0100
0010
1001
,
1000
0001
0100
0001
,
0020
0000
0230
0000
0320
0000
0031
0100
,
0020
0000
0230
0000
0320
0000
1030
0001
,
0200
0301
0200
0310
,
1000
0010
0100
0001
2000
0000
3000
0000
,
0001
0000
0000
0001
0000
0000
0001
0000
1000
0000
0000
1000
0000
0000
1000
0000
,
0001
0100
0001
1000
0100
0000
0100
0000
,
1100
0000
1010
0000
1000
0010
0100
0000
,
0010
0100
0001
0010
0100
0000
1100
0000
,
0001
0000
0000
0001
0000
0000
0001
0000
1000
0000
0000
1000
0000
0000
1000
0000
,
0001
0100
0010
0100
0001
0000
0010
0000
,
0011
0000
0101
0000
0001
0100
0001
0000
,
0001
0010
0100
1000
0001
0000
1000
0000
,
0002
0003
0100
0010
,
0200
0300
0010
0100
,
0001
0010
0100
0010
,
0100
1000
0001
1000
,
0020
0030
0100
0010
,
2000
3000
0001
1000
,
0100
1000
0001
0100
,
0001
0000
1000
0000
0001
1000
1000
0000
,
0010
0000
0000
0000
;

//--------------- dance-single - Pandemonium X ----------------
#NOTES:
     dance-single:
     Pandemonium X:
     Hard:
     12:
     0,0,0,0,0:
0000
0000
0000
0000
,
0000
0000
0000
0000
,
1000
0001
0000
0000
0000
0000
1000
0000
0000
0000
0000
0000
1100
0000
0100
0000
,
1000
0000
0000
0000
0000
0000
0001
0010
0000
0000
0000
0000
0101
0000
0000
0000
,
0010
0000
1001
0000
0100
0000
1001
0002
,
2003
0010
0002
3003
,
1000
0000
0100
1000
0000
0001
0000
0000
0001
0000
0100
0001
0000
1000
0000
0000
,
0001
0000
0100
0010
0000
0100
0000
0000
0001
0000
0010
0100
0000
0010
0100
0000
,
1000
0000
1000
0001
0000
0010
0000
0000
0001
0000
0001
1000
0000
0010
0000
0000
,
0100
0000
0010
0100
0010
0000
1000
0001
1000
0000
0000
0000
1001
0000
0000
0000
,
1000
0000
0100
0000
0000
1000
0000
0000
0010
0000
0000
0000
0101
0000
0000
0000
,
0001
0000
1000
0000
0000
0100
0000
0000
1000
0000
0000
1000
0000
0000
1000
0000
,
0001
0000
0100
0000
0000
0001
0000
0000
0010
0000
0000
0000
1001
0000
0000
0000
,
0001
0000
0100
0000
0001
0000
1000
0200
0000
0000
0000
0000
0310
0000
0100
0000
,
1000
0100
0010
0001
1000
0000
1001
0000
,
1000
0001
0010
0100
1000
0000
1001
0000
,
0001
0100
0001
0010
0001
0100
0010
1000
,
0200
2300
0002
3003
,
1001
0000
0000
1000
0000
0000
0100
0000
0010
0000
0000
0100
0000
0000
1000
0000
,
0001
0000
0000
0100
0000
0000
0001
0000
2000
0000
0000
0000
3100
0000
1000
0000
,
0001
0000
0100
0001
0000
0100
0001
0000
1000
0000
0100
1000
0000
0100
1000
0000
,
0001
0000
1000
0000
0001
0000
0010
0100
0000
0000
0000
0000
1001
0000
0000
0000
,
1020
0100
1030
1001
,
0201
0000
0010
0010
0320
0000
0130
0001
,
0011
0000
1010
0000
1001
1000
0001
0000
,
1000
0100
0010
0001
1000
0000
0110
0000
,
0002
0000
1000
0003
0000
0100
0000
0000
0010
0000
0000
0000
1100
0000
0000
0000
,
0100
0000
1000
0000
0000
0100
0000
0000
0010
0000
0001
0000
0100
0000
0000
0000
,
1002
0103
2001
3100
,
1000
0010
0100
0001
0010
0000
0100
0010
,
0001
0000
0010
0100
0000
0010
0001
0000
1000
0000
0010
0100
0000
0010
1000
0000
,
0001
0000
0010
0000
0001
0000
0100
0020
0000
0000
0100
0000
0130
0000
0000
0000
,
0001
0000
1000
0001
0000
0100
0001
0000
1000
0000
0001
1000
0000
0100
1000
0000
,
0020
0000
2030
0000
3002
0000
0013
0001
,
0012
0000
0000
0000
0000
0000
0000
0000
1003
0000
0100
0000
1000
0000
0010
0200
,
0000
0000
0001
0000
0310
1000
0001
0020
,
0000
0130
0020
0000
0230
0000
2300
0000
,
3001
0100
0001
0020
0200
0000
0330
0000
,
2000
0000
3010
0000
1000
0001
1000
0200
,
0010
0000
1300
0000
1000
0100
1000
0002
,
0000
1003
0020
0000
0100
0000
1000
0000
,
0130
1000
0100
0002
0000
0010
0013
0000
,
0001
0000
1000
0001
0000
1000
0001
1000
0000
0001
1000
0010
0000
0010
0100
0000
,
0201
0001
0010
1000
,
0310
1000
0002
0000
0013
0100
1000
0001
,
0012
0000
0103
0000
2010
0000
3001
1000
,
0010
0100
0010
0100
0010
0000
1000
0000
0200
0000
0000
0000
0310
0000
0000
0000
,
0001
0000
0100
0001
0000
0100
0010
0000
1000
0000
0100
1000
0000
0100
0010
0000
,
0100
0000
0010
0000
0001
0000
1000
0002
0000
0000
0000
0000
1003
0000
0001
0000
,
0101
0000
1100
0000
1001
0001
1000
0000
,
0001
0010
0100
1000
0001
0000
1001
0000
,
1000
0000
0010
0100
0000
0100
0001
0000
1000
0000
0100
0010
0000
0100
1000
0000
,
0100
0000
0010
0000
0001
0000
1000
0002
0000
0000
0000
0000
1003
0000
0010
0000
,
1010
0000
0011
0000
1001
1000
0001
0000
,
0001
0010
0100
1000
0001
0000
1001
0000
,
2000
0000
0000
0000
0000
0000
0000
0000
3001
0000
0010
0000
0100
0000
1000
0200
,
0000
0000
0300
0000
0010
0100
1000
0002
,
0000
0103
0002
0000
0023
0000
0230
0000
,
2300
0001
0100
3001
,
2000
0000
0000
0000
3001
0000
0000
0000
0010
0000
0100
0000
1000
0000
0001
0200
,
0000
0000
0301
0000
1000
0100
0010
0100
,
2000
3002
0203
0320
,
1030
0100
0010
0001
2000
0001
3001
0000
,
0110
0000
0000
0000
;

//--------------- dance-single - Pandemonium X ----------------
#NOTES:
     dance-single:
     Pandemonium X:
     Challenge:
     13:
     0,0,0,0,0:
0000
0000
0000
0000
,
0000
0000
0000
0000
,
0001
0100
0000
0000
0000
0000
1010
0000
0000
0000
0000
0000
1000
0100
0010
0000
,
0001
1000
0000
0000
0000
0000
0100
1000
0000
0000
0000
0000
1001
0000
0000
0000
,
0010
0000
0000
0000
1001
0000
0000
0000
0100
0000
0000
0000
1001
0000
0002
0203
,
0320
0001
2030
3001
,
1000
0000
0000
0000
0000
0000
0000
0000
0001
0000
0000
0000
0020
0030
0000
0000
0000
0000
0000
0000
0020
0030
0000
0000
1000
0000
0000
0000
0000
0000
0000
0000
1001
0000
0000
0000
0000
0000
0000
0000
1000
0000
0000
0000
0200
0300
0000
0000
0000
0000
0000
0000
0200
0300
0000
0000
0001
0000
0000
0000
0000
0000
0000
0000
,
1001
0000
0000
0000
0000
0000
0000
0000
0001
0000
0000
0000
0020
0030
0000
0000
0000
0000
0000
0000
0020
0030
0000
0000
1000
0000
0000
0000
0000
0000
0000
0000
1001
0000
0000
0000
0000
0000
0000
0000
1000
0000
0000
0000
0200
0300
0000
0000
0000
0000
0000
0000
0200
0300
0000
0000
0001
0000
0000
0000
0000
0000
0000
0000
,
1001
0000
0000
0000
0000
0000
0000
0000
0001
0000
0000
0000
0020
0030
0000
0000
0000
0000
0000
0000
0020
0030
0000
0000
1000
0000
0000
0000
0000
0000
0000
0000
1001
0000
0000
0000
0000
0000
0000
0000
1000
0000
0000
0000
0200
0300
0000
0000
0000
0000
0000
0000
0200
0300
0000
0000
0001
0000
0000
0000
0000
0000
0000
0000
,
0101
0000
1000
0010
1000
0000
0001
0010
0001
0000
0000
0000
1001
0000
0000
0000
,
0001
0000
1000
0000
1000
0100
0000
0100
0010
0000
0000
0000
0011
0000
0000
0000
,
1001
0000
0001
0000
0001
0010
0100
0010
0100
0000
0100
1000
0000
1000
0010
0000
,
0100
0000
0010
0000
0100
0001
0000
0001
0010
0000
0000
0000
1100
0000
0000
0000
,
0001
0000
1000
0000
0100
0000
0010
0200
0000
0000
0000
0000
1300
0000
0001
0000
,
2000
3000
0200
0300
0002
0003
0020
0030
2000
3000
0000
0000
1001
0000
0000
0000
,
0002
0003
0200
0300
2000
3000
0020
0030
0002
0003
0000
0000
1001
0000
0000
0000
,
2000
3000
0200
0300
0002
0003
0020
0030
2000
3000
0000
0000
1001
0000
0000
0000
,
0002
0000
0000
0000
2003
0000
0000
0000
0200
0000
0000
3300
MMMM
0000
0000
0000
,
0021
0000
0000
0130
0000
0000
1000
0000
1020
0000
0000
0130
0000
0000
0001
0000
,
0021
0000
0000
0130
0000
0000
2000
0000
0002
0000
0000
0000
3003
0000
0000
0000
,
1001
0000
0000
0000
0000
0000
0000
0000
1000
0000
0000
0000
0020
0030
0000
0000
0000
0000
0000
0000
0020
0030
0000
0000
0001
0000
0000
0000
0000
0000
0000
0000
1001
0000
0000
0000
0000
0000
0000
0000
0001
0000
0000
0000
0200
0300
0000
0000
0000
0000
0000
0000
0200
0300
0000
0000
1000
0000
0000
0000
0000
0000
0000
0000
,
0001
0000
0100
0000
0010
0000
1000
0200
0000
0000
0000
0000
0310
0000
0000
0000
,
1001
0000
0000
0000
0101
0000
0000
1001
0000
0000
0000
0000
0001
0000
1000
0000
,
1010
0000
1000
0010
0000
0010
0100
0000
0020
0000
0000
0000
1030
0000
0000
0000
,
0101
0000
1100
0000
0101
1100
0101
0000
,
0002
0000
0203
0000
2300
0000
3020
0000
0002
0000
0000
0033
MMMM
0000
0000
0000
,
2002
0000
0000
0000
3003
0000
0000
0000
0000
0000
0001
0000
1000
0000
0010
0100
,
0000
0000
0000
0000
0000
0001
0100
0000
,
0011
0000
1010
0000
0011
1010
0011
0000
,
0001
0000
0010
0000
0100
0000
1000
0000
0100
0010
0100
1000
0001
0000
1000
0000
,
1001
0000
0000
0000
0000
0000
0000
0000
0001
0000
0000
0000
0020
0030
0000
0000
0000
0000
0000
0000
0020
0030
0000
0000
1000
0000
0000
0000
0000
0000
0000
0000
1001
0000
0000
0000
0000
0000
0000
0000
1000
0000
0000
0000
0200
0300
0000
0000
0000
0000
0000
0000
0200
0300
0000
0000
0001
0000
0000
0000
0000
0000
0000
0000
,
1001
0000
0001
0000
0010
0000
0100
2000
0000
0000
0001
0000
3100
0000
0000
0000
,
1001
0000
0000
0000
0000
0000
0000
0000
0001
0000
0000
0000
0200
0300
0000
0000
0000
0000
0000
0000
0200
0300
0000
0000
1000
0000
0000
0000
0000
0000
0000
0000
1001
0000
0000
0000
0000
0000
0000
0000
1000
0000
0000
0000
0020
0030
0000
0000
0000
0000
0000
0000
0020
0030
0000
0000
0001
0000
0000
0000
0000
0000
0000
0000
,
1000
0000
1000
0000
0001
0000
1000
0001
0010
0100
1000
0000
1100
0000
0011
0000
,
1002
0000
0000
0000
0100
0000
0000
0000
2003
0000
3200
0000
0320
0000
0032
2000
,
0000
0003
0010
0000
3200
0320
0230
2300
,
0000
3002
0203
0000
0302
0000
0023
0000
,
0230
0000
0000
0000
1000
0000
0000
0000
0040
0000
0000
0000
0330
0000
0000
2002
,
0000
0000
0003
0000
3002
0203
0302
2003
,
0100
0000
0001
3000
0200
0320
0230
2300
,
0000
3200
0320
0000
0001
0000
0130
0000
,
0200
0320
0032
2003
0000
3020
2030
0000
,
3001
0100
0010
1000
0000
0001
0010
0100
0010
0001
1000
0001
0000
0001
1000
0000
,
0201
0000
1300
0000
1200
0000
0301
1000
,
0100
0000
0000
0200
0320
0000
0000
0000
0001
0000
0000
0000
0130
1000
0001
0000
,
0021
0000
0000
0000
0000
0000
0000
0000
0000
0000
0000
0000
0000
0000
0000
0000
0000
0000
0000
0000
0000
0000
0000
0000
1000
0030
0000
0000
0000
0000
0000
0000
0000
0000
0000
0000
0000
0000
0000
0000
0000
0000
0000
0000
0000
0000
0000
0000
1020
0000
0000
0000
0000
0000
0000
0000
0000
0000
0000
0000
0000
0000
0000
0000
0000
0000
0000
0000
0000
0000
0000
0000
0031
0000
0000
0000
0000
0000
0000
0000
0000
0000
0000
0000
1000
0000
0000
0000
0000
0000
0010
0000
0000
0000
0000
0000
,
0001
0010
0100
0001
1000
0000
0001
0000
0220
0000
0000
0330
MMMM
0000
0000
0000
,
1001
0000
0000
0000
0000
0000
0000
0000
1000
0000
0000
0000
0020
0030
0000
0000
0000
0000
0000
0000
0020
0030
0000
0000
0001
0000
0000
0000
0000
0000
0000
0000
1001
0000
0000
0000
0000
0000
0000
0000
0001
0000
0000
0000
0200
0300
0000
0000
0000
0000
0000
0000
0200
0300
0000
0000
1000
0000
0000
0000
0000
0000
0000
0000
,
0002
0003
0200
0300
2000
3000
0020
0030
0002
0003
0000
0000
1001
0000
0000
0000
,
1100
0000
0101
0000
1100
0101
1100
0000
,
0002
0003
0200
0300
2000
3000
0020
0030
0002
0003
0000
0000
MMMM
0000
0000
0000
,
1001
0000
0000
0000
0000
0000
0001
0000
0000
0200
0300
0000
0000
0000
0000
0200
0300
0000
1000
0000
0000
0000
0000
0000
1001
0000
0000
0000
0000
0000
1000
0000
0000
0020
0030
0000
0000
0000
0000
0020
0030
0000
0001
0000
0000
0000
0000
0000
,
2000
3000
0020
0030
0002
0003
0200
0300
2000
3000
0000
0000
1001
0000
0000
0000
,
0011
0000
1010
0000
0011
1010
0011
0000
,
2000
3000
0020
0030
0002
0003
0200
0300
2000
3000
0000
0000
MMMM
0000
0000
0000
,
0201
0000
0000
0000
0000
0000
0300
0000
0001
0000
1000
0000
0100
0000
0010
0200
,
0000
0000
0000
0000
0000
0300
0000
0000
0010
0000
0100
0000
0010
0000
0002
0000
,
0000
0000
0103
0000
0002
0000
0000
0000
2003
0000
0000
0000
3200
0000
0000
0040
,
0000
0000
0000
0330
,
2001
0000
0000
0000
0000
0000
3000
0000
0001
0000
1000
0000
0001
0000
1000
0200
,
0000
0000
0300
0000
0010
0100
1000
0002
,
0000
1003
0200
0000
0320
0000
0230
0000
,
1300
0010
0100
0001
1000
1001
1001
0000
,
0100
0000
0000
0000
;
