#TITLE:EXE;
#SUBTITLE:;
#ARTIST:Mr. T;
#TITLETRANSLIT:;
#SUBTITLETRANSLIT:;
#ARTISTTRANSLIT:;
#GENRE:;
#CREDIT:;
#MUSIC:EXE.ogg;
#BANNER:EXE.png;
#BACKGROUND:EXE-bg.png;
#CDTITLE:;
#SAMPLESTART:24.743;
#SAMPLELENGTH:12.176;
#SELECTABLE:YES;
#OFFSET:1.080;
#BPMS:0.000=158.000;
#STOPS:;
#BGCHANGES:;
#FGCHANGES:;

//--------------- dance-single - Pandemonium.EXE ----------------
#NOTES:
     dance-single:
     Pandemonium.EXE:
     Beginner:
     4:
     0,0,0,0,0:
0000
0000
0000
0000
,
0000
0000
0000
0000
,
0000
0000
0000
0000
,
0000
0000
0000
0000
,
0000
0000
0000
0000
,
0001
0000
0000
0000
,
1000
0000
0000
0000
,
0001
0000
0000
0000
,
1000
0000
0010
0000
,
0100
0000
0100
0000
,
0010
0000
0010
0000
,
1000
0000
0000
0000
,
0001
0000
0000
0000
,
0010
0000
0010
0000
,
0100
0000
0100
0000
,
1000
0000
0000
0000
,
0001
0000
0000
0000
,
1000
0000
0000
0000
,
0000
0000
0001
0010
,
0001
0000
0000
0000
,
0000
0000
0010
0100
,
0010
0000
0000
0000
,
0000
0000
0100
1000
,
0100
0000
0000
0000
,
0000
0000
0000
0000
,
1000
0000
0000
0000
,
0000
0000
0010
0100
,
0010
0000
0000
0000
,
0000
0000
0100
0001
,
0100
0000
0000
0000
,
0000
0000
0001
0010
,
0001
0000
1000
0000
,
0010
0000
0100
0000
,
1001
0000
0000
0000
,
0001
0000
0000
0000
,
1000
0000
0000
0000
,
0010
0000
0000
0000
,
1000
0000
0000
0000
,
0100
0000
0000
0000
,
0010
0000
0000
0000
,
0001
1000
0001
0000
,
1000
0000
1000
0000
,
1000
1000
1000
0000
,
0001
0000
0001
0000
,
0001
0001
0001
0000
,
0110
0000
0100
0010
,
0100
0000
0010
0100
,
0010
0000
1000
0000
,
0001
0000
0000
0000
,
0100
0000
0000
0000
,
0000
0000
0000
0000
,
0010
0000
0000
0000
,
0000
0000
1000
0000
,
0001
0000
0000
0000
,
0000
0000
0010
0000
,
0100
0000
0000
0000
,
0000
0000
0000
0000
,
1000
0000
0001
0000
,
0010
0000
0000
0000
,
0001
0000
1000
0000
,
0010
0000
0000
0000
,
1000
0000
0001
0000
,
0100
0000
0001
0000
,
1000
0000
0000
0000
,
0000
0000
0000
0000
,
0010
1001
0001
0000
,
1000
0000
0001
0000
,
0010
0000
0100
0000
,
1000
0000
0100
0000
,
1000
0000
0010
0000
,
0100
0000
0001
0000
,
1000
0000
0001
0000
,
0100
0000
0010
0000
;

//--------------- dance-single - Pandemonium.EXE ----------------
#NOTES:
     dance-single:
     Pandemonium.EXE:
     Easy:
     6:
     0,0,0,0,0:
0000
0000
0000
0000
,
0000
0000
0000
0000
,
0000
0000
0000
0000
,
0000
0000
0000
0000
,
0000
0000
0000
0000
,
0001
0000
1000
0000
,
0100
0000
1000
0001
,
0100
0000
0010
0000
,
1000
0000
0002
0000
,
0013
0000
0001
0000
,
1000
0000
0100
0000
,
1000
0000
0010
0000
,
0100
0001
0010
0100
,
1000
0000
0010
0000
,
1000
0000
0001
0000
,
0010
0000
0001
0000
,
2000
0000
0000
3000
,
0001
0000
0000
0100
0100
0000
0000
0000
,
0000
0000
0010
1000
,
0001
0000
0000
0100
0100
0000
0000
0000
,
0000
0000
0010
1000
,
0100
0000
0000
0010
0010
0000
0000
0000
,
0000
0000
0100
1000
,
0000
0001
0000
0001
0000
1000
0000
1000
,
0000
0001
0000
1000
0000
0010
0000
0100
,
0001
0000
0000
0010
0010
0000
0000
0000
,
0000
0000
0100
1000
,
0001
0000
0000
0010
0010
0000
0000
0000
,
0000
0000
0001
0010
,
0100
0000
0000
1000
1000
0000
0000
0000
,
0000
0000
0001
0100
,
0000
0010
0000
0010
0000
0100
0000
0100
,
0000
0001
0000
1000
0010
0000
0100
0001
,
1000
0000
0000
1000
,
0100
0000
0000
0100
0000
0000
0010
0000
,
0001
0000
0000
0001
0000
0000
1000
0000
,
0010
0000
0000
0010
0000
0000
0100
0000
,
0001
1000
0000
0100
,
0000
0001
0000
0100
,
0000
1000
0000
0010
,
0001
0010
1000
0000
,
0000
0001
0100
1000
,
0100
0010
1000
0001
,
0000
0010
1000
0010
,
0002
0000
0003
1000
,
0001
0000
0100
0001
,
1000
0000
0100
1000
,
0001
1000
0100
0010
,
0001
0000
1000
0000
,
0010
0000
0000
0000
,
0000
0000
0100
0001
,
1000
0000
0000
0100
0100
0000
0000
0000
,
0000
0000
0010
0001
,
1000
0000
0000
0001
0001
0000
0000
0000
,
0000
0000
1000
0001
,
0000
0100
0000
0010
0000
1000
0000
0001
,
0000
0010
0000
0100
1000
0000
0001
0000
,
1000
0000
0000
0010
0010
0000
0000
0100
,
0100
0000
0010
1000
,
0001
0000
0000
0010
0010
0000
0000
0100
,
0100
0000
0010
0001
,
1000
0000
0000
0001
0001
0000
1000
0100
,
1000
0000
0100
1000
,
0000
0010
0000
0010
0000
0100
0000
0100
,
0000
0001
0000
0001
0000
1000
0000
1000
,
0000
0110
0001
0000
,
1000
0000
0100
1000
,
0001
0000
0100
0000
,
0001
0000
0010
0001
,
1000
0000
0100
0000
,
1000
0000
0010
1000
,
0001
0000
1000
0000
,
0001
0000
0100
0010
;

//--------------- dance-single - Pandemonium.EXE ----------------
#NOTES:
     dance-single:
     Pandemonium.EXE:
     Medium:
     11:
     0,0,0,0,0:
0000
0000
0000
0000
,
0000
0000
0000
0000
,
0000
0000
0000
0000
,
0000
0000
0000
0000
,
0000
0000
0000
0000
,
0001
1000
0001
0010
,
0001
0100
0010
1000
,
0100
0010
0100
1000
,
0100
0000
0010
0000
0100
1000
0010
0100
,
0001
0100
0001
0000
0100
0010
0100
0000
,
0010
1000
0010
0000
1000
0001
1000
0000
,
0001
0100
0001
1000
,
0100
0010
0100
1000
,
0001
0010
0001
0000
1000
0100
1000
0000
,
0100
0010
0100
0000
1000
0100
1000
0000
,
0100
1000
0010
0100
,
0001
0100
0010
1000
,
0001
0002
0000
0010
0013
0000
0100
0000
,
1000
0000
0100
0000
1000
0010
0100
0001
,
1000
2000
0000
0100
3100
0000
0010
0000
,
0100
0000
1000
0100
0010
0100
1000
0001
,
0100
0200
0000
0010
0310
0000
0100
0000
,
0001
0000
0010
0100
0010
0001
0100
0010
,
0000
1000
0100
0000
0000
0100
0010
0000
0000
0010
0001
0000
0000
0001
0100
0000
,
0000
0100
0010
0000
0000
0000
0100
0000
0010
1000
0000
0001
0000
0010
0100
0000
,
0010
0020
0000
0001
0031
0000
0010
0000
,
0001
0000
0100
0010
0100
0001
0010
0100
,
1000
2000
0000
0010
3010
0000
0100
0000
,
0001
0000
0010
0001
0100
0010
1000
0100
,
0010
0020
0000
0100
0130
0000
0010
0000
,
0100
0000
0010
0000
0100
1000
0010
0100
,
0000
0001
0010
0000
0000
0010
0100
0000
0000
0100
1000
0000
0000
1000
0001
0000
,
0000
0000
0100
0000
0000
0000
0010
0000
0100
0001
0000
0010
0000
0100
1000
0000
,
0001
0000
0000
1000
,
0100
0000
0000
0010
0000
0000
0100
0000
,
0010
0000
0000
0001
0000
0000
0100
0000
,
0010
0000
0000
0100
0000
0000
0001
0000
,
1000
0000
0000
0001
0010
0000
0000
0000
0001
0000
0000
0000
0100
0000
0000
0000
,
0010
0000
0000
1000
0100
0000
0000
0000
0010
0000
0000
0000
0100
0000
0000
0000
,
1000
0000
0000
0010
0100
0000
0000
0000
0010
0000
0000
0000
1000
0000
0000
0000
,
1001
0110
1001
0000
,
0000
0001
0001
0100
0100
0010
0010
0100
,
0010
0001
0010
1000
0100
0001
0100
1000
,
0000
0100
0100
1000
1000
0010
0010
0001
,
0010
1000
0010
1000
1100
0000
0100
0010
,
0011
0000
0000
0000
0000
0000
0001
1000
0001
0000
1000
0000
0001
0000
0100
0000
,
0001
0000
0000
0000
0000
0000
1000
0001
1000
0000
0100
0000
0010
0000
0100
0000
,
1000
0100
0010
0001
0010
0100
0010
0001
,
1000
0000
0100
0010
0011
0000
0000
0000
,
0001
0002
0000
1000
1003
0000
0000
0000
,
0000
0000
0000
0001
0010
0100
1000
0010
,
0100
0200
0000
0010
0310
0000
0100
0000
,
0010
0000
1000
0001
0010
0001
0100
0010
,
1000
2000
0000
0001
3001
0000
0010
0000
,
0100
0000
0010
0001
0100
0010
1000
0001
,
0000
1000
0100
0000
0000
0100
0010
0000
0000
0100
1000
0000
0000
1000
0010
0000
,
0000
0010
0100
0000
0000
0000
0010
0000
0100
0001
0000
0010
0000
0100
0010
0000
,
0001
0002
0000
0100
0103
0000
0010
0100
,
0101
0000
0001
0100
0010
1000
0001
0010
,
0100
0200
0000
0010
0310
0000
0100
1000
,
1100
0000
0100
1000
0100
0010
0100
1000
,
0001
0000
0002
0000
0000
0000
1000
0000
1003
0000
0000
0001
1000
0000
0001
0000
,
1001
0000
0000
0001
0001
1000
0010
0100
,
0001
0010
0100
0000
0010
0000
0001
0000
,
0100
0010
1000
0001
,
0100
0000
1001
0000
1000
0010
0100
0000
,
0010
0000
1000
0000
0001
0010
0100
0000
,
0010
0000
0001
0000
1000
0100
0010
0000
,
0100
0000
1000
0000
0001
0100
0010
0100
,
0001
0000
0010
0000
0100
0010
0001
0000
,
0100
0000
0010
0000
1000
0100
0010
0000
,
0100
0000
1000
0000
0010
0100
0001
0000
,
1000
0000
0000
0000
0001
0000
0000
0000
0100
0010
0000
1000
0000
0001
0010
0000
;

//--------------- dance-single - Pandemonium.EXE ----------------
#NOTES:
     dance-single:
     Pandemonium.EXE:
     Hard:
     14:
     0,0,0,0,0:
0000
0000
0000
0000
,
0000
0000
0000
0000
,
0000
0000
0000
0000
,
0000
0000
0000
0000
,
0000
0000
0000
0000
,
0001
0100
0000
0000
0000
0100
0000
0100
0010
0100
0000
0000
0000
0000
0000
0100
,
0010
1000
0000
0000
0000
0100
0000
0100
0000
0000
0000
0010
0000
0010
0100
0000
,
1000
0001
0000
0000
0000
0001
0000
0001
1000
0001
0000
0000
0000
0000
0000
1000
,
0100
1000
0000
0000
0000
0100
0000
0100
1000
0010
0100
0001
1000
0100
0010
0001
,
1000
0001
1000
0001
0010
0001
0010
0001
,
1000
0100
1000
0100
1000
0010
1000
0010
,
0100
0010
0000
0000
0000
0010
0000
0010
0000
1000
0000
1000
0100
1000
0100
1000
,
0000
0100
0010
0000
0000
0000
0010
0001
0000
1000
0000
0001
0100
0001
0010
0001
,
0010
0100
0010
0100
1000
0100
1000
0100
,
0010
0001
0010
0001
0100
0001
0100
0001
,
1000
0001
0000
0000
0000
0010
0000
0010
0000
0100
0000
0010
0100
0000
0100
1000
,
0000
0100
0000
0000
0000
0000
0010
0100
0000
0010
0000
0100
1000
0001
1000
0001
,
0010
0100
1000
0000
0000
0000
1100
0000
1100
0000
0000
0000
0000
0000
0000
0000
,
0000
0000
0000
0000
0000
0000
1000
0100
0010
0000
0100
0000
0001
0000
0100
0000
,
1000
0010
0100
0000
0000
0000
1010
0000
1010
0000
0000
0000
0000
0000
0000
0000
,
0000
0000
0000
0000
0000
0000
0010
0100
0001
0000
0100
0000
1000
0000
0100
0000
,
0010
1000
0100
0000
0000
0000
1001
0000
1001
0000
0000
0000
0000
0000
0000
0000
,
0000
0000
0000
0000
0000
0000
0001
0010
0100
0000
0010
0000
0001
0000
0100
0000
,
0010
0100
0010
0000
0100
0001
0100
0000
0010
1000
0010
0000
1000
0100
1000
0000
,
0000
0100
0010
0000
0000
0010
0100
1000
0001
0100
0000
0010
0000
0100
0010
0000
,
1000
0010
0100
0000
0000
0000
0101
0000
0101
0000
0000
0000
0000
0000
0000
0000
,
0000
0000
0000
0000
0000
0000
0001
1000
0010
0000
0001
0000
0010
0000
1000
0000
,
0001
0010
0100
0000
0000
0000
1100
0000
1100
0000
0000
0000
0000
0000
0000
0000
,
0000
0000
0000
0000
0000
0000
0100
0010
0001
0000
0010
0000
1000
0000
0010
0000
,
0001
0100
0010
0000
0000
0000
0101
0000
0101
0000
0000
0000
0000
0000
0000
0000
,
0000
0000
0000
0000
0000
0000
0001
1000
0010
0000
0100
0000
1000
0000
0100
0000
,
0001
1000
0001
0000
0100
0001
0100
0000
0010
1000
0010
0000
1000
0100
1000
0000
,
0000
0000
0100
0000
0000
0000
0010
0100
1000
0001
0000
1000
0000
0100
0010
0000
,
0100
0010
0001
1000
0000
0000
0010
0000
,
0100
0010
1000
0100
0000
0000
0010
0000
,
0100
0010
0001
0100
0000
0000
0010
0000
,
1000
0001
0010
0100
0000
0000
0010
0000
,
0001
0010
0100
1000
0000
0000
1001
0000
,
1000
0100
0010
0001
0000
0000
1001
0000
,
0001
0010
0100
1000
0000
0000
0011
0000
,
1100
1010
1001
0000
,
0000
0000
0001
0100
0001
0000
1000
0100
1000
0000
0001
0100
0001
0000
0001
0000
,
1000
0010
0100
0001
0010
0100
0010
0001
,
0000
0000
1000
0010
1000
0000
0001
0010
0001
0000
1000
0010
1000
0000
1000
0000
,
0100
0010
0001
0010
0100
1000
0010
1000
0001
0000
0000
0000
0010
0000
0001
0000
,
0101
0000
0000
0000
0000
0000
0100
0010
0100
0000
0010
0000
0100
0000
0001
0000
,
1000
0100
0010
0000
0000
0000
0100
1000
0100
0000
1000
0000
0001
0000
0010
0000
,
0100
0001
0100
1000
0010
0001
0010
1000
,
0001
0000
0000
0000
1000
0100
0010
0001
1000
0000
0000
0000
0000
0000
0000
0000
,
0001
0100
0001
0000
0000
0000
1000
0000
1000
0000
0000
0000
0000
0000
0000
0000
,
0000
0000
0000
0000
0000
0000
0100
0010
0001
0000
0010
0000
1000
0000
0010
0000
,
0001
1000
0010
0000
0000
0000
0101
0000
0101
0000
0000
0000
0000
0000
0000
0000
,
0000
0000
0000
0000
0000
0000
1000
0010
0100
0000
1000
0000
0100
0000
0001
0000
,
1000
0100
1000
0000
0000
0000
0011
0000
0011
0000
0000
0000
0000
0000
0000
0000
,
0000
0000
0000
0000
0000
0000
0001
0100
0010
0000
0001
0000
0010
0000
1000
0000
,
0001
0100
0001
0000
0100
0010
0100
0000
0010
0100
0010
0000
1000
0010
1000
0000
,
0000
0010
0100
0000
0000
0000
0100
0001
0010
0100
0000
0010
0000
0001
1000
0000
,
0010
0100
0001
0000
0000
0000
1100
0000
1100
0000
0000
0000
0000
0100
0010
0100
,
1000
0000
0000
0000
0000
0000
0100
0010
0001
0000
0100
0000
1000
0000
0100
0000
,
0001
1000
0010
0000
0000
0000
1010
0000
1010
0000
0000
1000
0000
0010
0100
0001
,
0010
0000
0000
0000
0000
0000
0100
0010
0001
0000
0010
0000
1000
0000
0010
0000
,
0001
0100
0010
0000
0000
0000
1010
0000
1010
0000
0000
1000
0100
0010
0001
1000
,
0001
0000
0000
0000
0000
0000
0010
0001
0100
0000
1000
0000
0100
0000
0001
0000
,
1000
0100
0010
0000
0011
0000
0000
0000
1000
0000
0000
0000
0110
0000
0000
0000
,
0001
1001
1000
0110
,
1000
0001
0000
0000
1100
1000
0000
0001
0100
0001
0000
0000
0000
0000
0000
1000
,
0010
1000
0000
0000
0000
0100
0000
1000
0000
0000
0000
0100
0000
0010
0001
0000
,
0100
0010
0000
0000
0000
0010
0000
0010
1000
0010
0000
0000
0000
0000
0000
0100
,
0001
0100
0000
0000
0000
0001
0000
1000
0100
1000
0000
0100
0000
0010
0001
0000
,
1000
0010
0000
0000
0000
0010
0000
1000
0010
1000
0000
0000
0000
0000
0000
0001
,
0100
0001
0000
0000
0000
0010
0000
0100
0000
0000
0000
0010
0000
0100
1000
0000
,
0010
0100
0000
0000
0000
0100
0000
0100
0010
0100
0000
0000
0000
0000
0000
0010
,
1000
0010
0000
0000
0000
1000
0000
0001
0010
0001
0000
0010
0000
0010
0100
0000
;

//--------------- dance-double - Pandemonium.EXE ----------------
#NOTES:
     dance-double:
     Pandemonium.EXE:
     Easy:
     6:
     0,0,0,0,0:
00000000
00000000
00000000
00000000
,
00000000
00000000
00000000
00000000
,
00000000
00000000
00000000
00000000
,
00000000
00000000
00000000
00000000
,
00000000
00000000
00000000
00000000
,
00001000
00000000
00010000
00000000
,
00000100
00000000
00010000
00000000
,
00001000
00000000
01000000
00000000
,
00001000
00000000
00200000
00000000
,
01300000
00000000
10000000
00000000
,
00100000
00000000
01000000
00000000
,
00010000
00000000
00100000
00000000
,
00001000
00000000
00010000
00000100
,
00001000
00000000
00000001
00000000
,
00000100
00000000
00000010
00000000
,
00001000
00000000
00000100
00000000
,
00020000
00000000
00000000
00000000
,
00031000
00000000
00000000
01000000
01000000
00000000
00000000
00000000
,
00000000
00000000
00100000
10000000
,
01000000
00000000
00000000
00100000
00100000
00000000
00000000
00000000
,
00000000
00000000
00010000
00100000
,
00001000
00000000
00000000
00010000
00010000
00000000
00000000
00000000
,
00000000
00000000
00001000
00010000
,
00000100
00000000
00001000
00000000
,
00000010
00000000
00000100
00000010
,
00001000
00000000
00000000
00000001
00000001
00000000
00000000
00000000
,
00000000
00000000
00000010
00000001
,
00000100
00000000
00000000
00000010
00000010
00000000
00000000
00000000
,
00000000
00000000
00000100
00000010
,
00001000
00000000
00000000
00000100
00000100
00000000
00000000
00000000
,
00000000
00000000
00001000
00000100
,
00010000
00001000
01000000
00001000
,
00010000
00000100
00010000
00001000
,
01001000
00000000
00000000
01000000
,
01000000
00000000
00000000
01000000
00000000
00000000
00100000
00000000
,
00100000
00000000
00000000
00100000
00000000
00000000
10000000
00000000
,
10000000
00000000
00000000
10000000
00000000
00000000
10000000
00000000
,
00000000
11000000
00000000
01100000
,
00000000
00110000
00000000
00011000
,
00000000
00001100
00000000
00000110
,
00000001
00001000
00000110
00000000
,
00000001
00000100
00001000
00000100
,
00000001
00001000
00000100
00010000
,
00000000
00000100
00001000
00010000
,
00001000
01000000
01100000
00000000
,
10010000
00000000
10000000
01000000
,
00010000
00000000
00010000
01000000
,
10000000
00100000
01000000
00001000
,
00010000
00000100
00010100
00000000
,
00010000
00000000
00000000
00000000
,
00000000
00000000
00001000
01000000
,
00010000
00000000
00000000
00100000
00100000
00000000
00000000
00000000
,
00000000
00000000
01000000
00100000
,
00001000
00000000
00000000
00010000
00010000
00000000
00000000
00000000
,
00000000
00000000
00000100
00001000
,
00010000
00001000
00010000
00000100
,
00001000
00000010
00000100
00000001
,
00001000
00000000
00000000
00000001
00000001
00000000
00000000
00000000
,
00000011
00000000
00000001
00001000
,
00000100
00000000
00000000
00010000
00010000
00000000
00000000
00000000
,
00101000
00000000
00100000
00001000
,
00010000
00000000
00000000
00000000
00000100
00000000
00001000
00000010
,
00000100
00000000
00000010
00001000
,
00000001
00000001
00000000
00000000
00000000
00000000
00000000
00000000
,
00000000
00000000
00000000
00000000
,
00000100
00011000
00010000
00000000
,
00001000
00000000
01000000
00010000
,
00100000
00000000
01000000
00000000
,
10000000
00000000
00010000
10000000
,
01000000
00000000
10000000
00000000
,
00100000
00000000
01000000
00010000
,
00100000
00000000
00001000
00000000
,
00010000
00000000
00000000
00000000
00000200
00000000
00000000
00000300
;

//--------------- dance-double - Pandemonium.EXE ----------------
#NOTES:
     dance-double:
     Pandemonium.EXE:
     Medium:
     12:
     0,0,0,0,0:
00000000
00000000
00000000
00000000
,
00000000
00000000
00000000
00000000
,
00000000
00000000
00000000
00000000
,
00000000
00000000
00000000
00000000
,
00000000
00000000
00000000
00000000
,
00001000
00011000
00010000
00011000
,
00000100
00001100
00001000
00001100
,
00000010
00000110
00000100
00000110
,
00000001
00000000
00001001
00000000
00000001
00000010
00000100
00001000
,
00000100
00010000
00001000
01000000
,
00010000
00100000
10000000
00100000
,
00010000
01000000
00100000
00010000
,
00100000
00000000
01000000
00010000
00000000
00100000
00000000
01000000
,
10000000
00010000
01000000
10000000
,
01000000
00010000
00100000
00001000
,
00010000
00000100
00001000
00000010
,
00000200
00000000
00000000
00000300
,
00000010
00002000
00000000
00000100
00003100
00000000
00000000
00000000
,
00000000
00000000
00000000
00000010
00000001
00000100
00000010
00001000
,
00000100
00020000
00000000
00001000
00031000
00000000
00000000
00000000
,
00000000
00000000
00000000
00010000
00001000
01000000
00010000
00100000
,
01000000
20000000
00000000
00100000
30100000
00000000
00000000
00000000
,
00000000
00000000
00000000
01000000
00100000
10000000
00010000
00100000
,
00000000
01000000
10000000
00000000
00000000
10000000
00100000
00000000
00000000
00100000
01000000
00000000
00000000
01000000
00010000
00000000
,
00000000
00010000
00100000
00000000
00000000
00000000
00010000
00100000
00001000
00010000
00000000
00000100
00000000
00001000
00000010
00000000
,
00000100
00000002
00000000
00001000
00001003
00000000
00000000
00000000
,
00000000
00000000
00000000
00000001
00000010
00000100
00001000
00000100
,
00010000
00002000
00000000
01000000
01003000
00000000
00000000
00000000
,
00000000
00000000
00000000
00100000
00010000
00100000
10000000
01000000
,
00100000
02000000
00000000
10000000
13000000
00000000
00000000
00000000
,
00000000
00000000
00000000
00010000
01000000
00010000
00100000
00001000
,
00000000
00010000
00000100
00000000
00000000
00001000
00000010
00000000
00000000
00000010
00000100
00000000
00000000
00000100
00000001
00000000
,
00000000
00000001
00000010
00000000
00000000
00000000
00000100
00000000
00000010
00000001
00000000
00000100
00000000
00000010
00001000
00000000
,
00001100
00000000
00000000
00010000
,
00000100
00000000
00000000
00001000
00000000
00000000
00000100
00000000
,
00010000
00000000
00000000
00000010
00000000
00000000
00010000
00000000
,
00001000
00000000
00000000
01000000
00000000
00000000
00010000
00000000
,
10000000
00000000
00000000
01000000
00000000
00000000
00100000
00000000
,
00010000
00000000
00000000
00001000
00000000
00000000
00010000
00000000
,
00100000
00000000
00000000
00001000
00000000
00000000
00000100
00000000
,
00000011
00001010
00001001
00000000
,
00000000
00000001
00000001
00000100
00000100
00000010
00000010
00001000
,
00000100
00010000
00001000
01000000
00010000
00100000
01000000
00100000
,
00000000
01000000
01000000
10000000
10000000
00010000
00010000
01000000
,
00010000
00100000
10000000
00100000
00110000
00000000
00100000
01000000
,
11000000
00000000
00000000
00000000
00000000
00000000
10000000
00010000
10000000
00000000
00010000
00000000
01000000
00000000
00010000
00000000
,
00100000
00010000
00100000
00000000
00000000
00000000
00001000
00100000
00001000
00000000
00010000
00000000
00000100
00000000
00001000
00000000
,
00000010
00000001
00000010
00001000
00010000
00001000
00000100
00000010
,
00000001
00000000
00000000
00000000
00001000
00000010
00000100
00000001
00001000
00000000
00000000
00000000
00000000
00000000
00000000
00000000
,
00000001
00000010
00000000
00000100
00000100
00000000
00000000
00000000
,
00000000
00000000
00000000
00000010
00000001
00000100
00000010
00001000
,
00000100
00020000
00000000
00000010
00030010
00000000
00000000
00000000
,
00000000
00000000
00000000
00001000
00000010
00010000
00001000
01000000
,
00010000
00200000
00000000
00001000
00301000
00000000
00000000
00000000
,
00000000
00000000
00000000
00010000
00000100
00001000
00000100
00010000
,
00000000
00001000
01000000
00000000
00000000
01000000
00100000
00000000
00000000
01000000
00010000
00000000
00000000
10000000
01000000
00000000
,
00000000
01000000
00100000
00000000
00000000
01000000
10000000
00000000
00100000
01000000
00000000
00010000
00000000
10000000
01000000
00000000
,
00100000
00000000
01000000
00000000
00000000
00000000
10000000
00000000
20000000
00000000
00000000
00000000
00000000
30010000
01000000
00010000
,
01000000
00000000
00000000
00100000
01000000
00010000
00100000
00001000
,
00010000
00000000
00000200
00000000
00000000
00000000
00001000
00000000
00001300
00000000
00000000
00000000
00000000
00000100
00000010
00000100
,
00000010
00000000
00000000
00000100
00000010
00000001
00000100
00000010
,
00000100
00000000
00000002
00000000
00000000
00000000
00001000
00000000
00001003
00000000
00000000
00000001
00000010
00000000
00000100
00000000
,
00001100
00000000
00000000
00000100
00010000
00001000
01000000
00010000
,
00100000
01000000
10000000
00000000
01000000
00000000
01100000
00000000
,
00100000
00110000
00100000
00101000
,
00001000
00000000
00001001
00000000
00000001
00000100
00000010
00000000
,
00001000
00000000
00000100
00000000
00010000
00001000
01000000
00010000
,
00100000
00000000
01000000
00000000
00100000
00001000
00010000
00000000
,
00001000
00000000
01000000
00000000
00100000
00010000
00100000
01000000
,
00001000
00010000
00000100
00000000
00000100
00001000
00000010
00000000
,
00000100
00001000
00010000
00000000
00001000
01000000
00100000
00010000
,
00100000
01000000
00010000
00100000
00001000
00000000
00000000
00000000
,
00010000
00001000
00000000
00000000
00000000
00010000
00000000
00000100
00001000
00000010
00000000
00000100
00000000
00000001
00001000
00000000
;

//--------------- dance-double - Pandemonium.EXE ----------------
#NOTES:
     dance-double:
     Pandemonium.EXE:
     Hard:
     15:
     0,0,0,0,0:
00000000
00000000
00000000
00000000
,
00000000
00000000
00000000
00000000
,
00000000
00000000
00000000
00000000
,
00000000
00000000
00000000
00000000
,
00000000
00000000
00000000
00000000
,
00010000
00010100
00000100
00001100
,
00000010
00001001
00000001
00001100
,
00000100
00010100
00010000
01001000
,
00001000
00000000
00000000
00000000
00110000
00000000
00000000
00000000
00010000
00100000
01000000
10000000
01000000
00100000
01000000
10000000
,
00010000
01000000
01100000
00000000
00100000
10000000
11000000
00000000
,
01000000
00100000
00110000
00000000
00100000
00001000
00011000
00000000
,
00010000
00000100
00000000
00000000
00000000
00000100
00000000
00001000
00000000
00000010
00000000
00000100
00000001
00000010
00000001
00001000
,
00000000
00000100
00010000
00000000
00000000
00010000
00001000
01000000
00000000
01000000
00000000
00100000
01000000
00010000
00100000
01000000
,
10000000
01000000
11000000
00000000
10000000
00010000
01010000
00000000
,
00010000
00100000
00101000
00000000
00010000
00000100
00010100
00000000
,
00000100
00001000
00000000
00000000
00000000
00000010
00000000
00000100
00000000
00000001
00000000
00000010
00000100
00000010
00000001
00001000
,
00000000
00000001
00000100
00000000
00000000
00000010
00000100
00000001
00001000
00000000
00000100
00001000
00000000
00000100
00010000
00001000
,
01000000
00010000
00100000
00000000
00000000
00000000
11000000
00000000
00110000
00000000
00000000
00000000
00010000
00000000
00000000
00000000
,
01000000
00000000
00000000
00000000
00001000
00000000
00010000
00000100
00001000
00000000
00010000
00000000
00100000
00000000
01000000
00000000
,
10000000
00100000
01000000
00000000
01000000
00000000
01010000
00000000
00110000
00000000
00000000
00000000
00001000
00000000
00000000
00000000
,
00010000
00000000
00000000
00000000
00000010
00000000
00000100
00000010
00000100
00000000
00000001
00000000
00000010
00000000
00000100
00000000
,
00001000
00000100
00001000
00000000
00000100
00000000
00010100
00000000
00010100
00000000
00000000
00000000
00010000
00000000
00000000
00000000
,
00001000
00000000
00000000
00000000
01000000
00000000
00010000
00100000
10000000
00000000
00100000
00000000
00010000
00000000
01000000
00000000
,
00100000
10000000
00100000
00000000
01000000
00010000
01000000
00000000
00100000
10000000
00100000
00000000
01000000
00010000
01000000
00000000
,
00000000
00000000
00100000
00000000
00000000
00000000
00100000
01000000
00010000
00100000
00000000
01000000
00000000
00100000
00001000
00000000
,
00010000
00001000
00100000
00000000
00000000
00000000
00110000
00000000
00110000
00000000
00000000
00000000
00100000
00000000
00000000
00000000
,
00001000
00000000
00000000
00000000
00010000
00000000
00000100
00001000
00000010
00000000
00000001
00000000
00000010
00000000
00000100
00000000
,
00000001
00000010
00001000
00000000
00000010
00000000
00000011
00000000
00001100
00000000
00000000
00000000
00000001
00000000
00000000
00000000
,
00000100
00000000
00000000
00000000
00000010
00000000
00000001
00000010
00000100
00000000
00000010
00000000
00001000
00000000
00000100
00000000
,
00000100
00010000
00001000
00000000
00010000
00000000
00011000
00000000
01001000
00000000
00000000
00000000
01000000
00000000
00000000
00000000
,
00100000
00000000
00000000
00000000
01000000
00000000
01000000
00010000
00100000
00000000
10000000
00000000
00100000
00000000
00010000
00000000
,
00100000
00010000
00100000
00000000
00001000
00010000
00001000
00000000
00100000
00010000
00100000
00000000
00010000
00001000
00010000
00000000
,
00000100
00010000
00000100
00000000
00000000
00000000
00001000
00000010
00000100
00000001
00000000
00000010
00000000
00000100
00001000
00000000
,
00010100
00000000
00000000
00001000
,
01000000
00000000
00000000
00100000
00000000
00000000
10000000
00000000
,
01000000
00000000
00000000
00100000
00000000
00000000
00001000
00000000
,
00010000
00000000
00000000
00000010
00000000
00000000
00000100
00000000
,
00000010
00000000
00000000
00001000
00000100
00000000
00000000
00000000
00000010
00000000
00000000
00000001
00000100
00000000
00000000
00000000
,
00000010
00000000
00000000
00001000
00000100
00000000
00000000
00000000
00010000
00000000
00000000
00001000
01000000
00000000
00000000
00000000
,
00010000
00000000
00000000
00100000
01000000
00000000
00000000
00000000
00100000
00000000
00000000
00001000
00010000
00000000
00000000
00000000
,
00011000
00010100
01001000
00000000
,
00000000
00000000
00100000
00000010
00010000
00000000
00001000
01000000
00000100
00000000
00000100
01000000
00001000
00000000
00010000
00000000
,
00001000
00001000
00010000
00010000
00001000
00001000
00010000
00001000
,
00000000
00000000
01000000
00000100
00010000
00000000
00001000
00100000
00000010
00000000
00000010
00100000
00001000
00000000
00010000
00000000
,
00001000
01000000
00100000
00010000
00100000
10000000
01000000
00010000
01000000
00000000
00000000
00000000
00100000
00000000
00010000
00000000
,
11000000
00000000
00000000
00000000
00000000
00000000
01000000
00100000
00010000
00000000
00001000
00000000
00000100
00000000
00000010
00000000
,
00000001
00001000
00000001
00000000
00000000
00000000
00000010
00000001
00000010
00000000
00000001
00000000
00000100
00000000
00001000
00000000
,
00010000
00001000
00100000
00001000
00010000
00000010
00000100
00000001
,
00001001
00000000
00000000
00000000
00000100
00000010
00010000
00001000
00010000
00000000
00000000
00000000
00000000
00000000
00000000
00000000
,
00001000
01000000
00100000
00000000
00000000
00000000
01000000
00000000
01000000
00000000
00000000
00000000
00000000
00000000
00000000
00000000
,
00000000
00000000
00000000
00000000
00000000
00000000
00100000
10000000
01000000
00000000
00100000
00000000
00010000
00000000
01000000
00000000
,
00001000
00010000
00000100
00000000
00001000
00000000
00001010
00000000
00001010
00000000
00000000
00000000
00000010
00000000
00000000
00000000
,
00000100
00000000
00000000
00000000
00000001
00000000
00000010
00000100
00001000
00000000
00000100
00000000
00000001
00000000
00000100
00000000
,
00000010
00000001
00000100
00000000
00000010
00000000
00001010
00000000
00001100
00000000
00000000
00000000
00010000
00000000
00000000
00000000
,
00001000
00000000
00000000
00000000
01000000
00000000
00010000
00100000
10000000
00000000
00100000
00000000
00010000
00000000
01000000
00000000
,
00001000
01000000
00010000
00000000
00010000
00100000
00001000
00000000
00001000
00010000
00000100
00000000
00000100
00001000
00000010
00000000
,
00000010
00000100
00000001
00000000
00000000
00000010
00000100
00000010
00000001
00000010
00000000
00000010
00000000
00000010
00000100
00000000
,
00001000
00000001
00000100
00000000
00000010
00000000
00001010
00000000
00001100
00000000
00000000
00000000
00000100
00010000
00001000
00100000
,
01000000
00000000
00000000
00000000
00100000
00000000
01000000
00100000
00010000
00000000
01000000
00000000
00100000
00000000
00010000
00000000
,
00100000
01000000
00001000
00000000
00010000
00000000
00010100
00000000
00010100
00000000
00000000
00000000
00001000
00000001
00000100
00000010
,
00001000
00000000
00000000
00000000
00001000
00000000
00000100
00000010
00000001
00000000
00000100
00000000
00001000
00000000
00010000
00000000
,
01000000
00010000
10000000
00000000
10000000
00000000
10010000
00000000
11000000
00000000
01000000
00100000
00010000
00001000
00000100
00000010
,
00000001
00000000
00000000
00000000
00001000
00000000
00000010
00000001
00000010
00000000
00000100
00000000
00001000
00000000
00010000
00000000
,
00001000
01000000
00010000
00000000
00100000
00000000
00000000
00000000
01000000
00000000
00000000
00000000
10000000
00000000
00000000
00000000
,
00010000
01000000
00010000
00100000
,
00010000
00000000
00000000
00000000
00001001
00000000
00000000
00001000
00000001
00000010
00000000
00000000
00000000
00000000
00000000
00000100
,
00001000
00000001
00000000
00000000
00000000
00000100
00000000
00000010
00000000
00000000
00000000
00000100
00000000
00000010
00010000
00000000
,
00010000
00001000
00000000
00000000
00000000
00010000
00000000
00001000
01000000
00010000
00000000
00000000
00000000
00000000
00000000
00100000
,
01000000
00100000
00000000
00000000
00000000
01000000
00000000
10000000
00100000
01000000
00000000
00100000
00000000
10000000
00010000
00000000
,
00100000
00010000
00000000
00000000
00000000
00100000
00000000
00001000
00010000
00001000
00000000
00000000
00000000
00000000
00000000
00010000
,
00000010
00000100
00000000
00000000
00000000
00000010
00000000
00000100
00000000
00000000
00000000
00000010
00000000
00001000
00000100
00000000
,
00010000
00001000
00000000
00000000
00000000
00010000
00000000
00001000
01000000
00001000
00000000
00000000
00000000
00000000
00000000
01000000
,
00010000
00100000
00000000
00000000
00000000
00100000
00000000
00010000
00001000
00000100
00000000
00000010
00000000
00000001
00001000
00000000
;
