#TITLE:Dodo;
#SUBTITLE:;
#ARTIST:meganeko;
#TITLETRANSLIT:;
#SUBTITLETRANSLIT:;
#ARTISTTRANSLIT:;
#GENRE:;
#CREDIT:;
#MUSIC:Dodo.ogg;
#BANNER:Dodo-bn.png;
#BACKGROUND:Dodo-bg.png;
#CDTITLE:;
#SAMPLESTART:100.719;
#SAMPLELENGTH:16.446;
#SELECTABLE:YES;
#OFFSET:-0.021;
#BPMS:0.000=115.000;
#STOPS:;
#BGCHANGES:;
#FGCHANGES:;

//--------------- dance-single - Pandemonium X ----------------
#NOTES:
     dance-single:
     Pandemonium X:
     Beginner:
     5:
     0,0,0,0,0:
0000
0000
0000
0000
,
0000
0000
0000
0000
,
0000
0000
0000
0000
,
0000
0000
0000
0000
,
0001
1000
0000
0000
,
0100
0000
0000
0000
,
0010
0000
0000
0000
,
0100
0000
1000
0000
,
0001
0000
0000
0000
,
0100
0000
0020
0000
,
0030
0000
0000
0000
,
0000
0000
0000
0000
0000
0000
0000
1001
,
0000
0001
0000
0000
0000
0000
0000
0000
,
0000
1000
0000
0000
0000
0000
0000
0000
,
0000
0010
0000
0000
0000
0000
0000
0000
,
0000
0100
0000
0000
0010
0000
0000
1000
,
0000
0001
0000
0000
0000
0000
0000
0000
,
0000
1000
0000
0000
0000
0000
0000
0000
,
0000
0000
0100
0000
0000
0000
0000
0000
0010
0000
0000
0000
0000
0000
0000
0100
,
0000
0000
0000
0000
0000
0000
0000
1000
0000
0000
0000
0000
0000
0000
0000
0001
,
0000
1000
0000
1000
,
0000
1000
0001
1000
,
0000
0200
0000
0000
0000
0000
0000
0000
,
0000
0000
0000
0300
,
0000
0000
1000
0000
,
0000
0000
0001
0000
,
0000
0000
1000
0000
,
0000
0000
0001
0000
,
0000
0000
0100
0000
,
0000
0000
0010
0000
,
0000
0000
0100
0000
,
0000
1001
0000
0000
,
0001
0000
0000
0000
0000
0100
0000
0000
,
0010
0000
0000
0000
0000
0000
0000
1000
0000
0000
0000
0000
0000
0000
0000
0000
,
0001
0000
0000
0000
0000
0000
0000
1000
0000
0000
0000
0000
0000
0000
0000
0000
,
0100
0000
1000
0000
,
0010
0000
0000
0100
0000
0010
0000
0000
,
0100
0000
0000
0000
0000
0001
0000
0000
0000
0000
0000
0000
0000
0000
0000
0000
,
1000
0000
0000
0001
0000
0000
0100
0000
,
0010
0000
0100
0000
,
0001
0000
0000
1000
0000
0000
0001
0000
,
0000
0000
0000
0000
0000
0000
0000
0100
0000
0000
0000
0000
0000
0010
0000
0000
,
2002
0000
0000
0000
,
0000
0000
0000
0000
0000
0000
0000
3003
,
0001
0000
0000
0001
0000
0000
1000
0000
0000
1000
0000
0000
0000
0000
0000
0000
,
0010
0000
0000
0010
0000
0000
0010
0000
0000
0010
0000
0000
0010
0000
0000
0000
,
0100
0000
0000
0010
0000
0000
0100
0000
0000
0010
0000
0000
0100
0000
0000
0000
,
0001
0000
0000
1000
0000
0000
0001
0000
0000
1000
0000
0000
0001
0000
0000
0000
,
1001
0000
0000
0000
0000
0000
0000
0000
0000
0000
0000
0000
1000
0000
0000
2000
,
0000
0000
3010
0100
,
0000
0000
0000
0000
0001
0000
0000
0001
0000
0000
0000
0010
0000
0000
0000
0200
,
0000
0000
0310
0001
,
0000
0000
0000
0000
1001
0000
0000
0001
0000
0000
0000
0000
0000
0000
0000
2000
,
0000
0000
0000
0000
0000
0000
0000
3020
0000
0000
0000
0000
0000
0000
0030
0000
,
0000
0000
0000
0000
0100
0000
0000
0100
0000
0000
0000
0000
0000
0000
0000
0010
,
0000
0000
0010
0000
0000
0000
0000
1000
0000
0000
0000
0000
0001
0000
0000
1000
,
0000
0001
0000
0000
0000
0000
0000
0000
,
0000
0010
0000
0000
0000
0000
0000
0000
,
0000
0100
0000
0000
0000
0000
0000
0000
,
0000
1000
0000
0000
0020
0000
0000
0030
,
0000
0100
0000
0000
0000
0000
0000
0000
,
0000
0010
0000
0000
0000
0000
0000
0000
,
0000
0000
1000
0000
0000
0000
0000
0000
0001
0000
0000
1000
0000
1000
0000
1000
,
0000
0000
0000
0001
0000
0001
0000
1000
0000
0001
0000
1000
0000
0001
0000
2000
,
0000
3000
0000
0000
;

//--------------- dance-single - Pandemonium X ----------------
#NOTES:
     dance-single:
     Pandemonium X:
     Easy:
     7:
     0,0,0,0,0:
0000
0000
0000
0000
,
0000
0000
0000
0000
,
0000
0000
0000
0000
,
0000
0000
0000
0000
,
1000
0001
1001
0000
0001
0000
1000
0000
,
0001
0010
0100
0000
0010
0000
0001
0000
,
1000
0010
0100
0000
0010
0000
1000
0000
,
0001
1000
0100
0000
0010
0000
0011
0000
,
0001
0100
0001
0000
1000
0000
0100
0000
,
1000
0100
1000
0000
0020
0000
0000
0000
,
0130
0000
0001
0000
,
1000
0000
0000
0000
0100
0000
0000
0010
,
0001
1000
0020
1000
,
0130
0010
2000
0001
,
3010
0100
0020
1000
,
0130
0000
0010
0000
1000
0100
0010
0001
,
1000
0000
0100
0000
0010
0001
1000
0000
,
0001
0000
1000
0000
0010
1000
0100
0000
,
1000
0000
0001
0000
0100
0000
0001
0010
,
0001
0000
1000
0100
1000
0000
0001
0100
,
0010
1000
0000
1000
,
0000
1000
0000
1000
,
0000
0002
1000
0000
0000
0000
1000
0000
,
0000
1000
0000
1000
,
0003
0000
0010
0000
,
0000
0000
0100
0000
,
0000
0000
0010
0000
,
0000
0000
0100
0000
,
1001
0001
0020
0030
,
0001
1000
0020
0030
,
1000
0001
0200
0300
,
0000
1001
0000
0000
,
0101
0000
0000
0000
0000
0000
0001
0000
0000
0000
1000
0000
0000
1000
0000
0000
,
1000
0100
1000
0010
,
0100
0010
1000
0001
,
0110
0000
1001
0000
,
0001
0000
0000
0000
0000
0000
0010
0000
0000
0000
0100
0000
0000
0100
0000
0000
,
0100
0000
0000
0010
0000
0000
0100
0000
,
0000
1000
0000
1000
0000
0000
0000
0001
0000
0001
0000
0000
1000
0000
0000
0000
,
1100
0000
0011
0000
,
0001
0000
0000
1000
0000
0000
0010
0000
0000
1000
0000
0000
0100
0000
0000
0010
,
0000
0000
0000
0100
0000
0000
0000
1000
0000
0001
0000
0000
0000
1000
0000
0000
,
0210
0020
0000
0000
0000
0000
0000
0000
,
0000
0000
0000
0330
,
0001
0000
0000
0001
0000
0000
1000
0000
0000
1000
0000
0000
0001
0000
1000
0000
,
0010
0000
0000
0010
0000
0000
0100
0000
0000
0100
0000
0000
0010
0000
1000
0000
,
0001
0000
0000
1000
0000
0000
0001
0000
0000
0010
0000
0000
0100
0000
0010
0000
,
0001
0000
0000
0010
0000
0000
0100
0000
0000
1000
0000
0000
0001
0000
0010
0000
,
0200
0000
0000
0000
0300
0000
0000
0000
0000
0000
0000
0000
0110
0000
0000
2001
,
0000
0000
3001
1000
,
0010
1000
0100
0010
,
0200
0000
0310
0001
,
1000
0100
0010
0000
0100
0000
1000
0000
,
0020
0100
1030
0001
,
0011
0000
0000
0000
0010
0000
0000
0000
0001
0000
0000
0000
0100
0000
0000
0001
,
0000
0000
0001
0000
1000
0000
0000
0100
0000
0000
0100
0000
0010
0000
0001
0000
,
1000
0001
0100
0110
,
0010
0100
0001
1100
,
0100
1000
0001
0011
,
0001
0000
1000
0000
0001
0010
0100
1000
,
0001
1000
0010
0101
,
0001
1000
0100
1100
,
0100
0000
0000
0000
1000
0000
0000
0000
0010
0000
0000
0100
0000
0100
0000
0100
,
0000
0000
0000
0010
0000
0010
0000
0010
0000
1000
0000
0001
0000
0010
0000
0200
,
0000
0300
0000
0000
;

//--------------- dance-single - Pandemonium X ----------------
#NOTES:
     dance-single:
     Pandemonium X:
     Medium:
     12:
     0,0,0,0,0:
0000
0000
0000
0000
,
0000
0000
0000
0000
,
0000
0000
0000
0000
,
0000
0000
0000
0000
,
0001
0100
0001
0000
1000
0100
0000
0000
0100
0000
0000
1000
0000
0000
0010
0000
,
0000
0000
0100
0000
0000
0010
0000
0000
1000
0000
0000
0100
0000
0000
0010
0000
,
0000
0000
0100
0000
0000
0010
0000
0000
0001
0000
0000
1000
0000
0000
0010
0000
,
0000
0000
1000
0000
0000
0100
0000
0000
1000
0001
1000
0001
0100
0010
0100
0010
,
1000
0000
0001
0000
0000
0010
0000
0000
0001
0000
0000
0100
0000
0000
0010
0000
,
0000
0000
0100
0000
0000
0001
0000
0000
2010
0000
0000
0000
0000
0000
0000
0000
,
3001
0000
1000
0000
,
0010
0000
0000
0000
0100
0000
0000
1001
,
0001
0000
0100
0000
0000
0001
0000
0000
1000
0100
0000
0020
0000
0000
0130
0000
,
0000
0000
0010
0000
0000
0001
0000
0000
1000
0001
0000
2000
0000
0000
3100
0000
,
0000
0000
0010
0000
0000
0100
0000
0000
0010
0001
0000
0200
0000
0000
0310
0000
,
0000
0000
0100
0000
0000
0001
0000
0000
1000
0100
1000
0100
0010
0001
0010
0001
,
1000
0000
0001
0000
0000
1000
0000
0000
0001
1000
0000
0200
0000
0000
0310
0000
,
0000
0000
0100
0000
0000
1000
0000
0000
0001
1000
0000
0020
0000
0000
0130
0000
,
0000
0000
0001
0000
0000
1000
0000
0000
0001
1000
0000
0010
0000
1000
0000
0100
,
0000
0000
0010
0100
0000
0010
0000
0001
0000
0000
0010
0100
0000
1000
0000
0002
,
0000
0003
1000
0000
0000
0000
0001
0000
,
0000
0000
0000
0000
0100
0000
0000
0000
0010
0000
1000
0000
0001
1000
0000
0001
,
0000
4000
0400
0000
0000
0000
0000
0000
,
0000
0000
0000
3300
,
0001
1000
1001
0000
,
1000
0001
1001
0000
,
0001
1000
1001
0000
,
1000
0000
0001
0000
1001
0000
0000
0001
,
0000
1000
0000
0000
0001
0000
0000
0000
1000
0000
0000
0001
0000
1000
0000
0100
,
0000
0000
0010
0000
0000
0100
0000
0000
0010
0000
0001
0000
0100
0000
0010
0000
,
0000
0000
0100
0000
0000
0010
0000
0000
1000
0000
0000
0001
0000
0002
0000
2000
,
0000
0000
0000
3000
0003
0000
0000
0000
0000
0000
0000
0000
0000
1100
0000
0000
,
1001
0000
0000
1010
0000
0000
2100
0000
0000
0000
0001
0000
0000
0001
0000
0000
,
3001
0000
0000
0100
0000
0010
0000
1000
0000
0000
0001
0000
1000
0000
0100
0000
,
0010
0000
0000
0100
0000
0010
0000
0001
0000
1000
0000
0100
0000
1000
0000
0001
,
1000
0001
0000
0001
0000
0001
0000
1000
0001
1000
0000
1000
0000
1000
0000
0000
,
0101
0000
0000
1001
0000
0000
0021
0000
0000
0000
0100
0000
0000
0100
0000
0000
,
0130
0000
0000
0010
0000
0010
0100
0000
0010
0000
0001
0000
0010
0000
0100
0000
,
1000
0010
0000
0100
0000
0000
0100
0001
0000
0001
0000
1000
0100
0010
0001
1000
,
0010
0100
0000
0100
0000
0100
0000
0010
1000
0100
0000
0100
0000
0000
0000
0000
,
0010
0000
0001
0100
0000
0010
0100
0000
0000
0010
0000
0000
1000
0000
0000
0000
,
0001
0000
0000
1000
0000
0000
0000
0100
0000
0000
0010
0100
0000
1000
0000
0000
,
1001
2000
3200
0320
0032
0023
0230
0320
,
0032
2003
3200
0320
0032
0023
0230
0320
,
0031
0000
0000
1010
0000
0000
1000
0000
0000
0011
0000
0000
0001
0000
1000
0000
,
1001
0000
0000
0101
0000
0000
1001
0000
0000
1100
0000
0000
1000
0000
0001
0000
,
0101
0000
0000
0110
0000
0000
1010
0000
0000
1100
0000
0000
0001
0000
1000
0000
,
1001
0000
0000
1100
0000
0000
0101
0000
0000
1010
0000
0000
1000
0000
0001
0000
,
0220
0000
0000
0000
0330
0000
0000
0000
0000
0000
0000
0000
1001
0000
0000
2010
,
0000
0000
0000
0000
0000
0000
0000
0000
3010
0000
0100
0000
0001
1000
0000
0100
,
0000
0000
0000
0000
0010
0000
0000
0100
0000
0000
0000
0010
0000
0001
0000
0200
,
0000
0000
0000
0000
0000
0000
0000
0000
0310
0000
0100
0000
0001
1000
0000
0001
,
0020
0000
0000
0000
0130
0000
0000
2100
0000
0000
0000
0000
0000
0001
0000
3002
,
0000
0000
0000
0000
0000
0000
0000
0103
0000
0000
0001
0000
0100
0010
0000
1000
,
0000
0000
0000
0000
0001
0000
0000
2000
0000
0000
0000
0000
3000
0000
0000
1100
,
0000
0000
1001
0000
0000
0000
0000
0011
0000
0000
1001
0000
1000
0000
0001
0100
,
0000
0000
1010
0000
0000
0101
0000
0000
1010
0000
0000
1001
0000
0000
1000
0100
,
0000
0000
1100
0000
0000
0110
0000
0000
0001
0010
0000
0100
0000
0000
1100
0000
,
0000
0000
1001
0000
0000
1010
0000
0000
0001
1000
0000
0100
0000
0000
0010
0100
,
0000
0000
0011
0000
0000
1100
0000
0000
0001
0100
0001
0100
0010
1000
0010
1000
,
0001
0000
1100
0000
0000
0011
0000
0000
0110
0000
0000
1001
0000
0000
1000
0010
,
0000
0000
0101
0000
0000
0011
0000
0000
0110
0000
0000
1100
0000
0000
0001
1000
,
0000
0000
1100
0000
0000
0011
0000
0000
0001
0100
0000
0110
0000
0101
0000
0110
,
0000
0000
0010
1000
0000
1001
0000
0110
0000
1010
0000
1100
0000
0110
0000
2002
,
0000
3003
0000
0000
;

//--------------- dance-single - Pandemonium X ----------------
#NOTES:
     dance-single:
     Pandemonium X:
     Hard:
     14:
     0,0,0,0,0:
0000
0000
0000
0000
,
0000
0000
0000
0000
,
0000
0000
0000
0000
,
0000
0000
0000
0000
,
0001
0100
0001
0000
1000
0100
0000
0000
0010
0100
0000
2000
0000
0000
3001
0100
,
0000
0000
0010
0000
0000
1000
0000
0000
0001
0010
0000
0002
0000
0013
0100
0010
,
0000
0000
0100
0000
0000
0010
0000
0000
0100
1000
0000
0020
0000
0000
0130
0001
,
0000
0000
0100
0000
0000
0001
0000
0000
1000
0001
1000
0001
0100
0010
0100
0010
,
0000
0000
1000
0000
0000
0100
0000
0000
0010
0100
0000
2000
0000
0000
3010
0100
,
0000
0000
0010
0000
0000
0100
0000
0000
0202
0000
0000
0000
0000
0000
0303
0000
,
2000
3000
0002
0003
,
0020
0000
0030
0000
0200
0000
0000
0310
,
1001
0000
0101
0000
0000
0110
0000
0000
0010
1000
0000
0100
0000
0010
0100
0010
,
0000
0000
1100
0000
0000
0110
0000
0000
0100
1000
0000
0001
0000
0100
0001
0100
,
0000
0000
0110
0000
0000
1001
0000
0000
0001
0100
0000
0010
0000
1000
0001
1000
,
0000
0000
1100
0000
0000
0011
0000
0000
0001
0010
0001
0010
0100
1000
0100
1000
,
0000
0000
1001
0000
0000
0011
0000
0000
0001
0100
0000
0010
0000
0100
0001
0010
,
0000
0000
0110
0000
0000
1100
0000
0000
0100
1000
0000
0100
0000
1000
0010
0100
,
0000
0000
0110
0000
0000
0101
0000
0000
0001
1000
0000
1010
0000
0101
0000
1001
,
0000
0000
1000
0100
0000
1100
0000
1001
0000
0000
0001
0010
0000
0011
0000
1001
,
0000
1000
0000
1000
,
0000
0000
0000
0000
1000
0000
0000
0000
0001
0000
0010
0000
0100
0010
0000
0001
,
0000
0200
0010
0000
0000
0000
0010
0000
,
0000
0010
0000
0310
,
1000
0001
2000
3000
,
0001
1000
0002
0003
,
0100
0010
0200
0300
,
0010
0100
0020
0030
,
1000
0100
0110
0010
,
0001
0100
0110
0010
,
1000
0000
0000
0000
0100
0000
0000
0000
0110
0000
0010
0001
0000
0001
0000
1000
,
0000
0000
0000
0000
0000
0000
0000
0000
0000
0000
0000
0000
0000
0101
0000
0000
,
1001
0000
0000
0001
0000
0100
0010
0000
0000
1000
0001
0000
0010
0100
0000
1000
,
0001
0000
0000
1000
0000
1000
0000
0010
0000
0100
0001
0010
0001
1000
0001
1000
,
0100
0000
0000
0110
0000
1100
0000
1010
0000
0010
0100
0001
0010
0001
1000
0001
,
0100
1000
0000
1100
0000
1100
0000
1000
0100
0001
0000
1000
0001
0020
0000
0130
,
1000
0000
0000
0001
0000
0001
0010
0000
0000
0100
0010
0000
0001
1000
0000
0010
,
0100
0000
0000
1010
0000
1000
0100
0010
0100
0010
0001
0100
0010
0100
0001
1000
,
0001
0010
0000
1100
0000
1000
0010
0100
0000
0101
0000
0001
0100
0010
0100
0001
,
1000
0100
0000
0110
0000
0011
0000
0001
0010
0100
0000
1000
0200
0000
0000
0000
,
0310
0000
0000
0001
0000
0100
0010
0000
0000
0100
0000
0000
1001
0000
0000
1000
,
0100
0010
0000
1001
0000
0000
0001
0100
0000
0010
0100
0001
0000
0011
0000
0000
,
1001
0000
0000
0004
4000
0000
0000
0000
0000
0000
0000
0000
0000
0000
0000
0000
0000
0000
0000
0000
0000
0000
0000
0000
,
0000
0000
0000
0000
0000
0000
0000
3003
,
0001
1000
0100
1000
0000
1000
0100
0010
0100
1000
0000
0001
1000
0001
0100
0010
,
1000
0100
0010
0001
0100
0001
0010
0100
0010
0001
1000
0100
1000
0001
0010
0001
,
0011
0000
0000
0000
0000
0000
0000
0000
0000
1001
0000
0000
0000
0000
0000
0000
0000
0000
1010
0000
0000
0000
0000
0000
0000
0000
0000
1100
0000
0000
0000
0000
0000
0000
0000
0000
1000
0000
0001
0000
0010
0000
0100
0000
1000
0000
0100
0000
,
1000
0000
0000
0000
0000
0000
0000
0000
0000
0101
0000
0000
0000
0000
0000
0000
0000
0000
0110
0000
0000
0000
0000
0000
0000
0000
0000
1010
0000
0000
0000
0000
0000
0000
0000
0000
0100
0000
0001
0000
1000
0000
0001
0000
0100
0000
0010
0000
,
2000
0000
0000
0000
0000
0000
0000
0000
3000
0000
0000
0000
0000
0000
0000
0000
0000
0000
0000
0000
0000
0000
0000
0000
0000
0000
0000
0000
0000
0000
0000
0000
0000
0000
0000
0000
0011
0000
0000
0000
0000
0000
0000
0000
0000
1200
0000
0000
,
0000
0000
0000
0000
0010
0000
0000
0000
1300
0000
0010
0000
0100
0001
0000
1000
,
0000
0000
0000
0000
0101
0000
0000
0011
0000
0000
0100
0010
0000
0010
0001
2000
,
0000
0000
0000
0000
0100
0000
0000
0000
3010
0000
0100
0000
0010
1000
0000
0001
,
1000
0100
0010
0001
1000
0000
0000
0012
0000
0000
0000
0000
0000
0103
0000
0200
,
0000
0000
0000
0000
0000
0000
0000
0310
0000
0000
0010
0000
0100
0001
0000
0010
,
0000
0000
0000
0000
0110
0000
0000
2100
0000
0000
0000
0000
0000
3100
0010
0001
,
0000
0001
0100
0000
0001
0100
0010
1000
0000
1000
0010
0100
0001
1000
0100
0010
,
0000
0000
0110
0000
0000
0011
0000
0000
0001
0100
0000
0010
0000
0100
0001
1000
,
0000
0000
1001
0000
0000
1100
0000
0000
0100
1000
0000
1010
0000
1000
0100
0010
,
0000
0000
0011
0000
0000
1001
0000
0000
1000
0001
0000
0010
0000
0100
1000
0001
,
0000
0000
0011
0000
0000
1100
0000
0000
0001
0010
0100
0010
0001
1000
0010
0100
,
0000
0000
0101
0000
0000
0110
0000
0000
1000
0010
0000
0100
0000
0001
1000
0001
,
0000
0000
1100
0000
0000
0011
0000
0000
0001
0100
0000
0001
0000
0010
0100
0010
,
0000
0000
0110
0000
0000
1100
0000
0000
0100
1000
0000
1010
0000
0101
0000
1001
,
0000
1000
0001
0100
0010
1000
0100
0010
0000
0010
0100
1000
0001
0010
0100
2000
,
0000
3000
0000
0000
;

//--------------- dance-single - Pandemonium X ----------------
#NOTES:
     dance-single:
     Pandemonium X:
     Challenge:
     17:
     0,0,0,0,0:
0000
0000
0000
0000
,
0000
0000
0000
0000
,
0000
0000
0000
0000
,
0000
0000
0000
0000
,
1000
1000
1001
0000
0001
1001
0000
0000
1000
0001
0000
0200
0000
0000
0301
1000
,
0000
0000
1001
0000
0000
2100
0000
0000
3100
0010
0000
0200
0000
0310
0001
0100
,
0000
0000
1010
0000
0000
0102
0000
0000
1003
0100
0000
2000
0000
0000
3100
1000
,
0000
0000
0011
0000
0000
1002
0000
1003
0010
0010
0100
0100
0001
0001
1000
1000
,
0000
0000
1001
0000
0000
0102
0000
0000
1003
0100
0000
0210
0000
0000
0310
0100
,
0000
0000
1100
0000
0000
2010
0000
0000
0002
0000
0000
0000
0000
0000
3000
0000
,
2003
0000
0000
0000
0002
0000
0000
3000
,
0020
0000
0000
0000
0000
0000
0003
0000
0200
0000
0000
0000
0000
0330
1001
0000
,
1100
0000
0011
0000
0000
0101
0000
0000
0010
1000
0000
0200
0000
0301
0100
1000
,
0000
0000
1100
0000
0000
0011
0000
0000
0001
1000
0000
0020
0000
0031
0010
1000
,
0000
0000
1010
0000
0000
0101
0000
0000
0001
1000
0000
0200
0000
0301
0100
0010
,
0000
0000
0011
0000
0000
1001
0000
0000
0001
0001
1000
1000
0100
0100
0010
0010
,
0000
0000
1001
0000
0000
0011
0000
0000
0001
0100
0000
2000
0000
3100
0010
1000
,
0000
0000
1001
0000
0000
1100
0000
0000
1000
0100
0000
0002
0000
0103
0010
0001
,
0000
0000
1001
0000
0000
0101
0000
0000
0001
0101
0000
0110
0000
0101
0000
1002
,
0000
0000
1003
1100
0000
0110
0000
2100
0000
0000
3100
0110
0000
0011
0000
2002
,
0000
3003
0001
0000
0000
0000
1000
0000
,
0000
0000
0000
0000
0001
0000
0000
0000
1000
0000
0001
0000
1000
0001
0000
1000
,
0000
0004
1000
0000
0100
0000
1000
0000
,
0010
0100
1000
0103
,
1001
1000
MMMM
0000
,
1000
0001
MMMM
0000
,
0001
1000
MMMM
0000
,
1000
0000
0000
0000
0001
0000
0000
0000
MMMM
0000
0000
0000
0000
0001
1000
0001
,
0000
0001
1000
0000
0001
1000
0000
1000
MMMM
0000
1000
0001
0000
0010
0000
1100
,
0000
0001
1000
0000
0001
1000
0000
0010
MMMM
0010
0100
0001
1000
0100
1000
0001
,
0000
1000
0001
0000
0001
1000
0000
0100
MMMM
0000
0100
0010
0000
0110
0000
2002
,
0000
0000
0000
0000
3000
0003
0000
0000
0000
1000
0001
1000
0001
1001
0000
1000
,
1100
0000
0000
1001
0000
0001
0012
0000
0000
0100
0100
0000
1000
1000
0000
0013
,
0011
0000
0000
0011
0000
0110
0000
0012
0000
1003
0001
0010
0100
0010
0100
1000
,
0010
0000
0100
1000
0000
1100
0000
0101
0000
1000
0001
0010
0001
0100
0010
1000
,
0010
0100
0000
0101
0000
1010
0000
1000
0100
0010
0000
0011
0000
2100
0000
3001
,
1001
0000
0000
1010
0000
0010
2000
0000
0000
0100
0100
0000
0001
0001
0000
3010
,
1010
0000
0000
1002
0000
1003
0001
1000
0100
0001
0100
0010
0001
0100
1000
0100
,
0001
1000
0000
1100
0000
1000
0010
0100
0000
1100
0000
0100
0001
1000
0100
0010
,
0001
1001
0000
0101
0000
1010
0000
1000
0100
0110
0000
0001
0200
0000
0000
0000
,
0310
0000
0000
0000
1000
0001
1000
0000
0000
0000
0001
0100
0001
0000
0000
0000
0000
0000
1000
0000
0100
0010
0000
0000
1001
0000
0000
0000
0000
0000
0001
1000
,
0001
0000
0010
0000
0001
0000
0010
0100
0010
0000
0100
0000
1000
0000
0001
0000
0000
0000
1000
0000
0100
0000
0010
0000
0000
0000
0011
0000
0000
0000
0001
0000
,
1001
0000
0000
1000
0100
0010
0100
1000
0100
0010
0100
1000
0100
0010
0001
1000
0100
0010
0001
0010
0100
0010
0001
0010
,
0100
1000
0100
0010
0100
1000
0001
0010
0100
1000
0001
0010
0001
1000
0100
0010
0100
1000
0100
0010
0001
1000
0100
0010
,
0001
0000
0100
0001
0100
0000
0110
0000
0000
0000
0100
0000
0010
0000
1000
0001
1000
0000
1001
0000
0000
0000
0001
0000
1000
0100
1000
0100
1000
0000
0010
0000
,
0100
0001
0100
0001
0100
0000
0010
0100
0010
0100
0010
0000
1000
0001
1000
0001
1000
0000
0100
1000
0100
1000
0100
0000
1000
0000
1000
0000
0010
0000
0100
0000
,
0101
0000
0000
0100
0000
0000
0010
0000
0000
1010
0000
0000
1000
0000
0000
0100
0000
0000
0110
0000
0000
0010
0000
0000
0100
0000
0000
1100
0000
0000
1000
0000
0000
0010
0000
0000
0100
0000
0010
0000
1000
0000
0001
0000
0010
0000
0100
0000
,
1000
0000
0000
0100
0000
0000
0010
0000
0000
0011
0000
0000
0001
0000
0000
0100
0000
0000
0110
0000
0000
0010
0000
0000
1000
0000
0000
1100
0000
0000
1000
0000
0000
0001
0000
0000
1000
0000
0100
0000
0010
0000
0001
0000
0010
0000
0100
0000
,
0020
0000
0030
0000
0001
0000
0000
0200
0000
0000
0300
0000
0102
0000
0000
2000
,
0000
0000
0000
0000
0003
0000
0000
0000
3001
0000
0010
0000
1000
0010
0000
0011
,
0000
0000
0000
0000
0000
0000
0000
0000
1100
0000
0000
0000
0000
0000
0021
0000
0000
0000
0000
0000
0030
0001
0100
0000
0000
0000
0010
0000
1000
0000
0002
0000
,
0000
0000
0000
0000
0000
0000
0000
0000
1003
0000
0100
0000
0001
0100
0000
0010
,
0001
0010
0100
1000
1001
0000
0000
0201
0000
0000
0000
0000
0000
0010
0000
0002
,
0000
0000
0000
0000
0300
0000
0000
2003
0000
0000
3100
0000
1000
0010
0000
0101
,
0000
0000
0000
0000
1001
0000
0000
1200
0000
0000
0000
0000
0300
1000
0100
0002
,
0000
0000
0100
0000
0103
0000
0000
0000
0001
0000
0100
0000
1000
0000
0020
0000
0000
0000
0130
0001
0100
0000
0001
0000
1000
0000
0100
0000
0010
0000
0022
0000
,
0000
0033
1100
0000
0000
1010
0000
0000
0010
0100
0000
0102
0000
1003
0100
0010
,
0000
0000
1100
0000
0000
1010
0000
0000
0010
1000
0000
2100
0000
3100
0010
0100
,
0000
0000
1001
0000
0000
0201
0000
0000
0301
0010
0000
0200
0000
0310
0001
1000
,
0000
0000
0101
0000
0000
2010
0000
0000
3001
0001
1000
1000
0010
0010
0100
0100
,
0010
0000
1001
0000
0000
1020
0000
0000
1030
0100
0000
0021
0000
0130
1000
0001
,
0000
0000
0011
0000
0000
0120
0000
0000
0130
1000
0000
0102
0000
1003
0010
0100
,
0000
0000
1001
0000
0000
2010
0000
0000
3001
0010
0000
0110
0000
0011
0000
0110
,
0000
0000
0010
0110
0000
1100
0000
1010
0000
0101
0000
0011
0000
1100
0000
2002
,
0000
3003
0000
0000
;
