#TITLE:Dodo (RED Version);
#SUBTITLE:;
#ARTIST:meganeko;
#TITLETRANSLIT:;
#SUBTITLETRANSLIT:;
#ARTISTTRANSLIT:;
#GENRE:;
#CREDIT:;
#MUSIC:Dodo (RED Version).ogg;
#BANNER:Dodo (RED Version)-banner.png;
#BACKGROUND:Dodo (RED Version)-bg.png;
#CDTITLE:;
#SAMPLESTART:44.784;
#SAMPLELENGTH:14.326;
#SELECTABLE:YES;
#OFFSET:-0.019;
#BPMS:0.000=130.012000;
#STOPS:;
#BGCHANGES:;
#FGCHANGES:;

//--------------- dance-single - Pandemonium X ----------------
#NOTES:
     dance-single:
     Pandemonium X:
     Beginner:
     4:
     0,0,0,0,0:
0000
0000
0000
0000
,
0000
0000
0000
0000
,
0000
0000
0000
0000
,
0000
0000
0000
0000
,
0000
0001
0000
0000
0000
0000
0000
0000
,
0000
1000
0000
0000
0000
0000
0000
0000
,
0000
0001
0000
0000
0000
0000
0000
0000
,
0000
1000
0000
0000
0000
0000
0000
0000
,
0000
0010
0000
0000
0000
0000
0000
0000
,
0000
0100
0000
0000
0000
0000
0000
0000
,
0000
0000
0000
0000
,
0000
0000
0000
0000
,
0001
0000
1000
0000
,
0001
0000
1000
0000
,
0001
1000
0001
1000
,
0100
0000
0000
0000
,
0110
0000
1000
0000
,
0001
0000
0100
0000
,
0110
0000
0010
0000
,
0100
0000
0001
1000
,
1001
0000
1000
0000
,
0001
0000
0010
0000
,
0110
0000
0100
0000
,
2000
0000
0000
0000
,
3000
0001
0000
0100
,
0000
0000
0010
0010
,
0010
0100
0000
0001
,
1000
0000
0100
0000
,
0000
0000
0000
0000
0010
0000
0000
0000
0000
0000
0000
0000
0000
0000
0000
0100
,
0000
0000
0000
0000
0000
0000
0000
1000
0000
0000
0000
0000
0000
0000
0000
0000
,
0000
0000
0000
0000
0001
0000
0000
0001
0000
0000
0000
0000
0000
0000
0000
1000
,
0000
0000
0000
0000
0000
0000
0000
0001
0000
0000
0000
0000
0000
0000
0000
0000
,
0110
0000
0000
0000
,
0000
0000
0000
0000
0000
0000
0000
0000
2000
0000
0000
0000
0000
0000
0000
3000
,
0000
0000
0000
0000
,
0000
0000
0000
0000
0000
0000
0000
0000
0002
0000
0000
0000
0000
0000
0000
0003
,
0000
0000
0000
0000
,
0000
0000
0000
0000
0000
0000
0000
0020
0000
0000
0000
0000
0000
0000
0000
0030
,
0000
0000
0000
0000
,
0000
0000
0000
0000
,
0100
0000
1000
0000
,
0010
0000
0100
0000
,
0001
0000
1000
0000
,
0100
0000
1000
1000
,
0001
0000
0100
0000
,
0001
0000
0010
0000
,
0100
0000
1000
0000
,
0001
0000
0000
0000
,
1001
0000
0000
0000
0000
1000
0000
0000
,
1000
0000
0000
0000
0000
0000
0000
0001
0000
0000
0000
0000
0000
0000
0000
0000
,
0100
0000
0000
0000
0000
0000
0000
0010
0000
0000
0000
0000
0000
0000
0000
0000
,
0000
0100
0000
0000
0000
0000
0000
0000
0000
0010
0000
0000
0000
0000
0000
0000
,
0110
0000
1000
0000
,
0001
0000
1000
0000
,
0001
0000
0000
1000
0000
0000
0100
0000
,
0010
0000
0000
0001
0000
0000
1000
0000
,
0110
0000
0000
0000
,
0000
0000
0001
0000
0000
0001
0000
0000
0001
0000
0000
0000
0000
0000
0000
0000
,
1000
0000
0001
0000
,
0100
0000
0001
0000
,
1001
0000
1000
0000
,
0010
0000
1000
0001
,
1001
0000
1000
0000
,
0010
0000
0100
0000
,
0110
0000
0010
0000
,
0200
0000
0000
0000
,
0300
0001
0000
1000
,
0000
0000
0100
0010
,
0100
0010
0000
0001
,
0001
0000
1000
0000
,
0001
0000
0100
0000
,
0010
0000
0000
0000
0000
0000
0000
0100
0000
0000
0000
0000
0000
0000
0000
0000
,
0000
0000
0000
0000
0010
0000
0000
0010
0000
0000
0000
0000
0000
0000
0000
0100
,
0000
0000
0000
0000
0000
0000
0000
0010
0000
0000
0000
0000
0000
0000
0000
0000
,
1001
0000
0000
0000
;

//--------------- dance-single - Pandemonium X ----------------
#NOTES:
     dance-single:
     Pandemonium X:
     Easy:
     8:
     0,0,0,0,0:
0000
0000
0000
0000
,
0000
0000
0000
0000
,
0000
0000
0000
0000
,
0000
0000
0000
0000
,
0000
0000
0001
0000
0000
0001
0000
0000
0001
0000
0000
0000
0000
0000
0000
0000
,
0000
0000
1000
0000
0000
1000
0000
0000
1000
0000
0000
0000
0000
0000
0000
0000
,
0000
0000
0010
0000
0000
0010
0000
0000
0010
0000
0000
0000
0000
0000
0000
0000
,
0000
0000
0100
0000
0000
0100
0000
0000
0100
0000
0000
0000
0000
0000
0000
0000
,
0000
0000
0001
0000
0000
1000
0000
0000
0010
0000
0000
0000
0000
0000
0000
0000
,
0000
0000
1000
0000
0000
0001
0000
0000
0100
0000
0000
0000
0000
0000
0000
0000
,
0001
0000
1000
0000
,
0010
0000
0100
0000
,
1001
0000
1001
0000
,
1001
0000
1001
0000
,
1001
1001
0110
0110
,
0002
0000
0000
0003
,
1000
0100
1000
0100
,
0010
0100
0010
0100
,
0011
0001
0010
0001
,
1000
0010
1000
0010
,
0110
0100
0010
0100
,
0001
0100
0001
0100
,
0011
0010
0001
0010
,
0000
0200
0000
0000
0000
0000
0000
0300
0000
2000
0000
0000
0000
0000
3000
0000
,
0000
0000
0000
0000
0001
0000
0000
0001
0000
0000
0000
0000
1000
0000
0000
2000
,
0000
0000
0000
0000
3010
0000
1000
0000
,
0100
0000
0000
0000
0010
0000
0000
0010
0000
0000
0000
0100
0000
0000
0000
0020
,
0000
0000
0000
0000
0000
0000
0000
0000
0031
0000
0000
0000
1000
0000
0000
0001
,
0000
0000
0000
0000
0100
0000
0000
0002
0000
0000
0000
0000
0000
1003
0000
2000
,
0000
0000
0000
0000
0000
0000
0000
3200
0000
0000
0000
0000
0000
0000
0000
0000
,
0300
0000
0000
0000
1001
0000
0000
0110
0000
0000
0000
0000
0000
0000
0000
0001
,
0000
0000
0000
0000
0000
0000
0000
1000
0000
0000
0000
0000
0000
0000
0000
0000
,
0110
0000
0000
0000
,
0000
0000
0001
1000
,
0100
0000
0000
0000
,
0000
0000
1000
0001
,
0100
0000
0000
0000
,
0000
0000
0001
1000
,
0010
0200
0000
0000
0000
0000
0000
0000
,
0000
0000
0000
0310
,
1001
0001
0010
0010
,
0001
1000
0010
0010
,
1000
0001
0100
0100
,
0001
1000
0100
0100
,
0010
0100
1000
1000
,
0001
0100
0001
0001
,
1000
0100
1000
1000
,
0020
0000
0000
0000
0230
0000
0000
0000
,
0301
0000
0000
0001
0000
0000
0001
0000
0000
0000
1000
0000
0000
1000
0000
0000
,
1000
0000
0000
0010
0000
0000
0000
0100
0000
0000
0000
0000
0010
0000
0000
0000
,
0100
0000
0000
0001
0000
1000
0000
0001
0000
0000
0000
0000
1000
0000
0000
0000
,
1100
0000
0011
0000
,
1001
0001
1000
0010
,
0100
0001
1000
0001
,
1000
0000
0000
0100
0000
0000
0010
0000
0000
0001
0000
0000
0010
0000
0100
0000
,
1000
0000
0000
0100
0000
0000
0010
0000
0000
0001
0000
0000
0010
0000
0100
0000
,
1100
0000
0000
0000
,
0000
0000
1001
0000
0000
1001
0000
0000
1001
0000
0000
0000
0000
0000
0000
0000
,
0001
1000
0010
1000
,
0100
0010
0001
0100
,
0110
0010
0100
0001
,
1000
0100
0010
0100
,
1100
0100
1000
0001
,
0100
0001
0010
0100
,
0110
0010
0001
0100
,
0000
0020
0000
0000
0000
0000
0000
0030
0000
0200
0000
0000
0000
0000
0000
0300
,
0000
0000
0000
0000
0001
0000
0000
2000
0000
0000
0000
0000
3100
0000
0000
0020
,
0000
0000
0000
0000
0130
0000
1000
0000
,
0001
0000
0000
0000
0100
0000
0000
0001
0000
0000
0000
1000
0000
0000
0000
0200
,
0000
0000
0000
0000
0310
0000
0100
0000
,
1000
0000
0000
0000
0001
0000
0000
0200
0000
0000
0000
0000
0000
0301
0000
0002
,
0000
0000
0000
0000
0003
0000
0000
2002
0000
0000
0000
0000
0000
0000
3003
0000
,
0000
0000
0000
0000
0101
0000
0000
1010
0000
0000
0000
0000
0000
0000
0000
1100
,
0000
0000
0000
0000
0001
0000
0000
0101
0000
0000
0000
0000
0000
1000
0000
0000
,
1001
0000
0000
0000
;

//--------------- dance-single - Pandemonium X ----------------
#NOTES:
     dance-single:
     Pandemonium X:
     Medium:
     13:
     0,0,0,0,0:
0000
0000
0000
0000
,
0000
0000
0000
0000
,
0000
0000
0000
0000
,
0000
0000
0000
0000
,
0000
0000
0101
0000
0000
1010
0000
0000
1001
0000
0000
0000
0000
0000
0000
0000
,
0000
0000
1100
0000
0000
0011
0000
0000
1001
0000
0000
0000
0000
0000
0000
0000
,
0000
0000
0011
0000
0000
0110
0000
0000
1100
0000
0000
0000
0000
0000
0000
0000
,
0000
0000
1100
0000
0000
0110
0000
0000
0011
0000
0000
0000
0000
0000
0000
0000
,
0000
0000
1001
0000
0000
1010
0000
0000
1100
0000
0000
0000
0000
0000
0000
0000
,
0000
0000
1001
0000
0000
0101
0000
0000
0200
0000
0300
0000
0000
0000
0000
0000
,
0002
0003
2000
3000
,
0020
0030
0200
0300
,
1001
0000
0110
0000
,
0101
0000
0011
0000
,
1100
0110
0011
0110
,
0000
1000
0000
1000
0000
1000
0000
0000
0000
0001
0000
0001
1000
0100
0000
0010
,
0001
0000
1000
0000
0000
0001
0000
0000
1000
0001
0000
1000
0000
0000
0001
0000
,
0000
0000
0100
0000
0000
0010
0000
0000
0100
0010
0000
0100
0000
0000
0010
0000
,
1010
0000
1000
0000
0000
0010
0000
0000
1000
0010
0000
1000
0000
0010
1000
0000
,
0000
0000
0001
0000
0000
0100
0000
0000
0001
0100
0000
0001
0000
0100
0001
0000
,
1001
0000
1000
0000
0000
0100
0000
0000
0010
0001
0000
0010
0000
0010
0100
0000
,
0000
0000
0010
0000
0000
0100
0000
0000
1000
0010
0000
0100
0000
0100
0001
0000
,
1001
0000
1000
0000
0000
0001
0000
0000
0010
0001
0000
1000
0000
0010
1000
0000
,
0000
0001
0010
1000
0000
0010
0001
1000
,
0010
0100
0020
0000
1030
0000
0000
2001
0000
0000
0000
0000
3001
0000
0000
2100
,
0000
0000
0000
0000
0000
0000
0000
0000
3100
0000
1000
0000
0010
0100
0000
0001
,
0000
0000
0000
0000
0011
0000
0000
0210
0000
0000
0310
0100
0000
0100
1000
0020
,
0000
0000
0000
0000
0000
0000
0000
0000
0130
0000
0010
0000
0100
0001
0000
0010
,
0000
0000
0000
0000
0100
0000
0000
2000
0000
0000
0000
0000
0000
3001
0000
0000
,
0002
0000
0000
0000
0000
0000
0000
0203
0000
0000
0310
0000
0100
0001
0000
1000
,
0000
0000
0000
0000
1001
0000
0000
0110
0000
0000
0000
0000
0000
0001
0100
0010
,
0000
1000
0010
0000
0100
0010
1000
0001
0000
1000
0100
0010
0001
0010
0100
1000
,
0001
0000
0000
0000
,
0000
0000
0000
0000
0000
0000
0000
0000
1000
0000
0001
0000
1000
0001
0000
1000
,
0000
0000
0000
0000
,
0000
0000
0000
0000
0000
0000
0000
0000
0001
0000
1000
0000
0001
1000
0000
0001
,
0000
0000
0000
0000
,
0000
0000
0000
0000
0000
0000
0000
1000
0000
0000
0001
0000
1000
0001
0000
1000
,
0000
0020
0000
0000
0000
0000
0000
0000
,
0000
0000
0000
0000
0000
0000
0000
0000
0000
0130
0001
1000
0001
0010
0001
1000
,
0100
0000
0010
0000
0000
0100
0000
0000
1000
0010
0000
0100
0000
0000
0001
1000
,
0000
0000
0100
0000
0000
1000
0000
0000
0001
1000
0000
0010
0000
0000
1000
0001
,
0000
0000
0010
0000
0000
0100
0000
0000
0010
0001
0000
0010
0000
0000
0001
0100
,
0000
0000
0001
0000
0000
1000
0000
0000
0001
0000
0000
0100
0000
0000
0010
1000
,
0000
0000
0010
0000
0000
0100
0000
0000
0001
0010
0000
0100
0000
0000
0010
0001
,
0000
0000
0010
0000
0000
0100
0000
0000
1000
0100
0000
0010
0000
0000
0100
1000
,
0000
0000
0010
0000
0000
0100
0000
0000
0001
1000
0000
0010
0000
0100
0000
0010
,
0000
0000
1000
0001
0000
1000
0000
0001
0000
0000
1000
0010
0000
0100
0000
0001
,
1000
0000
0000
1000
0000
0010
0100
0000
0000
0000
0010
0000
0000
0010
0000
0000
,
0010
0000
0000
0100
0000
0001
0000
1000
0000
0001
1000
0000
0001
0000
0010
0000
,
0100
0000
0000
0010
0000
0010
0000
0100
0000
0010
0001
0000
0100
0000
0010
0000
,
0000
1010
0000
0101
0000
1010
0000
0000
0000
1100
0000
0011
0000
1100
0000
0000
,
1001
0000
0000
0001
0000
1000
0010
0000
0000
0000
0100
0000
0000
0100
0000
0000
,
0100
0000
0000
0010
0000
0000
0100
0000
0001
0000
0010
0000
0100
0000
1000
0000
,
0001
0000
1000
0010
0000
0100
0001
0000
0010
0100
0000
0010
0001
0100
0010
1000
,
0001
0000
1000
0100
0000
0010
0100
0000
0010
0001
0000
0010
0100
1000
0001
0100
,
0020
0000
0000
0030
0000
0000
0000
0000
0000
0000
0000
0000
0000
0000
0000
0000
,
0000
0000
0101
0000
0000
1010
0000
0000
1100
0000
0000
0000
0000
0100
0000
0000
,
1001
0000
0001
0000
0000
1000
0000
0000
0100
1000
0000
0100
0000
0000
0010
0001
,
0000
0100
0000
0000
0010
0100
0000
0001
0000
0000
1000
0100
0000
1000
0010
0000
,
0100
0000
0010
0000
0000
0100
0000
0000
0001
0010
0000
0001
0000
0000
1000
0001
,
0000
0100
0000
0000
0001
1000
0000
0100
0010
0000
0010
0100
0000
0100
1000
0000
,
1001
0000
0001
0000
0000
1000
0000
0000
0010
1000
0000
0010
0000
0000
0100
0000
,
0000
0001
0000
0000
0000
0010
0000
0100
0000
0000
1000
0000
1200
0000
0320
0000
,
0031
0000
0010
0000
0000
0001
0000
0000
0100
0010
0000
0100
0000
0001
1000
0000
,
0000
0100
1000
0010
0000
0100
1000
0100
,
0002
0000
0000
0000
1003
0000
0000
0202
0000
0000
0303
0000
1001
0000
0000
2200
,
0000
0000
0000
0000
0000
0000
3300
0000
0100
0000
0010
0000
0001
1000
0000
0010
,
0000
0000
0000
0000
1010
0000
0000
0201
0000
0000
0301
0010
0000
0010
0001
2000
,
0000
0000
0000
0000
0000
0000
0000
0000
3010
0000
0100
0000
0001
0010
0000
0100
,
0000
0000
0000
0000
0011
0000
0000
0220
0000
0000
0000
0000
0330
1100
0000
2020
,
0000
0000
0000
0000
3030
0000
0000
0202
0000
0000
0000
0000
0303
0000
0000
0000
,
0000
0000
0000
0000
1001
0000
0000
2002
0000
0000
0000
0000
0003
3001
0100
0020
,
0000
0000
0000
0000
0230
0000
0000
0302
0000
0000
0000
0000
1003
0010
0100
0001
,
1000
0000
0000
0000
;

//--------------- dance-single - Pandemonium X ----------------
#NOTES:
     dance-single:
     Pandemonium X:
     Hard:
     16:
     0,0,0,0,0:
0000
0000
0000
0000
,
0000
0000
0000
0000
,
0000
0000
0000
0000
,
0000
0000
0000
0000
,
0000
0000
0101
0000
0000
1010
0000
0000
1001
0000
0000
0000
0000
0000
0000
0000
,
0000
0000
1100
0000
0000
0011
0000
0000
1001
0000
0000
0000
0000
0000
0000
0000
,
0000
0000
0011
0000
0000
0110
0000
0000
1100
0000
0000
0000
0000
0000
0000
0000
,
0000
0000
1100
0000
0000
0110
0000
0000
0011
0000
0000
0000
0000
0000
0000
0000
,
0010
0000
1001
0000
0000
0011
0000
0000
1001
0000
0000
0000
0000
0000
0000
0000
,
0000
0000
1010
0000
0000
0101
0000
0000
2002
0000
3003
0000
0000
0000
0000
0000
,
0000
0000
0001
0000
0000
0001
0000
0000
0001
0000
0000
0001
0000
0000
0100
0000
,
0000
0000
0010
0000
0000
0010
0000
0000
0010
0000
0000
0010
0000
0000
1000
0100
,
0010
0000
0100
0000
1000
0000
0001
0100
0010
0000
0100
0000
0001
0000
1000
0100
,
0010
0000
0100
0000
1000
0000
0001
0100
0010
0000
0100
0000
0001
0000
1000
0001
,
0010
0100
0010
0100
1000
0001
1000
0001
0100
0010
1000
0010
0100
0001
1000
0001
,
0000
1000
0000
1000
0000
1000
0000
0000
0000
0001
0000
0001
0100
0001
0000
1000
,
1001
0000
0001
0000
0000
0010
0000
0000
0100
1000
0000
0010
0000
0010
0100
0000
,
0000
0000
0001
0000
0000
1000
0000
0000
0100
1000
0000
0010
0000
1000
0001
0000
,
1001
0000
1000
0000
0000
0100
0000
0000
0100
1000
0000
0001
0000
0001
0100
0000
,
0000
0000
0010
0000
0000
0100
0000
0000
0010
1000
0000
0010
0100
0001
1000
0000
,
1001
0000
0001
0000
0000
0010
0000
0000
0100
0010
0000
0001
0000
1000
0100
0000
,
0000
0000
0010
0000
0000
0100
0000
0000
0010
0001
0000
1000
0000
0010
1000
0000
,
1100
0000
0100
0000
0000
0010
0000
0000
0001
0010
0000
0001
0000
0001
1000
0000
,
0001
1000
0100
1000
0100
0001
0100
1000
0000
0010
0001
0010
1000
0100
1000
0001
,
0100
0010
1000
0000
0101
0000
0001
0020
0000
0000
0000
0000
1030
0000
0010
0002
,
0000
0000
0000
0000
0000
0000
0000
0000
0013
0000
0100
0000
0010
0001
0000
1000
,
0000
0000
0000
0000
0000
0000
0000
0000
0000
0000
0000
0000
0000
0000
0000
0000
0000
0000
0000
0000
0000
0000
0000
0000
0000
0000
0000
0000
0000
0000
0000
0000
0000
0000
0000
0000
0000
0000
0000
0000
0000
0000
0000
0000
0000
0000
0000
0000
0102
0000
0000
0000
0000
0000
0000
0000
0000
0000
0000
0000
0000
0000
0000
0000
0000
0000
0000
0000
0000
0000
0000
0000
0000
0000
0000
0000
0000
0000
0000
0000
0000
0000
0000
0000
1003
0000
0000
0000
0000
0000
0000
0000
0000
0000
0000
0000
0000
0000
0000
0000
0000
0000
0000
0000
0000
0000
0000
0000
0000
0000
0000
0000
0000
0000
0000
0001
0000
0000
0000
0000
0000
0000
0000
0000
0000
0100
0000
0000
0000
0000
0000
0000
0001
0000
0000
0000
0000
0000
0000
0000
0000
0000
0000
0000
1000
0000
0000
0000
0000
0000
0000
0000
0000
0000
0000
0000
0100
0000
0000
0000
0000
0000
0000
0000
0000
0000
0000
0000
1000
0000
0000
0000
0000
0000
0000
0000
0000
0000
0000
0000
0020
0000
0000
0000
0000
0000
0000
0000
0000
0000
0000
0000
,
0000
0000
0000
0000
0000
0000
0000
0000
0130
0000
0001
0000
0010
1000
0000
0010
,
0001
0000
0000
0000
0011
0000
0000
2100
0000
0000
0000
0000
3000
1001
0000
0201
,
0000
0000
0000
0000
0000
0000
0000
0320
0000
0000
0130
0000
0001
0010
0000
0100
,
0000
0000
0000
0000
0110
0000
0000
2001
0000
0000
0000
0000
0000
3001
0010
1000
,
0000
1000
0010
0000
0010
0001
0100
1000
0000
1000
0010
0001
0010
1000
0001
1000
,
0200
0000
0000
0000
,
0300
0000
0000
0000
0000
0000
0000
0000
0010
0000
0100
0000
0010
0001
0000
0100
,
0000
0000
0000
0000
,
0000
0000
0000
0000
0000
0000
0000
0000
0010
0000
0100
0000
0001
1000
0000
0100
,
0000
0000
0000
0000
,
0000
0000
0000
0000
0000
0000
0000
0100
0000
0000
0010
0000
0001
0010
0000
0100
,
0000
0000
0040
0400
0000
0000
0000
0000
0000
0000
0000
0000
0000
0000
0000
0000
,
0000
0000
0000
0000
0000
0000
0000
0000
0330
0000
0000
0000
0000
0000
0000
0000
0000
0000
1000
0001
1000
0000
0001
0000
0010
0000
0100
0000
1000
0000
0001
0000
,
1000
0000
0010
0000
0000
1000
0000
0000
0100
0001
0000
0100
0000
0100
1000
0010
,
0000
0000
0001
0000
0000
0010
0000
0000
0100
1000
0000
0100
0000
0100
0001
1000
,
0000
0000
0001
0000
0000
1000
0000
0000
0100
0001
0000
0100
0000
0100
0010
0001
,
0000
0000
0001
0000
0000
1000
0000
0000
0001
0001
1000
0010
0100
0100
0001
1000
,
0100
0000
0010
0000
0000
1000
0000
0000
0010
0001
0000
0100
0000
1000
0100
0001
,
0000
0000
1000
0000
0000
0100
0000
0000
0001
0100
0000
0010
0000
0010
0100
1000
,
0000
0000
0100
0000
0000
0001
0000
0000
0100
0010
0000
0011
0000
0110
0000
1001
,
0000
0000
1000
0001
0000
1000
0000
0100
0000
0010
0100
1000
0001
0100
0001
1000
,
0100
0000
0000
0100
0000
0100
0020
0000
0000
0001
0001
0000
0100
0100
0000
0001
,
0031
0000
0000
1001
0000
0101
0000
0011
0000
0010
0100
1000
0100
0010
0100
1000
,
0001
0000
0100
0010
0000
0110
0000
0101
0000
0001
0010
0100
1000
0100
1000
0001
,
0100
1000
0000
1100
0000
0101
0000
0001
0010
1000
0000
1010
0000
0011
0000
0001
,
0010
0000
0100
0010
0001
0100
0020
0000
0000
0130
0001
1000
0100
0010
0100
1000
,
0001
0100
0001
0010
0100
1000
0100
0001
0100
1000
0010
0001
0010
0100
0001
1000
,
1001
0000
0000
0001
0000
0000
0010
0000
0000
0110
0000
0000
0100
0000
0000
1000
0000
0000
1010
0000
0000
0010
0000
0000
0100
0000
0000
0101
0000
0000
0001
0000
0000
0010
0000
0000
0100
0000
1000
0000
0100
0000
0010
0000
0100
0000
0010
0000
,
0001
0000
0000
0010
0000
0000
0100
0000
0000
0110
0000
0000
0100
0000
0000
1000
0000
0000
1010
0000
0000
0010
0000
0000
0100
0000
0000
0101
0000
0000
0001
0000
0000
1000
0000
0000
0001
0000
1000
0000
0001
0000
0100
0000
0001
0000
1000
0000
,
0002
0000
0000
0000
0003
0000
0000
0000
0000
0000
0000
0000
0000
0000
0000
0000
0000
0000
0000
0000
0000
0000
0000
0000
,
0000
0000
0101
0000
0000
1010
0000
0000
0101
0100
0000
0100
0010
0110
0000
0000
,
1001
0000
1000
0000
0000
0001
0000
0000
1000
0100
0000
0010
0000
0000
0010
0100
,
1000
0001
0000
0000
0000
1010
0000
0101
0000
0000
0001
0010
0000
0010
0100
0000
,
1100
0000
0100
0000
0000
1000
0000
0000
0001
0100
0000
0001
0000
0000
1000
0100
,
0000
1000
0000
0000
0001
0100
0000
0010
0000
0100
0001
1000
0000
0100
0010
0000
,
1001
0000
0001
0000
0000
0100
0000
0000
0001
1000
0000
0100
0000
0000
0010
0000
,
0000
0001
0000
0000
1000
0100
0000
0010
0000
0000
0100
0000
1100
0000
0011
0000
,
0001
0000
1001
0000
0000
1000
0000
0000
0100
1000
0000
0100
0000
0010
0100
0000
,
0000
0010
0001
1000
0001
0100
0001
1000
0000
0100
0010
0100
1000
0001
1000
0001
,
0100
0000
0000
0000
1010
0000
0000
0201
0000
0000
0000
0000
0301
0000
0000
1020
,
0000
0000
0000
0000
0000
0000
0000
0000
0130
0000
1000
0000
0100
0001
0000
1000
,
0000
0000
0000
0000
0000
0000
0000
0000
0000
0000
0000
0000
0000
0000
0000
0000
0000
0000
0000
0000
0000
0000
0000
0000
0000
0000
0000
0000
0000
0000
0000
0000
0000
0000
0000
0000
0000
0000
0000
0000
0000
0000
0000
0000
0000
0000
0000
0000
1100
0000
0000
0000
0000
0000
0000
0000
0000
0000
0000
0000
0000
0000
0000
0000
0000
0000
0000
0000
0000
0000
0000
0000
0000
0000
0000
0000
0000
0000
0000
0000
0000
0000
0000
0000
0011
0000
0000
0000
0000
0000
0000
0000
0000
0000
0000
0000
0000
0000
0000
0000
0000
0000
0000
0000
0000
0000
0000
0000
0001
0000
0000
0000
0000
0000
0000
0000
0000
0000
0000
0000
0010
0000
0000
0000
0000
0001
0000
0000
0000
0000
0000
0000
0000
0000
0010
0000
0000
0000
0000
0000
0000
0000
0000
0000
0000
0000
0000
0000
0000
0000
0000
0000
0000
0000
0000
0000
0100
0000
0000
0000
0000
0000
0000
0000
0000
0000
0000
0000
1000
0000
0000
0000
0000
0000
0000
0000
0000
0000
0000
0000
0002
0000
0000
0000
0000
0000
0000
0000
0000
0000
0000
0000
,
0000
0000
0000
0000
0000
0000
0000
0000
0013
0000
0100
0000
0010
0001
0000
1000
,
0000
0000
0000
0000
1100
0000
0000
0012
0000
0000
0000
0000
0000
0100
0000
0203
,
0000
0000
0000
0000
0000
0000
0000
0320
0000
0000
1000
0000
0130
0001
0000
1000
,
0000
0000
0000
0000
1001
0000
0000
0201
0000
0000
0000
0000
0000
0301
1000
1200
,
0000
0000
0000
0000
0310
0000
0000
0012
0000
0000
0000
0000
0000
0013
0000
0000
,
1100
0000
0000
0000
;
