#TITLE:DENIM;
#SUBTITLE:;
#ARTIST:SLAKE;
#TITLETRANSLIT:;
#SUBTITLETRANSLIT:;
#ARTISTTRANSLIT:;
#GENRE:;
#CREDIT:;
#MUSIC:DENIM.ogg;
#BANNER:DENIM-bn.png;
#BACKGROUND:DENIM-bg.png;
#CDTITLE:;
#SAMPLESTART:36.563;
#SAMPLELENGTH:12.825;
#SELECTABLE:YES;
#OFFSET:0.237;
#BPMS:0.000=150.000;
#STOPS:;
#BGCHANGES:;
#FGCHANGES:;

//--------------- dance-single - Pandemonium X ----------------
#NOTES:
     dance-single:
     Pandemonium X:
     Beginner:
     2:
     0,0,0,0,0:
0000
0000
0000
0000
,
0000
0000
0000
0000
,
0000
0000
0000
0000
,
0001
0000
0000
0000
,
0000
0000
0000
0000
,
1000
0000
0000
0000
,
0000
0000
0000
0000
,
0001
0000
0000
0000
,
0000
0000
0000
0000
,
1000
0000
0000
0000
,
0000
0000
0000
0000
,
0010
0000
0000
0000
,
0100
0000
0000
0000
,
0001
0000
0000
0000
,
1000
0000
0000
0000
,
0100
0000
0000
0000
,
0010
0000
0000
0000
,
0001
0000
0000
0000
,
1000
0000
0001
0000
,
1000
0000
0000
0000
,
0001
0000
0000
0000
,
0010
0000
0000
0000
,
0100
0000
1000
0000
,
0001
0000
0000
0000
,
1000
0000
0000
0000
,
0010
0000
0000
0000
,
0100
0000
0000
0000
,
0010
0000
0000
0000
,
1000
0000
0000
0000
,
0001
0000
0000
0000
,
1000
0000
0001
0001
,
1000
0000
0001
0000
,
1000
0000
0000
0000
,
0010
0000
0100
0000
,
0010
0000
0000
0000
,
1000
0000
0100
0000
,
1000
0000
0000
0000
,
0001
0000
0100
0000
,
0001
0000
0000
0000
,
1000
0000
0001
0000
,
1000
0000
0001
0001
,
0001
0000
0100
0000
,
0001
0000
1000
1000
,
1000
0000
0001
0000
,
0010
0000
0100
0100
,
0100
0000
1000
0000
,
1001
0000
0110
1001
;

//--------------- dance-single - Pandemonium X ----------------
#NOTES:
     dance-single:
     Pandemonium X:
     Easy:
     7:
     0,0,0,0,0:
0000
0000
0000
0000
,
0000
0000
0000
0000
,
0000
0000
0000
0000
,
0001
0000
1000
0000
,
0001
1000
0001
0000
,
1000
0000
0001
0000
,
1000
0001
1000
0000
,
0010
0000
0100
0000
,
0010
0100
0010
0000
,
0100
0000
0010
0000
,
0100
0010
0100
0000
,
0001
0001
0001
0001
,
1000
1000
1000
1000
,
0010
0010
0010
0010
,
0100
0100
0100
0100
,
0001
1000
0010
1000
,
0001
0010
0001
1000
,
0001
0100
0001
1000
,
0100
0000
1000
0000
0001
0100
0001
0000
,
1000
0001
0010
0001
,
1000
0010
1000
0001
,
1000
0100
1000
0001
,
0100
0000
0001
1000
0001
0000
0000
0000
,
1000
0000
0100
0000
0010
0000
0001
0001
,
0001
0000
0010
0000
0001
0000
0100
0100
,
0100
0000
0010
0000
1000
0000
0100
0100
,
0100
0000
0010
0000
0001
0000
1000
1000
,
1000
0000
0001
0000
1000
0000
0100
0100
,
0100
0000
0010
0000
0100
0000
1000
1000
,
1000
0000
0001
0000
0100
0000
0010
0010
,
0010
0000
0000
0000
0000
0000
0010
0000
0100
0000
0000
0100
0000
0000
0100
0000
,
0001
0000
1000
0000
,
0010
1000
0100
0010
,
0001
0000
0010
0000
,
0001
0010
0100
1000
,
0010
0000
0100
0000
,
0001
1000
0010
1000
,
0100
0000
1000
0000
,
0010
0100
0000
0000
,
0010
0100
0001
1000
,
0100
0000
0010
0000
0100
1000
0010
0100
,
0001
0010
0100
0010
,
0001
0000
1000
0000
0001
0100
0010
1000
,
0001
1000
0100
1000
,
0010
0000
0100
0000
0001
0010
0100
1000
,
0001
0000
1000
0001
1000
0000
0001
0000
,
0100
0000
0000
0010
0000
0000
1000
0000
0001
0000
0001
0000
1000
0000
0001
0000
;

//--------------- dance-single - Pandemonium X ----------------
#NOTES:
     dance-single:
     Pandemonium X:
     Medium:
     10:
     0,0,0,0,0:
0000
0000
0000
0000
,
0000
0000
0000
0000
,
0000
0000
0000
0000
,
1001
0000
0001
0000
,
1000
0001
1001
0000
,
0110
0000
1001
0000
,
1000
0001
1001
0000
,
0101
0000
0001
0000
,
1000
0100
1100
0000
,
0011
0000
1100
0000
,
1000
0001
1010
0000
,
1000
0000
0001
0000
0010
0001
0010
0000
,
0100
0000
1000
0000
0010
1000
0010
0000
,
0100
0000
0001
0000
1000
0100
1000
0000
,
0100
0000
0010
0000
0001
0100
0001
0000
,
0100
0000
0001
0000
0010
0100
1000
0000
,
0100
0000
0010
0000
0001
0010
0100
0000
,
0010
0000
0001
0000
0100
0001
1000
0000
,
0001
0000
1000
0000
0100
1000
0010
0000
,
0100
1000
0100
0001
,
0100
0000
1000
0000
0100
0001
1000
0100
,
0001
0010
1000
0010
,
0001
0000
0001
0010
1000
0000
0000
0000
,
0001
0000
0000
0000
0100
0000
0000
0000
0010
0000
0000
0000
0100
0000
0000
0100
,
0000
0000
0010
0000
1000
0000
0000
0000
0001
0000
0000
0000
0010
0000
0000
0010
,
0000
0000
0100
0000
1000
0000
0000
0000
0001
0000
0000
0000
1000
0000
0000
1000
,
0000
0000
0001
0000
1000
0000
0000
0000
0100
0000
0000
0000
0010
0000
0000
0010
,
0000
0000
0100
0000
1000
0000
0000
0000
0001
0000
0000
0000
0100
0000
0000
0100
,
0000
0000
0001
0000
0010
0000
0000
0000
0001
0000
0000
0000
1000
0000
0000
1000
,
0000
0000
0100
0000
1000
0000
0000
0000
0010
0000
0000
0000
0100
0000
0000
0001
,
0000
0000
1000
0000
0000
0000
0001
0000
1000
0000
0001
1000
0000
0001
1000
0000
,
0001
0000
0100
0000
0010
1000
0100
0000
,
0010
0000
0100
0000
0010
0001
0100
0000
,
0001
0100
0001
0000
0100
0010
0100
0000
,
0010
1000
0010
0000
1000
0001
1000
0001
,
0010
0100
0010
0000
0001
0010
0001
0000
,
0100
1000
0100
1000
0010
1000
0010
0000
,
0100
0001
0100
0000
0001
0010
0001
0000
,
0010
0100
0010
0100
0000
0000
0000
0000
,
0100
0000
1000
0000
0010
0000
0001
0010
,
1000
0000
0001
0000
1000
0100
0001
0100
,
1000
0000
0001
0000
0100
0000
0010
0001
,
0010
0000
0001
0000
0100
1000
0100
0001
,
1000
0000
0100
0000
0001
0100
1000
0000
,
0100
0000
0010
0000
0001
0010
1000
0000
,
0010
0000
0001
0000
0100
0000
0100
0000
0001
0000
1000
0001
0000
1000
0001
0000
,
0100
0000
0000
0001
0000
0000
0010
0000
1000
0000
0010
0000
0001
0000
1000
0000
;

//--------------- dance-single - Pandemonium X ----------------
#NOTES:
     dance-single:
     Pandemonium X:
     Hard:
     12:
     0,0,0,0,0:
0000
0000
0000
0000
,
0000
0000
0000
0000
,
0000
0000
0000
0000
,
1001
0000
0000
0001
0000
0000
0000
0000
0100
0000
0000
0100
0000
0000
0000
0000
,
0001
0000
0000
0001
0000
0000
0000
0000
0001
0000
0000
0000
0000
0000
0000
0000
,
1000
0000
0000
0000
0000
0000
0000
0100
0000
0100
0000
0000
0000
0000
0000
0000
,
0100
0000
0000
1000
0000
0000
0000
0000
0100
0000
0000
0000
1000
0000
0000
0000
,
1001
0000
0000
0001
0000
0000
0000
0000
0010
0000
0000
0010
0000
0000
0000
0000
,
0001
0000
0000
0001
0000
0000
0000
0000
0001
0000
0000
0000
0000
0000
0000
0000
,
1001
0000
0000
0000
0000
0000
0000
1000
0000
1000
0000
0000
0000
0000
0000
0000
,
1000
0000
0000
0010
0000
0000
0000
0000
1000
0000
0000
0000
0010
0000
0000
0000
,
0100
0000
0001
0000
0010
0100
0001
0000
,
0100
0000
1000
0000
0010
0100
1000
0000
,
0100
0000
0001
0000
0010
0100
0001
0000
,
0100
0000
1000
0000
0010
0100
1000
0100
,
0001
0000
0000
1000
0000
0000
0100
0000
1000
0000
0000
0001
0000
0000
0100
0000
,
0001
0000
0000
1000
0000
0000
0100
0000
0000
1000
0000
0001
0000
0000
0000
0000
,
1000
0000
0000
0001
0000
0000
0010
0000
0001
0000
0000
1000
0000
0000
0010
0000
,
1000
0000
0000
0000
0000
0000
0000
0000
0000
0000
0000
0000
0000
0000
0000
0000
0000
0000
0000
0000
0000
0000
0000
0000
0000
0000
0000
0000
0000
0000
0000
0000
0000
0000
0000
0000
0001
0000
0000
0000
0000
0000
0000
0000
0000
0000
0000
0000
0000
0000
0000
0000
0000
0000
0000
0000
0000
0000
0000
0000
0000
0000
0000
0000
0000
0000
0000
0000
0000
0000
0000
0000
0010
0000
0000
0000
0000
0000
0000
0000
0000
0000
0000
0000
0000
0000
0000
0000
0000
0000
0000
0000
0000
0000
0000
0000
0000
0000
0000
0000
0000
0000
0000
0000
0000
0000
0000
0000
0000
0000
0000
0000
0000
0000
0000
1001
0000
0000
0000
0000
0000
0000
0000
0000
0000
0000
0000
0000
0000
0000
0000
0000
0000
0000
0000
0000
0000
0000
0000
0000
0000
0000
0000
0000
0000
0000
0000
0000
0000
0000
0000
0000
0000
0000
0000
0000
0000
0000
0000
0000
0000
0000
0000
0000
0000
0000
0000
0000
0000
0000
0000
0000
0000
0000
0000
0000
0000
0000
0000
0000
0000
0000
0000
0000
0000
0000
0000
0000
0000
0000
0000
0000
,
0001
0000
0000
0100
0000
0000
0010
0000
0001
0000
0000
0010
0000
0000
0100
0000
,
0001
0000
0000
0100
0000
0000
0010
0000
0100
0000
0000
0001
0000
0000
0000
0000
,
1000
0000
0000
0010
0000
0000
0100
0000
1000
0000
0000
0100
0000
0000
0010
0000
,
1000
0000
0000
0010
0000
0000
0100
0000
0010
0000
1001
0000
0000
0000
0000
0000
,
0000
0000
1000
0000
0100
0000
0010
0000
0001
0000
0100
0000
0001
0010
0000
0001
,
0000
0000
0001
0000
0001
0000
0010
0000
0100
0000
1000
0000
0010
1000
0000
0100
,
0000
0000
1000
0000
1000
0000
0010
0000
0100
0000
0001
0000
0010
0100
0000
0010
,
0000
0000
0001
0000
0001
0000
0100
0000
0010
0000
1000
0000
0100
0010
0000
0100
,
0000
0000
0010
0000
0010
0000
0100
0000
0010
0000
0001
0000
0100
0010
0000
0100
,
0000
0000
0010
0000
0010
0000
0100
0000
0001
0000
1000
0000
0100
1000
0000
0010
,
0000
0000
0100
0000
0100
0000
0010
0000
1000
0000
0001
0000
1000
0100
0000
0010
,
0000
0010
0100
0000
0000
0000
1000
0000
1000
0000
1000
0001
0000
0001
1000
0000
,
0010
0100
0001
0000
0010
0100
1000
0000
,
0100
1000
0001
0000
0010
0000
0011
0000
,
0001
0100
0010
0000
0010
0100
0001
0000
,
1000
0100
0010
0000
0100
0000
1100
0000
,
1000
0001
0010
0000
0100
0010
0001
0000
,
0010
0100
1000
0010
0100
0001
0010
0000
,
0100
1000
0010
0000
0100
0010
1000
0000
,
0001
0010
0100
1000
0000
0000
0000
0000
,
0001
0000
0100
0000
0001
0000
0010
0000
0100
0000
0000
1000
0000
1000
0000
1000
,
0001
0000
0010
0000
0001
0000
0100
0000
0010
0000
0000
0010
0000
0000
0010
0000
,
0100
0000
0001
0000
1000
0000
0100
0000
0010
0000
0000
0100
0000
0010
0000
0100
,
0000
1000
0000
0001
1000
0000
0010
0000
0100
0000
0100
0000
0100
0010
0000
0010
,
0100
0000
0010
0000
1000
0000
0001
0000
0010
0000
0100
0010
0000
0010
0000
0010
,
0000
0000
0100
0000
1000
0000
0001
0000
1000
0000
0010
0100
0000
0100
0000
0100
,
0001
0000
0000
0000
1000
0100
1000
0000
0001
0000
0100
0001
0000
0001
0010
0000
,
0100
1000
0100
1000
0000
0001
0100
0001
0100
0001
0100
0001
0100
0000
0100
0000
;

//--------------- dance-double - Pandemonium X ----------------
#NOTES:
     dance-double:
     Pandemonium X:
     Challenge:
     13:
     0,0,0,0,0:
00000000
00000000
00000000
00000000
,
00000000
00000000
00000000
00000000
,
00000000
00000000
00000000
00000000
,
00011000
00000000
00000000
00000100
00000000
00000000
00000000
00000000
00000100
00000000
00000000
00000100
00000000
00000000
00000000
00000000
,
00010000
00000000
00000000
00010000
00000000
00000000
00000000
00000000
00010000
00000000
00000000
00000000
00000000
00000000
00000000
00000000
,
00011000
00000000
00000000
00000000
00000000
00000000
00000000
00010000
00000000
00010000
00000000
00000000
00000000
00000000
00000000
00000000
,
00010000
00000000
00000000
00000010
00000000
00000000
00000000
00000000
00010000
00000000
00000000
00000000
00000010
00000000
00000000
00000000
,
00001001
00000000
00000000
00001000
00000000
00000000
00000000
00000000
00000001
00000000
00000000
00000001
00000000
00000000
00000000
00000000
,
00001000
00000000
00000000
00001000
00000000
00000000
00000000
00000000
00001000
00000000
00000000
00000000
00000000
00000000
00000000
00000000
,
00010100
00000000
00000000
00000000
00000000
00000000
00000000
00000100
00000000
00000100
00000000
00000000
00000000
00000000
00000000
00000000
,
00000100
00000000
00000000
00010000
00000000
00000000
00000000
00000000
00000100
00000000
00000000
00000000
00010000
00000000
00000000
00000000
,
00001000
00000000
01000000
00000000
00100000
10000000
00100000
00000000
,
10000000
00000000
00010000
00000000
00100000
00001000
00100000
00000000
,
00001000
00000000
00010000
00000000
00000010
00000100
00000010
00000000
,
00001000
00000000
00000100
00000000
00010000
00001000
00010000
00000000
,
00001000
00000000
00000000
01000000
00000000
00000000
00100000
00000000
10000000
00000000
00000000
01000000
00000000
00000000
00100000
00000000
,
00001000
00000000
00000000
00010000
00000000
00000100
00001000
00000000
00000010
00000000
00000000
00000100
00000000
00000000
00000001
00000000
,
00000010
00000000
00000000
00000100
00000000
00000000
00000010
00000000
00000001
00000000
00000000
00001000
00000000
00000000
00000100
00000000
,
00010000
00000000
00000000
00001000
00000000
00000000
01000000
00000000
00000000
10010000
00000000
00000000
00000000
00000000
00000000
00000000
,
10000000
00000000
00000000
01000000
00000000
00000000
10000000
00000000
00010000
00000000
00000000
01000000
00000000
00000000
00010000
00000000
,
00100000
00000000
00000000
00001000
00000000
00000000
00010000
00000000
00000000
00000100
00000000
00001000
00000000
00000010
00000100
00000000
,
00000001
00000000
00000000
00000010
00000000
00000000
00000001
00000000
00000100
00000000
00000000
00000010
00000000
00000000
00001000
00000000
,
00000100
00000000
00000000
00010000
00000000
00000000
00000100
00000000
00000000
00001001
00000000
00000000
00000000
00000000
00000000
00000000
,
00000000
00000000
00000001
00000000
00000100
00000000
00001000
00000000
00010000
00000000
00001000
00000000
01000000
00010000
00000000
11000000
,
00000000
00000000
01000000
00000000
00100000
00000000
00001000
00000000
00000010
00000000
00000001
00000000
00000010
00000100
00000000
00001001
,
00000000
00000000
00000010
00000000
00000100
00000000
00001000
00000000
00010000
00000000
00001000
00000000
00100000
00010000
00000000
11000000
,
00000000
00000000
01000000
00000000
00100000
00000000
00010000
00000000
00001000
00000000
00000100
00000000
00000010
00000100
00000000
00001100
,
00000000
00000000
00000100
00000000
00000100
00000000
00010000
00000000
00001000
00000000
01000000
00000000
00100000
01000000
00000000
01010000
,
00000000
00000000
10000000
00000000
10000000
00000000
01000000
00000000
00010000
00000000
00001000
00000000
00010000
00001000
00000000
00010100
,
00000000
00000000
00000100
00000000
00001000
00000000
00000010
00000000
00000001
00000000
00000010
00000000
00000100
00000001
00000000
00001000
,
00000000
00000000
00000100
00000000
00000000
00000000
00000100
00000000
00001100
00000000
00000100
00010000
00000000
00010000
00001000
00000000
,
01000000
00010000
00100000
00000000
01000000
10000000
00010000
00000000
,
00100000
00001000
00010000
00000100
00001000
00000010
00000100
00000000
,
00000010
00000100
00000001
00000000
00000010
00000100
00001000
00000000
,
00000100
00000010
00000001
00000100
00001000
00010000
00001000
00000000
,
00010000
00000100
00001000
00000000
00000010
00000100
00000001
00000000
,
00000100
00000010
00010000
00001000
00100000
00010000
10000000
00000000
,
01000000
00100000
00010000
00000000
00100000
01000000
10000000
00000000
,
00100000
00000000
01000000
00000000
00001000
00000000
00010000
00001000
00000000
00000000
00000000
00000000
00000000
00000000
00000000
00000000
,
00010000
00000000
00000100
00000000
00001000
00000000
00000000
00000000
00000010
00000000
00000000
00000100
00000000
00000100
00000000
00000001
,
00000000
00000010
00000000
00000100
00001000
00000100
00000000
00000000
00001000
00000000
00000100
00000000
00010000
00000000
00001000
00000000
,
01000000
00010000
00000000
10000000
00000000
01000000
00000000
00000000
01000000
00000000
00000000
00000000
00100000
00000000
00000000
01000000
,
10000000
00000000
00000000
00000000
00010000
00000000
01000000
00000000
00100000
00000000
10000000
00000000
00010000
00100000
00000000
00100000
,
00001000
00000000
00010000
00000000
00000010
00000000
00000100
00000000
00001000
00000000
00000000
00000100
00000000
00000001
00000000
00001000
,
00000100
00000000
00000010
00000000
00001000
00000000
00000010
00000000
00000001
00000000
00000100
00000000
00000100
00000010
00000000
00000010
,
00010000
00001000
00000000
00000000
00010000
00000100
00010000
00000000
00001000
00000000
01000000
00001000
00000000
01000000
00001000
00000000
,
00010000
00001000
00010000
00001000
00000000
00010000
00001000
00010000
00001000
00000000
00001000
00000000
00010000
00001000
00010000
00001000
;
