#TITLE:DENIM(ELECTRO MIX);
#SUBTITLE:;
#ARTIST:SLAKE(another remixed by DEPROGRAM MAN);
#TITLETRANSLIT:;
#SUBTITLETRANSLIT:;
#ARTISTTRANSLIT:;
#GENRE:;
#CREDIT:;
#MUSIC:DENIM(ELECTRO MIX).ogg;
#BANNER:;
#BACKGROUND:DENIM electro mix-bg.png;
#CDTITLE:;
#SAMPLESTART:35.486;
#SAMPLELENGTH:13.632;
#SELECTABLE:YES;
#OFFSET:1.314;
#BPMS:0.000=150.000000;
#STOPS:;
#BGCHANGES:;
#FGCHANGES:;

//--------------- dance-single - Pandemonium X ----------------
#NOTES:
     dance-single:
     Pandemonium X:
     Beginner:
     5:
     0,0,0,0,0:
0000
0000
0000
0000
,
0000
0000
0000
0000
,
0000
0000
0000
0000
,
0001
0000
0000
0000
,
1000
0000
0000
0000
,
0110
0000
0000
0000
,
0001
0000
0000
0000
,
1000
0000
0000
0000
,
0001
0000
0000
0000
,
0110
0000
0000
0000
,
1000
0000
0001
0000
,
0100
0000
0000
0000
,
0010
0000
0000
0000
,
1001
0000
0000
0000
,
0100
0000
0000
0000
,
0010
0000
0000
0000
,
0100
0000
0000
0000
,
1001
0000
0000
0000
,
1000
0000
0001
0000
,
0010
0000
0010
0000
,
0010
0010
0010
0000
,
0110
0000
0110
0000
,
0110
0110
0110
0110
,
1000
1000
1000
0000
,
0001
0001
0001
0000
,
0100
0100
0100
0000
,
0010
0010
1000
1000
,
0001
0001
0001
0000
,
1000
1000
1000
0000
,
0100
0100
0100
0000
,
0000
0000
0000
0000
,
0010
0000
0000
0000
,
0001
0000
0000
0000
,
1000
0000
0000
0000
,
0010
0000
0000
0000
,
0100
0000
0000
0000
,
0001
0000
0000
0000
,
1000
0000
0000
0000
,
0001
0000
0000
0000
,
1000
0000
0001
0000
,
0100
0000
0001
0000
,
0010
0000
0001
0000
,
1000
0000
0100
0100
,
0100
0000
0010
0000
,
0001
0000
1000
0000
,
0001
1000
0000
0001
,
1000
1000
0001
0100
;

//--------------- dance-single - Pandemonium X ----------------
#NOTES:
     dance-single:
     Pandemonium X:
     Easy:
     7:
     0,0,0,0,0:
0000
0000
0000
0000
,
0000
0000
0000
0000
,
0000
0000
0000
0000
,
0001
0000
0000
0000
,
1000
0000
0000
0000
,
0110
0000
0000
0000
,
0001
0000
0000
0000
,
1000
0000
0000
0000
,
0001
0000
0000
0000
,
0110
0000
0000
0000
,
1000
0000
0010
0000
,
0100
0001
0100
0000
,
0010
1000
0010
0000
,
1001
1000
0001
0000
,
0010
0100
0010
0000
,
0001
0010
0001
0000
,
1000
0100
1000
0000
,
1010
0010
1000
0000
,
0001
0100
1000
0100
,
0001
0001
0001
0001
,
1000
0001
1000
0001
1000
0001
1000
0001
,
1000
1000
1000
1000
,
0001
1000
0001
1000
0001
1000
0001
1000
,
0001
0100
0001
0100
,
0010
1000
0010
1000
,
0100
0010
0100
0010
,
0001
0000
0001
0000
1000
0100
1000
0100
,
1000
0100
0010
0010
,
0001
0100
0010
0010
,
0100
0001
1000
1000
,
0001
0000
0000
0000
,
1000
0000
0001
0000
,
0100
0001
0100
0010
,
1000
0000
0001
0000
,
0010
0100
0010
0001
,
1000
0000
0100
0000
,
1000
0010
1000
0000
,
0010
0000
0100
0000
,
0001
0010
0001
0000
,
0010
0100
1000
0001
,
0100
0010
1000
0010
,
0100
0001
1000
0010
,
1000
0000
1000
0000
0001
0010
0001
0010
,
0001
0100
0010
1000
,
0001
1000
0100
0010
,
0001
0000
1000
1000
0000
0001
0001
1000
,
0001
0100
0010
1000
0001
0010
0001
1000
;

//--------------- dance-single - Pandemonium X ----------------
#NOTES:
     dance-single:
     Pandemonium X:
     Medium:
     12:
     0,0,0,0,0:
0000
0000
0000
0000
,
0000
0000
0000
0000
,
0000
0000
0000
0000
,
0001
0000
0000
0000
1000
0000
0000
0100
0000
0000
1000
0000
0001
0000
0000
0000
,
1000
0000
0000
0000
0001
0000
0000
0100
0000
0000
0001
0000
1000
0000
0000
0000
,
0110
0000
0000
0000
0001
0000
0000
1000
0000
0000
0100
0000
1000
0000
0000
0000
,
0001
0000
0000
0000
1000
0000
0000
0010
0000
0000
1000
0000
0001
0000
0000
0000
,
1000
0000
0000
0000
0001
0000
0000
0010
0000
0000
0001
0000
1000
0000
0000
0000
,
0001
0000
0000
0000
1000
0000
0000
0010
0000
0000
1000
0000
0001
0000
0000
0000
,
0110
0000
0000
0000
1000
0000
0000
0001
0000
0000
0010
0000
0001
0000
0000
0000
,
1000
0000
0000
0000
0100
0000
0010
0001
1000
0000
0000
0000
0000
0000
0000
0000
,
0001
0100
0010
1000
0100
0010
0001
0000
,
1000
0100
0010
0001
1000
0010
0100
0000
,
0110
0100
0010
1000
0001
0010
0100
0000
,
0010
0001
1000
0010
1000
0001
0010
0100
,
1000
0000
1100
0000
1000
0100
0001
0100
,
1000
0000
1010
0000
0010
0001
0010
1000
,
1001
0000
0001
0000
0010
1000
0010
0001
,
0100
0000
0000
0000
0010
0000
1000
0001
0100
0000
0000
0000
0000
0000
0000
0000
,
0001
1000
0001
1000
0001
1000
0001
1000
,
0001
0001
0001
0001
0001
0001
0001
0001
,
1000
0001
1000
0001
1000
0001
1000
0001
,
1001
1001
1001
1001
1001
1001
1001
1001
,
1000
0000
0000
0000
1000
0000
0000
1000
0000
0010
0000
0010
0000
0000
0100
0000
,
0001
0000
0000
0000
0001
0000
0000
0001
0000
0010
0000
0010
0000
0000
0100
0000
,
0010
0000
0000
0000
0010
0000
0000
0010
0000
0100
0000
0100
0000
0000
1000
0000
,
0001
0000
0001
0000
1000
1000
1000
1000
,
1000
0000
0000
0000
0010
0000
0000
0100
0000
0010
0000
0010
0000
0000
0100
0000
,
0001
0000
0000
0000
0010
0000
0000
0010
0000
0100
0000
0100
0000
0000
0010
0000
,
0001
0000
0000
0000
1000
0000
0000
1000
0000
0100
0000
0100
0000
0000
1000
0000
,
0010
0000
0000
0000
0100
0000
0000
0001
0000
0100
0010
0000
1000
0000
0000
0000
,
0001
1000
0100
0000
1000
0001
0100
0000
,
0001
1000
0010
0000
1000
0001
0010
0000
,
0001
1000
0010
1000
0001
0100
0001
1000
,
0000
0001
1000
0010
1000
0001
0010
0001
,
1000
0000
0100
0000
0100
0000
0010
0000
0001
0000
0000
1000
0000
0010
0000
1000
,
0000
0000
0010
0000
0010
0000
0100
0000
0001
0000
0000
0010
0000
0100
0000
0010
,
0000
0000
0100
0000
0100
0000
1000
0000
0001
0000
0000
0100
0000
0100
0000
0010
,
0000
0000
0100
0000
0001
0000
1000
0000
0100
0000
0000
0100
0000
0000
0000
0000
,
0010
0000
0000
0000
0001
0000
0000
0100
0000
0010
0000
0010
0000
0000
0100
0000
,
0001
0000
0000
0000
1000
0000
0000
0100
0000
0010
0000
0100
0000
0100
0000
1000
,
0001
0000
0000
0000
1000
0000
0000
0010
0000
0100
0000
0100
0000
0000
0010
0000
,
1000
0001
1000
0000
0001
0001
0001
0001
,
1000
0000
0000
0000
0100
0000
0000
0010
0000
0100
0000
0100
0000
0010
0000
0010
,
0001
0000
0000
0000
0100
0000
0000
0010
0000
0100
0000
0010
0000
0010
0000
0010
,
1000
0001
1000
0000
0001
1000
0001
1000
0000
0000
0001
1000
0000
1000
0001
1000
,
0001
0100
0001
0100
0001
0100
0001
0000
0100
0010
0100
0000
0001
0000
1000
0000
;

//--------------- dance-single - Pandemonium X ----------------
#NOTES:
     dance-single:
     Pandemonium X:
     Hard:
     15:
     0,0,0,0,0:
0000
0000
0000
0000
,
0000
0000
0000
0000
,
0000
0000
0000
0000
,
1001
0000
0000
0000
0000
0000
0001
0100
0000
0001
1000
0000
0100
0000
0010
0000
,
0001
0000
0000
0000
1000
0000
0001
0010
0000
0001
1000
0000
0001
0000
1000
0000
,
0110
0000
0000
0000
0000
0000
0001
0010
0000
0001
1000
0000
0100
0000
0010
0000
,
0001
0000
0000
0000
1000
0000
0010
0100
0000
0010
1000
0000
0001
0000
0010
0000
,
0011
0000
0000
0000
0001
0000
0010
0001
0000
0010
0100
0000
1000
0000
0001
0000
,
0100
0000
0000
0000
0010
0000
1000
0010
0000
0100
0010
0000
0100
0000
0001
0000
,
0110
0000
0000
0000
1000
0000
0001
0010
0000
0001
1000
0000
0001
0000
1000
0000
,
0100
0000
0000
0000
0010
0000
0100
1000
0010
0000
0100
0000
1000
0000
0100
0000
,
0001
0000
1000
0000
0100
0000
0010
0100
0000
1000
0001
0000
0100
0000
0010
0000
,
0100
0000
0001
0000
0100
0000
0010
0100
0000
0001
0100
0000
0010
0000
1000
0000
,
0110
0000
0001
0000
1000
0000
0001
0010
0000
0100
0010
0000
0100
0000
1000
0000
,
0001
0000
0100
0000
0010
0000
1000
0010
0000
1000
0001
0000
0010
0000
0100
0000
,
0010
0000
0001
0000
1000
0000
0010
1000
0000
0100
0010
0000
0100
0000
1000
0000
,
0001
0000
0010
0000
0100
0000
0010
0001
0000
1000
0010
0000
0100
0000
0001
0000
,
0110
0000
1000
0000
0001
0000
0010
0001
0000
0010
0100
0000
0010
0000
0001
0000
,
1000
0000
0010
0000
0100
0000
0001
0010
0100
0000
0001
0000
0100
0000
1000
0000
,
0010
0100
0010
0100
0010
0100
0010
0100
,
0010
0100
0010
0100
0010
0100
0010
0100
0010
0100
0010
0100
0010
0100
0010
0100
,
0001
1000
0010
0100
0001
1000
0010
0100
,
0001
1000
0010
0100
0001
1000
0010
0100
0001
1000
0010
0100
0001
1000
0010
0100
,
0001
1000
0000
0001
1000
0000
0001
1000
0000
0100
0000
0100
0000
0100
0010
0000
,
0001
1000
0000
0001
1000
0000
0001
1000
0000
0010
0000
0010
0000
0010
0100
0000
,
0001
1000
0000
0001
1000
0000
0001
1000
0000
0010
0000
0010
0000
0010
0100
0000
,
0001
1000
0000
0001
1000
0000
0000
0000
1100
0000
0011
0000
1100
0000
0011
0000
,
1000
0001
0000
0010
0001
0000
1000
0100
0000
1000
0000
1000
0000
1000
0001
0000
,
0100
0001
0000
1000
0001
0000
0100
0001
0000
0010
0000
0010
0000
0010
0100
0000
,
1000
0100
0000
0010
0001
0000
1000
0100
0000
0010
0000
0010
0000
0010
0100
0000
,
1000
0000
0000
0000
0011
0000
0000
0001
0000
0001
1000
0000
1010
0000
1000
0000
,
0001
0000
0010
0000
0001
0000
1000
0000
0010
0000
1000
0001
0000
0001
0000
0001
,
0000
0000
0010
0000
0010
0000
0100
0000
1000
0000
0010
0100
0000
0100
0000
0100
,
0001
0000
1000
0000
1000
0000
0100
0000
0010
0000
0100
1000
0000
1000
0000
1000
,
0000
0000
0010
0000
0010
0000
0100
0000
0001
0000
0010
0100
0000
0100
0000
0100
,
0010
0000
0100
0000
0100
0000
1000
0000
0001
0000
0100
0001
0000
0001
0000
0001
,
0000
0000
0010
0000
0010
0000
0100
0000
1000
0000
0100
0010
0000
0010
0000
0010
,
0000
0000
0100
0000
0100
0000
0010
0000
0001
0000
0100
0010
0000
0010
0000
0010
,
0000
0000
0100
0000
0100
0000
0010
0000
1000
0100
0010
0001
1000
0000
0000
0000
,
0001
0100
0000
0100
0010
0000
0010
1000
0000
0100
0000
0100
0000
0100
0010
0000
,
0100
1000
0000
1000
0001
0000
0001
0100
0000
0010
0000
0010
0000
0100
0000
0100
,
0001
0100
0000
0100
0010
0000
0010
1000
0000
0001
0000
0001
0000
0001
1000
0000
,
0001
0010
0000
0100
1000
0000
0000
0000
1010
0000
0101
0000
1010
0000
0101
0000
,
1000
0001
0000
0001
1000
0000
1000
0100
0000
0010
0000
0010
0000
0010
0100
0000
,
1000
0100
0000
0100
0010
0000
0010
0001
0000
0100
0000
0100
0000
0100
0000
0010
,
0100
0001
1000
0000
0001
1000
0100
1000
0000
0000
0001
0010
0000
0001
0010
0001
,
1000
0000
0000
0100
0000
0000
1000
0000
0000
0100
0000
0000
1000
0000
0000
0100
0000
0000
1000
0000
0000
0000
0000
0000
1000
0000
0000
0001
0000
0000
0100
0000
0000
0000
0000
0000
2000
0000
0000
0000
0000
0000
3200
0000
0000
0000
0000
0000
,
0300
0000
0000
0000
0000
0000
0000
0000
0000
0000
0000
0000
0000
0000
0000
0000
0000
0000
0000
0000
0000
0000
0000
0000
0000
0000
0000
0000
0000
0000
0000
0000
0000
0000
0000
0000
0000
0000
0000
0000
0000
0000
0000
0000
0000
0000
0000
0000
0000
0000
0000
0000
0000
0000
0000
0000
0000
0000
0000
0000
0000
0000
0000
0000
0000
0000
0000
0000
0000
0000
0000
0000
0000
0000
0000
0000
0000
0000
0000
0000
0000
0000
0000
0000
0000
0000
0000
0000
0000
0000
0000
0000
0000
0000
0000
0000
0000
0000
0000
0000
0000
0000
0000
0000
0000
0000
0000
0000
0000
0000
0000
0000
0000
0000
0000
0000
0000
0000
0000
0000
0000
0000
0000
0000
0000
0000
0000
0000
0000
0000
0000
0000
0000
0000
0000
0000
0000
0000
0000
0000
0000
0000
0000
0000
0000
0000
0000
0000
0000
0000
0000
0000
0000
0000
0000
0000
0000
0000
0000
0000
0000
0000
0000
0000
0000
0000
0000
0000
0000
0000
0000
0000
0000
0000
0000
0000
0000
0000
0000
0000
0000
0000
0000
0000
0000
0000
0000
0000
0000
0000
0000
0000
;
