#TITLE:DAWNBREAKER;
#SUBTITLE:;
#ARTIST:DJ Noriken;
#TITLETRANSLIT:;
#SUBTITLETRANSLIT:;
#ARTISTTRANSLIT:;
#GENRE:;
#CREDIT:;
#MUSIC:DAWNBREAKER.ogg;
#BANNER:DAWNBREAKER.png;
#BACKGROUND:DAWNBREAKER-bg.png;
#CDTITLE:;
#SAMPLESTART:89.693;
#SAMPLELENGTH:19.242;
#SELECTABLE:YES;
#OFFSET:-0.118;
#BPMS:0.000=150.000;
#STOPS:32.000=1.200
,217.000=1.200
;
#BGCHANGES:;
#FGCHANGES:;

//--------------- dance-single - Pandemonium X ----------------
#NOTES:
     dance-single:
     Pandemonium X:
     Beginner:
     5:
     0,0,0,0,0:
0000
0000
0000
0000
,
0000
0000
0000
0000
,
0000
0000
0000
0000
,
0000
0000
0000
0000
,
0000
0000
0000
0000
,
0000
0001
0000
0001
,
0000
0001
0000
0001
,
1000
0010
0100
0001
,
1001
2000
0000
0000
,
0000
3010
0000
0000
,
0100
0001
0000
0000
,
0010
0100
0000
0000
,
1000
0010
0000
0000
,
0100
0001
0000
0000
,
0010
0100
0000
0000
,
0000
1100
0000
0101
,
0000
0001
0001
1001
,
0110
1000
0000
0000
,
0001
0010
0000
0000
,
0001
0100
0000
0000
,
0010
0110
0110
0110
,
0000
0100
0000
0001
,
0000
1000
0000
0100
,
0000
0010
0000
0100
,
0000
0020
0000
0000
,
0030
0002
0000
0000
,
0003
2000
0000
0000
,
3000
0020
0000
0000
,
0030
0200
0000
0300
,
0000
0010
0000
0100
,
0000
0001
0000
1000
,
0000
0001
0000
1000
,
0001
2002
0000
0000
,
3003
0110
0000
0000
,
0000
0001
0000
0000
,
0000
1000
0000
0000
,
0000
0100
0000
0000
,
0000
0010
0000
0000
,
0000
0001
0000
0000
,
0000
0100
0000
0000
,
0000
0010
0000
0000
,
0000
0200
0000
0000
,
0000
0000
0000
0300
,
0000
0020
0000
0000
,
0030
2000
0000
0000
,
3000
0200
0000
0000
,
0300
0020
0000
0000
,
0030
0002
0000
0000
,
0003
2000
0000
0000
,
3000
0020
0000
0000
,
0030
0200
0000
0000
,
0310
0000
0100
0000
,
0001
0000
1000
0000
,
0100
0010
0001
0100
,
0010
1001
1000
0010
,
0200
0300
0010
1000
,
0002
0003
0010
0001
,
2000
3000
0001
1000
,
0020
0030
0100
0001
,
0020
0030
0100
0010
,
0002
0003
0010
0100
,
2000
0000
3000
0000
1100
0000
0000
0011
,
0000
0001
1000
0000
,
0010
0000
0100
0000
,
0010
0100
0001
0000
,
1000
0000
0001
1000
,
0100
1000
0001
0000
,
0100
0000
0010
0000
,
0100
0010
1000
0000
,
0001
0000
0220
0000
,
0000
0330
1001
0000
,
0000
0000
1000
0000
,
0000
0000
0001
0000
,
0000
0000
0010
0000
,
0000
0000
0000
0100
,
0000
1000
0000
0010
,
0000
0100
0010
0100
,
0001
1000
0200
0000
,
0000
0300
0010
0000
,
0001
0000
0100
0010
,
0100
0000
0010
0000
,
1000
0000
0100
0010
,
0100
0000
0110
0000
,
0000
0000
1001
0000
,
0000
0000
0110
0000
,
1001
0000
0001
1000
,
0020
0000
0030
0000
;

//--------------- dance-single - Pandemonium X ----------------
#NOTES:
     dance-single:
     Pandemonium X:
     Easy:
     8:
     0,0,0,0,0:
0000
0000
0000
0000
,
0000
0000
0000
0000
,
0000
0000
0000
0000
,
0000
0000
0000
0000
,
0000
0000
0000
0000
,
0001
1000
0001
1000
,
0010
0100
0010
0100
,
0001
0100
0010
1000
,
1001
0000
0000
0000
1000
0000
0000
1000
0000
0000
0001
0000
0000
0001
0000
0000
,
1001
0001
0100
0001
,
0010
0100
0010
0001
,
1000
0100
1000
0000
0001
0000
0100
0000
,
0010
0100
0010
0000
1000
0000
0100
0000
,
0010
0100
0010
0000
0001
0000
0100
0000
,
0010
1000
0100
0000
0010
0000
0100
0000
,
0000
0000
0000
0000
1000
0000
0000
1000
0000
0000
0000
0000
0001
0000
0000
0001
,
0000
0000
1000
0000
0001
0000
1000
0001
,
1001
0000
0000
0000
0001
0000
0000
0001
0000
0000
0001
0000
0000
0000
1000
0000
,
0001
0000
0000
0000
1000
0000
0000
1000
0000
0000
1000
0000
0000
0000
0001
0000
,
1000
0000
0000
0000
0010
0000
0000
0010
0000
0000
0010
0000
0000
0000
0010
0000
,
0100
1001
1001
1001
,
1001
0000
0000
0000
0001
0000
0000
1000
0000
0000
0100
0000
0000
0010
0000
0000
,
0001
0000
0000
0000
0010
0000
0000
0001
0000
0000
0100
0000
0000
0001
0000
0000
,
1000
0000
0000
0000
0001
0000
0000
0010
0000
0000
0100
0000
0000
1000
0000
0000
,
0001
0220
0000
0000
,
0330
1001
0000
0000
,
0000
1000
0000
0000
,
0000
1001
0000
0000
,
0000
0000
0001
0000
0000
0000
0000
0010
,
0100
0000
0000
0000
1000
0000
0000
1000
0000
0000
0000
0000
0001
0000
0000
0001
,
0000
0000
0000
0000
0100
0000
0000
0100
0000
0000
0000
0000
0010
0000
0000
0010
,
0000
0000
0000
0000
0100
0000
0000
0100
0000
0000
0000
0000
0010
0000
0100
0000
,
0001
0000
1000
0000
0001
0000
0000
1000
0000
0000
0010
0000
0000
1000
0000
0000
,
0001
0000
1001
0000
1000
0000
0000
0001
,
0000
0010
0000
0000
,
0100
0010
0000
0000
,
0001
1000
0000
0000
,
0100
0000
1000
0000
0010
0000
0000
0100
,
0000
0010
0000
0000
,
1000
0001
0010
0000
,
0100
0010
0001
0000
,
0000
1000
0000
0000
,
0000
0000
0000
0000
0000
0000
0000
0001
,
1000
0000
0001
0000
0010
0000
0000
0010
0000
0000
0020
0000
0000
0000
0000
0000
,
0000
0000
0030
0000
0100
0000
0000
0100
0000
0000
0200
0000
0000
0000
0000
0000
,
0000
0000
0300
0000
1000
0000
0000
1000
0000
0000
2000
0000
0000
0000
0000
0000
,
0000
0000
3000
0000
0001
0000
0000
0001
0000
0000
0002
0000
0000
0000
0000
0000
,
0000
0003
1000
0000
0001
0000
0100
0000
,
0001
0010
0100
1000
,
0100
1000
0010
0100
,
0001
0000
0000
0000
1000
0000
0000
0001
0000
0000
0200
0000
0000
0000
0000
0000
,
0310
0100
0001
0010
,
0001
1000
0010
0100
,
0010
1000
0100
0010
,
0001
0000
0000
0000
1001
0000
0000
0000
0001
0000
0000
1000
0000
0000
0200
0000
,
0000
0000
0000
0000
0000
0000
0000
0000
0310
0000
0000
0100
0000
0000
2000
0000
,
0000
0000
0000
0000
0000
0000
0000
0000
3001
0000
0000
0100
0000
0000
0002
0000
,
0000
0000
0000
0000
0000
0000
0000
0000
0013
0000
0000
0001
0000
0000
0200
0000
,
0000
0000
0000
0000
0000
0000
0000
0000
0310
0000
0000
1000
0000
0000
0200
0000
,
0000
0000
0000
0000
0000
0000
0000
0000
0310
0000
0000
0100
0000
0000
2000
0000
,
0000
0000
0000
0000
0000
0000
0000
0000
3001
0000
0000
0010
0000
0000
0200
0000
,
0000
0000
0000
0000
0000
0000
0000
0000
0310
0000
0000
0001
0000
0000
1000
0000
,
0000
0010
0000
0000
0110
0000
0000
0000
0100
0000
0000
0100
0000
0000
0000
0000
,
0001
0000
0000
0001
0000
0000
0000
0000
1000
0000
0000
1000
0000
0000
0000
0000
,
0100
0000
0000
1000
0000
0000
0001
0000
0100
0000
0000
0001
0000
0000
0000
0000
,
0010
0000
0000
0100
0000
0000
0000
0000
0010
0000
0000
0000
0001
0000
0000
0000
,
1000
0000
0000
0000
0001
0000
0000
0000
0100
0000
0000
0001
0000
0000
0000
0000
,
0100
0000
0000
0010
0000
0000
0000
0000
0100
0000
0000
0010
0000
0000
0000
0000
,
1000
0000
0000
0100
0000
0000
0000
0000
0010
0000
0000
0100
0000
0000
0000
0000
,
1000
0000
0000
0001
0000
0000
0000
0000
2002
0000
0000
0000
0000
0000
0000
0000
,
0000
3003
0110
0000
,
0000
0000
1000
0000
,
0000
0000
0000
0001
0001
0000
0000
0000
,
0000
0000
0010
0000
,
0100
0100
0000
1000
,
0000
0001
0000
0100
,
0000
0010
1000
0100
,
0010
0001
2002
0000
,
0000
0000
0000
0000
3003
0000
0000
0000
0001
0000
0000
0100
0000
0000
0020
0000
,
0000
0000
0000
0000
0000
0000
0000
0000
0130
0000
0000
0001
0000
0000
2000
0000
,
0000
0000
0000
0000
0000
0000
0000
0000
3100
0000
0000
0010
0000
0000
0002
0000
,
0000
0000
0000
0000
0000
0000
0000
0000
0013
0000
0000
0100
0000
0000
2000
0000
,
0001
0000
0000
0000
3001
0000
0000
0000
1000
0000
0000
0001
0000
0000
0100
0000
,
0000
0001
0000
0000
0010
0000
0000
0000
0100
0000
0000
0010
0000
0000
0100
0000
,
0000
1000
0000
0000
0001
0000
0000
0000
1000
0000
0000
0100
0000
0000
0010
0000
,
0000
0001
0000
0000
0100
0000
0000
0000
0020
0000
0000
0000
0000
0000
0000
0000
,
0000
0000
0130
0000
;

//--------------- dance-single - Pandemonium X ----------------
#NOTES:
     dance-single:
     Pandemonium X:
     Medium:
     13:
     0,0,0,0,0:
0000
0000
0000
0000
,
0000
0000
0000
0000
,
0000
0000
0000
0000
,
0000
0000
0000
0000
,
0000
0000
0000
0000
,
0001
0101
1000
1100
,
0001
0101
1000
1100
,
0001
0010
0100
1000
0001
0010
0100
1000
,
1001
0000
0000
0000
0101
0000
0000
0101
0000
0000
1010
0000
0000
1010
0000
0000
,
1001
0000
1000
0100
1000
0000
0010
0000
,
0100
0000
0001
0010
0001
0000
0010
0000
,
0001
0000
0100
0010
0100
0000
0010
0000
,
1000
0000
0001
0010
0001
0000
0010
0000
,
0100
1000
0001
0100
0001
1000
0100
0000
,
0010
0000
0100
1000
0001
0100
0001
0000
,
0010
0000
0000
0000
2100
0000
0000
3010
0000
0000
0000
0000
0201
0000
0000
0310
,
0000
0000
1001
0000
1001
0000
0010
0100
,
1001
0000
0000
0000
0001
0000
0000
1000
0000
1000
0001
0000
0000
0100
0001
0000
,
0010
0000
0100
0000
0010
0000
0000
0001
0000
0001
0010
0000
0000
0010
0100
0000
,
1000
0100
1000
0000
0001
0000
0000
1000
0000
1000
0010
0000
0000
0010
0000
0010
,
0100
0000
0010
1000
0200
0000
0000
0000
0010
0000
0000
0000
1000
0000
0000
0000
,
0310
0000
0000
0000
0011
0000
0000
0011
0000
0000
0011
0000
0000
0011
0000
0000
,
0011
0000
0000
0000
1100
0000
0000
1100
0000
0000
1100
0000
0000
1100
0000
0000
,
1100
0000
0001
0100
0010
1000
0001
0010
,
0100
1000
0001
0100
1000
0100
0001
1000
,
0100
0000
0000
0000
0011
0000
0000
0010
0000
0000
0010
0000
0000
0000
0000
0000
,
0000
0000
0000
0000
0100
0000
0000
0100
0000
0000
0100
0000
0000
0000
0000
0000
,
0000
0000
0000
0000
1001
0000
0000
1000
0000
0000
1000
0000
0000
1000
0000
0000
,
1000
0000
0000
0000
0001
0000
0000
0001
0000
0000
0001
0000
0000
0000
0101
0000
,
1010
0000
0000
0000
2001
0000
0000
3010
0000
0000
0000
0000
1002
0000
0000
0013
,
0000
0000
0000
0000
2001
0000
0000
3010
0000
0000
0000
0000
1002
0000
0000
0013
,
0000
0000
0000
0000
2001
0000
0000
3010
0000
0000
0000
0000
1000
0000
0001
0000
,
0010
0000
0100
0000
1100
0000
0000
0101
0000
0000
1001
0000
0000
1100
0000
0000
,
1001
0000
0110
0000
0001
0000
0000
1000
,
0000
0001
0010
0001
0100
0001
0000
0010
,
0100
1000
0100
0010
0100
1000
0000
0001
,
0000
0010
0001
0100
0001
1000
0000
0100
,
1000
0010
0100
0000
0010
0000
0000
0100
,
0000
0001
0010
0001
0100
0010
0000
0100
,
0010
1000
0001
0010
0100
1000
0000
0100
,
1000
0010
1000
0001
0010
0100
0000
0000
,
0000
1001
0000
0000
,
0000
0000
0220
0000
0000
0000
0000
0030
,
0300
0000
0000
0000
0001
0000
0000
0100
0000
0000
0020
0000
0000
0000
0000
0000
,
0000
0000
0000
0000
0130
0000
0000
0001
0000
0000
2000
0000
0000
0000
0000
0000
,
0000
0000
0000
0000
3100
0000
0000
0010
0000
0000
0002
0000
0000
0000
0000
0000
,
0000
0000
0000
0000
0013
0000
0000
0100
0000
0000
2000
0000
0000
0000
0000
0000
,
0000
0000
0000
0000
3100
0000
0000
1000
0100
0000
0000
0100
0010
0000
0001
0000
,
0100
0000
0000
0000
0001
0000
0000
0001
0100
0000
0000
0100
0010
0000
0100
0000
,
0001
0000
0000
0000
1000
0000
0000
0001
1000
0000
0000
1000
0010
0000
1000
0000
,
0100
0000
0000
0000
0020
0000
0000
0032
0000
0000
2000
0000
0000
0000
0000
0000
,
3003
0001
1010
0001
,
1100
1000
0011
1000
,
0101
0000
0001
0100
0010
1000
0001
0100
,
0010
0000
1000
0000
1001
0000
0000
0000
0001
0000
0000
0100
0000
0000
0010
0000
,
1000
0000
0100
0000
1000
0000
0100
0000
1000
0000
0000
0100
0000
0000
0010
0000
,
0001
0000
0100
0000
0001
0000
0100
0000
0001
0000
0000
0100
0000
0000
0010
0000
,
1000
0000
0001
0000
1000
0000
0001
0000
1000
0000
0000
0001
0000
0000
0010
0000
,
0100
0000
1000
0000
0100
0000
1000
0000
0100
0000
0000
1000
0000
0000
0010
0000
,
0100
0000
0001
0000
0100
0000
0001
0000
0100
0000
0000
0001
0000
0000
0010
0000
,
0100
0000
1000
0000
0100
0000
1000
0000
0100
0000
0000
1000
0000
0000
0010
0000
,
0100
0000
0001
0000
0100
0000
0001
0000
0101
0000
0000
1010
0000
0000
1100
0000
,
0000
0011
0000
0000
1001
0000
0000
0000
0001
0000
0000
1000
0000
0000
0001
0000
,
1000
0000
0000
0100
0000
0000
1000
0000
0001
0000
0000
0100
0000
0000
0001
0000
,
0010
0000
0000
0100
0000
0000
0010
0000
0001
0000
0000
1000
0000
0000
0100
0000
,
0010
0000
0000
0100
0000
1000
0100
0000
0000
0100
0010
0000
0000
0010
0001
0000
,
1000
0000
0001
0000
0110
0000
0000
0000
1000
0000
0000
0001
0000
0000
0010
0000
,
0001
0000
0000
0100
0000
0000
0010
0000
1000
0000
0000
0001
0000
0000
0010
0000
,
0100
0000
0000
0010
0000
0000
0001
0000
0100
0000
0000
0010
0000
0000
1000
0000
,
0001
0000
0000
0010
0000
0000
0001
0000
0010
0000
1000
0000
0010
0000
0100
0000
,
0010
0001
1000
0000
0101
0000
1010
0000
,
0000
1000
0000
0001
0010
0001
0100
0010
,
0000
0100
0010
1000
0100
0010
0100
1000
,
0000
0100
0000
0010
0100
1000
0001
0100
,
0000
0000
0010
1001
,
0100
1001
0001
1100
,
1000
0000
0101
0000
0001
0010
0100
1000
,
0100
0000
0010
0000
0100
0000
1000
0000
0002
0000
0000
0203
0000
0000
0320
0000
,
0000
2030
0000
0000
3002
0000
0000
0000
1003
0000
0100
1000
0100
0000
1000
0000
,
0010
0000
0100
0000
0001
0000
0000
0000
0010
0000
0100
0010
0100
0000
0010
0000
,
0001
0000
0100
0000
0010
0000
0000
0000
1000
0000
0010
1000
0010
0000
0100
0000
,
0001
0000
0010
0000
0100
0000
0000
0000
0010
0000
0001
1000
0001
0000
1000
0000
,
0100
0000
1000
0000
0001
0000
0100
0000
0110
0000
0000
0101
0000
0000
0110
0000
,
0000
0101
0000
0000
0110
0000
0000
0000
1010
0000
0000
0110
0000
0000
1010
0000
,
0000
0110
0000
0000
1010
0000
0000
0000
0001
0000
1000
0000
0100
0000
0010
0000
,
0001
0000
0010
0000
0100
0000
1000
0000
0002
0000
0000
0203
0000
0000
0320
0000
,
0000
2030
0000
0000
0002
0000
0000
0000
3003
0000
0000
0000
0000
0000
0000
0000
;

//--------------- dance-single - Pandemonium X ----------------
#NOTES:
     dance-single:
     Pandemonium X:
     Hard:
     16:
     0,0,0,0,0:
0000
0000
0000
0000
,
0000
0000
0000
0000
,
0000
0000
0000
0000
,
0000
0000
0000
0000
,
0000
0000
0000
0000
0001
0001
2000
3200
,
0310
0000
0000
0100
1000
0000
0010
0000
0100
0000
0000
0010
0100
0000
0001
0000
,
0010
0000
0000
0100
1000
0000
0010
0000
0100
0000
0000
0010
0100
0000
0001
0000
,
0010
0100
1000
0001
0100
0010
1000
0000
,
1001
0000
0000
0000
0011
0000
0000
0101
0000
0000
1010
0000
0000
1100
0000
0000
,
1001
0000
0000
0000
0001
0000
0100
0010
0100
0000
0001
1000
0000
1000
0001
0000
,
0010
0000
0100
0000
1000
0000
0010
0100
0010
0100
0010
1000
0000
0001
0010
0000
,
0100
1000
0100
0000
0010
0000
0001
1000
0000
1000
0001
0000
1000
0001
1000
0000
,
0100
0000
1000
0000
0010
0100
0010
0100
0001
1000
0001
1000
0001
1000
0100
0000
,
0010
0100
1000
0000
0001
0000
0100
0001
0100
0001
0100
0000
0100
0001
0100
0000
,
0010
0000
1000
0000
0001
0000
1000
0100
0000
0100
1000
0100
1000
0100
1000
0000
,
1100
0000
0000
0000
1001
0000
0100
0010
0000
0000
0000
0000
1001
0000
0010
0100
,
0000
0000
1001
0000
1001
0000
0010
0100
,
1001
0000
0000
0000
0001
0000
0000
0010
0000
0100
0010
0000
0000
0010
0100
0000
,
1000
0000
0001
0000
0100
0000
0000
0010
0000
1000
0100
0000
0100
1000
0000
1000
,
0001
0100
0010
0000
0100
0000
0001
0010
0000
0010
0100
0000
0000
0010
0100
0000
,
1000
0000
0000
0001
0100
0001
0200
0000
0000
0000
0000
0000
1000
0000
0000
0000
0000
0000
0310
0000
0000
0000
0000
0000
,
1001
0000
0000
0000
1000
0000
0000
0100
0000
0000
0010
0000
0000
0001
0000
0000
,
0001
0000
0100
0000
0001
0000
0000
0010
0000
0000
0100
0000
0000
1000
0000
0000
,
1000
0010
1000
0000
0010
0000
1000
0000
0100
0000
0010
0000
0100
0010
0100
0010
,
0001
0010
0001
1000
0001
0000
2000
0000
3020
0000
0230
0000
0302
0000
2003
0000
,
3001
0000
0000
0000
1001
0000
0000
1000
0000
0000
0200
0000
0000
0000
0000
0000
,
0000
0000
0000
0000
0310
0000
0000
0001
0000
0000
0100
0000
0000
0100
0000
0000
,
0100
0000
0000
0000
0010
0000
0000
1000
0000
0000
0100
0000
0000
0100
0000
0000
,
0100
0000
0000
0000
0010
0000
0000
0001
0000
0000
0100
0000
0000
0000
0110
0000
,
1001
0000
0000
0000
0101
0000
0010
1000
0000
0000
1000
0000
1100
0000
0010
0001
,
0000
0000
0001
0000
0011
0000
0100
1000
0000
0000
1000
0000
1010
0000
0100
0001
,
0000
0000
0001
0000
1001
0000
0100
0010
0000
0000
0100
0000
1001
0000
0001
0000
,
0010
0000
0100
0000
1001
0000
0000
1010
0000
0000
1100
0000
0000
0110
0000
0000
,
0011
0000
1001
0000
0001
0000
0000
1000
,
0000
0010
1000
0001
0010
0001
0000
0010
,
0001
0100
0001
1000
0001
0010
0000
0100
,
0000
0010
0100
0010
0100
1000
0000
0001
,
0100
0001
1000
0000
0001
0000
0000
0010
,
0000
0001
0100
0001
1000
0100
0000
0010
,
0100
1000
0001
1000
0010
1000
0000
0100
,
1000
0010
0100
0001
1000
0100
0000
0000
,
0000
0020
0000
0000
,
0000
0000
0200
0000
0000
0000
0000
0030
,
0300
0000
0000
0000
1001
0000
0000
1000
0000
0000
0010
1000
0010
1000
0010
1000
,
0010
1000
0010
1000
0010
0000
0000
1000
0000
0000
0100
0000
0010
0001
0010
0001
,
0010
0001
0010
0001
0010
0000
0000
0100
0000
0000
1000
0000
0010
1000
0010
1000
,
0010
1000
0010
1000
0010
0000
0000
0100
0000
0000
0001
0000
1000
0001
1000
0001
,
1000
0001
1000
0001
1000
0000
0000
1000
0100
0000
0000
0100
0010
0000
0000
0010
,
0001
0000
0100
0000
0010
0000
0000
0100
0010
0000
0000
0010
1000
0000
0000
1000
,
0100
0000
0010
0000
0100
0000
0000
0100
1000
0000
0000
1000
0010
0000
0000
0010
,
0100
0000
0001
0000
1000
0001
1000
0001
0100
0001
0100
0010
0100
0010
0100
0010
,
0100
0000
0101
0001
0010
0001
1000
0001
,
0010
0001
1000
0001
0010
0001
1000
0001
,
0010
0000
0001
0000
1000
0100
1000
0100
0010
0001
0010
0001
0100
0001
0100
0001
,
1000
0010
1000
0010
0100
0000
0000
0000
0001
0000
0010
0100
0000
0100
1000
0001
,
1000
0010
1000
0010
1000
0010
1000
0010
1000
0000
0010
0100
0000
0100
0001
0010
,
0100
0010
0100
0010
0100
0010
0100
0010
0100
0000
0010
0001
0000
0001
1000
0010
,
1000
0010
1000
0010
1000
0010
1000
0010
0100
0000
0010
0100
0000
0100
0001
0010
,
0100
1000
0100
1000
0100
1000
0100
1000
0100
0000
0010
0100
0000
1000
0010
0100
,
0001
0010
0001
0010
0001
0010
0001
0010
0001
0000
0010
0100
0000
1000
0010
0100
,
0010
1000
0010
1000
0010
1000
0010
1000
0010
0000
0100
0001
0000
0010
0100
1000
,
0001
0010
0001
0010
0001
0010
0001
0010
0100
0000
0000
1100
0000
0000
0011
0000
,
0000
0101
0000
0000
0200
0301
0010
0100
1000
0000
1000
0100
0000
1000
0010
0100
,
0010
0000
0010
0100
0000
0100
0010
1000
0100
0000
0100
0010
0000
0010
0001
1000
,
0001
0100
0001
0010
0000
0010
0100
1000
0001
0010
0001
1000
0000
1000
0100
0010
,
0100
1000
0001
0100
0000
0100
0010
1000
0000
0100
0010
0100
0000
0100
0010
0001
,
1000
0000
0000
0000
0000
0000
0001
0000
0100
0000
0001
0000
0100
0000
0000
0001
0000
0000
1000
0000
0000
0100
0000
0000
0010
0000
0000
0000
0000
0000
0100
0000
0000
1000
0000
0000
0000
0000
0000
0100
0000
0000
0010
0000
0000
0001
0000
0000
,
0100
0000
0010
1000
0000
0010
0100
0001
0010
0000
0100
0010
0000
0100
1000
0010
,
0100
0010
0100
0001
0000
1000
0001
0010
0100
0010
0001
0100
0000
0010
0100
0001
,
1000
0100
0010
0100
0000
0010
0100
1000
0020
0000
0000
0000
0000
0000
0000
0000
,
0000
0000
0130
0001
,
0000
1000
0000
0100
1000
0010
0100
0001
,
0000
0001
0010
0110
1100
0100
1000
0010
,
0000
1000
0000
0001
0010
0100
0010
0001
,
0100
0000
1000
0000
0100
0000
0001
0000
1000
0000
0000
0001
1000
0000
0100
0000
,
0010
0000
0000
0100
1000
0000
0001
0000
0100
0000
0000
0001
1000
0000
0001
0000
,
0010
0000
0000
0100
0010
0000
0001
0000
1000
0000
0010
0000
0100
0000
0001
0000
,
0010
0000
0100
0000
1000
0000
0001
0000
2000
0000
0000
3200
0000
0000
0320
0000
,
0000
0032
0000
0000
2000
0000
3003
0000
0001
0000
1000
0100
1000
0100
1000
0000
,
0001
0100
0010
0000
1000
0000
0001
0000
0010
0000
0100
1000
0100
1000
0100
0010
,
0100
1000
0001
0000
1000
0100
0010
0001
1000
0000
0100
0010
0100
0010
0100
0000
,
0001
1000
0100
0000
1000
0000
0001
0000
1000
0100
1000
0100
1000
0100
0010
0001
,
0100
0001
0100
0000
0010
0100
0010
1000
0001
0000
0000
0011
0000
0000
0101
0000
,
0000
0011
0000
0000
1001
0000
1000
0000
1100
0000
0000
1010
0000
0000
1100
0000
,
0000
1010
0000
0000
1000
0001
1000
0000
0001
0000
0010
0000
0100
0000
1000
0000
,
0001
0100
0001
0100
0010
1000
0010
1000
0001
0010
0001
0010
0100
0010
0100
1000
,
0100
1000
0100
1000
0100
1000
0100
1000
0020
0000
0000
0000
0000
0000
0000
0000
,
0000
0000
0000
0030
0000
0000
0000
0000
;
