#TITLE:Constellation;
#SUBTITLE:;
#ARTIST:Maozon;
#TITLETRANSLIT:;
#SUBTITLETRANSLIT:;
#ARTISTTRANSLIT:;
#GENRE:;
#CREDIT:;
#MUSIC:Constellation.ogg;
#BANNER:Constellation.png;
#BACKGROUND:Constellation-bg.png;
#CDTITLE:cdtitle.png;
#SAMPLESTART:82.927;
#SAMPLELENGTH:13.723;
#SELECTABLE:YES;
#OFFSET:1.073;
#BPMS:0.000=140.000000;
#STOPS:;
#BGCHANGES:;
#FGCHANGES:;

//--------------- dance-single - Pandemonium X ----------------
#NOTES:
     dance-single:
     Pandemonium X:
     Beginner:
     2:
     0,0,0,0,0:
0000
0000
0000
0000
,
0000
0000
0000
0000
,
0000
0000
0000
0000
,
0000
0000
0000
0000
,
0000
0000
0000
0000
,
0001
0000
0000
0000
,
1000
0000
0000
0000
,
0001
0000
0000
0000
,
1000
0000
0000
0000
,
0010
0000
0000
0000
,
0100
0000
0000
0000
,
0001
0000
0000
0000
,
1000
0000
0000
0000
,
0100
0000
0000
0000
,
0010
0000
0000
0000
,
0001
0000
0000
0000
,
1000
0000
0000
0000
,
0001
0000
0001
0000
,
0001
0000
0000
0000
,
1000
0000
1000
0000
,
1000
0000
0000
0000
,
0010
0000
0100
0000
,
0010
0000
0000
0000
,
0010
0000
0100
0000
,
0010
0000
0100
0000
,
0001
1001
0000
0000
,
1000
0000
0000
0000
,
0010
0000
0000
0000
,
0100
0000
0000
0000
,
0001
0000
0000
0000
,
1000
0000
0000
0000
,
0100
0000
1000
0000
,
1001
0000
0000
0000
,
0110
0000
0000
0000
,
0001
0000
0000
0000
,
0110
0000
0000
0000
,
1000
0000
0000
0000
,
0001
0000
0000
0000
,
1000
0000
0000
0000
,
0020
0000
0000
0000
,
0000
0000
0000
0030
,
0100
0000
0000
0000
,
0001
0000
1000
0000
,
0100
0000
0000
0000
,
0010
0000
0001
0000
,
2000
0000
0000
3000
,
0002
0000
0000
0003
,
0220
0000
0000
0000
,
0330
0000
0000
0000
,
1001
0000
1000
0000
,
0001
0000
0000
0000
,
0100
0000
0010
0000
,
0100
0000
0000
0000
,
0010
0000
1000
0000
,
0010
0000
0000
0000
,
0100
0000
0001
0000
,
0100
0000
0001
0000
,
1000
0000
0000
0000
,
0001
0000
1000
0000
,
0010
0000
0000
0000
,
0100
0000
0010
0000
,
1001
0000
0000
0000
,
1000
0000
0001
0000
,
0010
0000
0100
0000
,
1000
0000
0000
0000
,
0001
0000
0000
0000
,
1000
0000
0000
0000
,
0010
0000
0000
0000
,
0100
0000
0000
0000
,
1001
0000
0000
0000
;

//--------------- dance-single - Pandemonium X ----------------
#NOTES:
     dance-single:
     Pandemonium X:
     Easy:
     6:
     0,0,0,0,0:
0000
0000
0000
0000
,
0000
0000
0000
0000
,
0000
0000
0000
0000
,
0000
0000
0000
0000
,
0000
0000
0000
0000
,
0001
0000
1000
0000
,
0010
0000
0100
0000
,
0010
0000
0100
0000
,
0001
0000
1000
0000
,
0002
0000
0000
0003
,
2000
0000
0000
3000
,
0020
0000
0000
0030
,
0200
0000
0000
0300
,
0001
0000
1000
0000
,
0010
0000
0100
0000
,
0010
0100
0001
1000
,
1001
0000
0000
0000
,
0001
1000
0001
1000
,
0001
0000
0010
0000
0001
0020
0000
0030
,
0100
1000
0100
1000
,
0100
0000
0010
0000
0001
2000
3100
0000
,
1100
0000
1000
0100
,
0010
0000
0001
0000
1000
0002
0100
0003
,
0001
1000
0100
0010
,
1001
0110
1001
0001
,
1000
0101
0001
1000
,
0100
0000
1000
0000
0010
0200
0010
0300
,
1000
0010
0100
0001
,
0010
0000
0100
0000
0010
0002
1000
0003
,
0001
0000
1000
0000
,
0010
0000
0000
0000
0100
0020
0000
0030
,
1000
0001
0100
0010
,
1001
0000
0000
0110
0000
0000
1001
0000
,
0001
1000
0001
1000
,
0001
1000
0001
1000
,
0001
1000
0001
1000
,
0001
1000
0001
1000
,
0001
0000
1000
0000
,
0001
0000
0000
0000
0000
0000
0000
1000
0000
0000
0000
0000
0000
0000
0000
0001
,
0000
0000
0000
0000
,
0000
0000
0000
0110
,
1002
0003
2000
3000
,
0020
0030
0200
0300
,
0002
0003
0020
0030
,
0200
0000
0300
0000
2000
0000
3100
0010
,
0002
0000
0000
0003
,
2000
0000
0000
3000
0020
0000
0000
0030
,
2002
0000
0000
0000
0000
0000
3003
0000
,
0001
0000
0000
0001
0000
0000
1000
0000
0000
1000
0000
0000
0001
0000
1000
0000
,
0001
1000
0010
1000
,
0100
1000
0001
0100
,
0001
0010
0001
0100
,
0001
1000
0010
1000
,
0001
1000
0100
1000
,
0001
0100
0001
1000
,
0010
1000
0001
1000
,
0001
0010
0100
1000
,
1001
0001
0100
0010
,
1010
0010
0110
0100
,
0101
0001
1000
1100
,
1001
0001
0101
0001
,
0011
0000
0000
0000
,
1100
0000
1010
0000
,
0101
0001
1000
0010
,
0100
0010
1000
0001
,
1001
0001
0100
0010
,
1000
0000
0010
0000
0100
0002
1000
0003
,
0001
1000
0100
0100
,
1000
0000
0000
0000
0001
0000
0000
0000
0100
0000
0020
0000
0100
0030
0000
0000
,
1001
0000
0000
0000
;

//--------------- dance-single - Pandemonium X ----------------
#NOTES:
     dance-single:
     Pandemonium X:
     Medium:
     10:
     0,0,0,0,0:
0000
0000
0000
0000
,
0000
0000
0000
0000
,
0000
0000
0000
0000
,
0000
0000
0000
0000
,
0000
0000
0000
0000
,
1001
0000
0000
0000
0000
0000
0000
0000
0000
0000
0001
0000
0000
0001
0000
0000
,
0001
0000
0000
0000
,
1001
0000
0000
0000
0000
0000
0000
0000
0000
0000
1000
0000
0000
1000
0000
0000
,
1000
0000
0000
0000
,
1001
0000
0001
0000
0100
0000
0010
1000
,
0100
0000
0010
0000
0001
0000
0010
0100
,
1000
0000
0010
0000
0100
0000
0001
1000
,
0010
0000
1000
0000
0001
0000
0010
0100
,
1000
0000
0100
0000
1000
0000
0010
0100
,
0001
0000
0010
0000
0100
0000
0010
0001
,
0100
0000
0010
0000
0100
0000
0010
0100
,
0002
0000
0000
0000
,
1003
0000
0000
1000
0000
0000
1000
0000
0000
1000
0000
0000
0001
0000
1000
0000
,
0010
0000
0000
0010
0000
0000
0010
0000
0000
0000
0201
0000
0000
0000
0310
0000
,
1000
0000
0000
1000
0000
0000
1000
0000
0000
1000
0000
0000
1000
0000
0001
0000
,
0100
0000
0000
0100
0000
0000
0010
0100
0000
0002
0000
0000
1003
0000
0100
0000
,
0010
0000
0000
0010
0000
0000
0010
0000
0100
0000
1000
0000
0001
0000
0100
0000
,
0001
0000
0000
1000
0000
0000
0100
0000
1000
0010
0000
1000
0000
0000
0001
0000
,
1000
1100
0001
0101
,
1001
0000
0000
0000
0110
0000
0000
0000
0001
1000
0000
0100
1000
0000
0100
0000
,
0010
0000
1100
0000
1000
0000
0010
0100
,
0001
0000
0000
0000
0010
0000
0000
0000
0100
0000
0020
0000
0001
0030
1000
0000
,
0010
0000
0100
0000
0001
0000
1000
0001
,
0100
0000
0001
0000
1000
0000
0100
0010
,
0001
0000
0100
0000
0001
1000
0010
0000
,
1000
0000
0000
0000
0001
0000
0000
0000
1000
0000
0200
0000
0010
0300
0001
0000
,
1000
0001
0100
0010
,
1000
0000
0000
0001
0000
0000
0100
0000
0000
0010
0000
0000
1000
0000
0001
0000
,
0110
0000
0000
0000
0000
0000
0000
0000
0000
0000
1000
0000
0000
0001
0000
0000
,
1000
0000
0000
0000
,
0001
0000
0000
0000
0000
0000
0000
0000
0000
0000
1000
0000
0000
0001
0000
0000
,
1000
0000
0000
0000
0000
0000
0000
0000
0000
0000
0001
0000
0000
1000
0000
0000
,
0000
0000
0001
0000
0000
0000
0000
0000
1000
0000
0000
0001
0000
0000
1000
0000
,
0000
0000
0001
0000
1000
0000
0000
0001
0000
0000
1000
0000
0000
0001
0000
1000
,
0000
0000
0001
1000
0000
0000
1000
0000
0000
0001
0000
0000
1000
0000
0000
0001
,
0000
0000
1000
0000
0000
0001
0000
0000
1000
0000
0000
0001
1000
0000
0001
0000
,
0200
0300
0020
0030
,
2000
3000
0200
0300
,
2000
3000
0002
0003
,
0200
0000
0300
0000
0002
0000
1003
0100
,
0020
0000
0000
0000
,
0230
0000
2300
0000
,
3020
0000
0000
0000
0000
0000
0000
0000
,
0130
0000
0000
1000
0000
0000
0100
0000
0000
0001
0000
0000
1000
0000
0001
0000
,
0011
0000
0000
0001
0000
0000
0010
0000
0001
0000
0000
1000
0000
0000
0010
0000
,
1000
0000
0000
0010
0000
0000
0100
0000
0001
0000
0000
1000
0000
0000
0100
0000
,
0010
0000
0000
0100
0000
0000
1000
0000
0001
0000
0000
0100
0000
0000
0001
0000
,
1000
0000
0000
0100
0000
0000
0010
0000
0001
0000
0000
0001
0000
0000
0001
0000
,
1000
0000
0000
0001
0000
0000
0100
0000
0001
0000
0000
1000
0000
0000
0010
0000
,
1000
0000
0000
0010
0000
0000
0100
0000
0010
0000
0000
0100
0000
0000
0001
0000
,
1000
0000
0000
0100
0000
0000
0010
0000
0001
0000
0000
1000
0000
0000
0001
0000
,
0101
0000
0000
0001
0000
0000
1000
0000
1010
0000
0000
0010
0000
0000
1000
0000
,
1001
0001
0100
0010
,
1010
0001
0101
0100
,
0110
0000
0001
0000
1000
0000
0001
0010
,
0100
0000
0000
0010
0000
0000
0001
0000
1000
0000
0000
0010
0000
0000
1000
0000
,
1001
0001
1000
0010
,
1010
0000
0000
0000
0010
0000
0000
0000
0101
0000
0000
0001
0000
0000
0010
0000
,
0100
0000
0000
0100
0000
0000
1000
0000
0010
0000
0000
0010
0000
0000
0100
0000
,
1000
0000
0000
0100
0000
0000
0001
0000
0010
0000
0000
1000
0000
0000
0010
0000
,
0001
0100
0010
1000
,
0010
0000
0100
0000
0001
0020
0100
0030
,
0010
0001
0100
0010
,
1000
0000
0001
0000
0100
0020
1030
0001
,
1001
0000
0000
0000
;

//--------------- dance-single - Pandemonium X ----------------
#NOTES:
     dance-single:
     Pandemonium X:
     Hard:
     14:
     0,0,0,0,0:
0000
0000
0000
0000
,
0000
0000
0000
0000
,
0000
0000
0000
0000
,
0000
0000
0000
0000
,
0000
0000
0000
0000
,
0001
0000
0000
0010
0000
0000
0001
0000
0001
0000
0000
1000
0000
0000
0001
0000
,
0100
0000
0000
0001
0000
0000
1000
0000
1000
0000
0000
0100
0000
0000
1000
0000
,
0010
0000
0000
1000
0000
0000
0001
0000
0001
0000
0000
1000
0000
0000
0100
0000
,
0010
0000
0000
0010
0000
0000
0100
0000
0000
0100
0000
0000
0010
0000
0100
0000
,
1001
0000
1000
0000
0010
0000
0100
0000
0001
0000
1000
0100
0000
0100
1000
0001
,
0000
0000
1000
0000
0001
0000
0010
0000
0100
0000
1000
0010
0000
0010
1000
0001
,
0000
0000
1000
0000
0100
0000
0010
0000
0100
0000
1000
0010
0000
0010
0100
0001
,
0000
0000
0001
0000
0010
0000
0100
0000
1000
0000
0010
0100
0000
0010
1000
0100
,
0010
0100
0010
0100
0010
0001
1000
0001
,
0100
0010
0100
0010
1000
0001
1000
0001
,
1000
0100
1000
0100
0010
0001
0010
0001
0100
0001
0100
0001
1000
0010
1000
0010
,
0200
0000
0000
0000
,
0301
0000
0000
0001
0000
0000
0001
0000
0000
0001
0000
0000
1000
0000
0001
0000
,
1000
0000
0000
1000
0000
0000
1000
0000
0000
0000
0020
0000
0000
0000
1030
0000
,
0001
0000
0000
0001
0000
0000
0001
0000
0000
0001
0000
0000
1000
0000
0100
0000
,
1000
0000
0000
1000
0000
0000
1000
0010
0000
2000
0000
0000
3010
0000
1000
0000
,
2001
0000
0000
0000
0000
0000
3001
0010
0100
0010
0100
0010
0100
1000
0100
1000
,
0001
0000
0000
1000
0000
0000
0010
0000
0100
0001
0020
0000
0000
0000
0130
1000
,
0001
0000
0000
0001
0000
0000
0001
0000
0000
0001
0000
0000
0001
0000
1000
0000
,
1010
0000
0000
0000
0101
0000
0000
0000
1000
0100
0000
0100
1000
0000
0001
0000
,
2000
0000
0000
0000
3001
0100
0000
0100
0000
0010
0000
0100
0010
0000
1000
0000
,
0100
0000
0000
0010
0000
0100
0000
0010
0000
0010
0002
0000
0000
0000
1003
0000
,
0010
0000
0100
0010
0000
0100
0000
0010
0000
0010
0000
1000
0100
0000
0010
0000
,
0100
0000
0010
0100
0000
0010
0000
0100
0000
0100
0000
0010
0100
0010
0001
1000
,
0001
0000
0000
1000
0000
0100
0000
0001
0000
0100
0000
1000
0001
0000
1000
0000
,
0001
0000
0000
0100
0000
1000
0000
0100
0000
0001
2000
0000
0000
0000
3100
0000
,
1000
0010
0100
0010
0100
0010
0100
0010
,
1010
0000
0000
1100
0000
0000
0011
0000
0000
0101
0000
0000
1001
0000
1010
0000
,
1001
0000
0000
0000
0000
0000
0000
0000
0000
0000
0001
0000
0000
0001
0000
0000
,
0001
0000
0000
0000
,
0001
0000
0000
0000
0000
0000
0000
0000
0000
0000
0001
0000
0000
0001
0000
0000
,
0001
0000
0000
0000
0000
0000
0000
0000
0000
0000
0001
0000
0000
0001
0000
0001
,
0000
0000
0001
0000
0000
0000
1000
0001
1000
0000
0000
0001
0000
0000
0001
1000
,
0000
1000
0000
0000
0001
0000
0000
0001
0000
0000
0001
0000
0000
0001
0000
1000
,
0000
0001
0000
1000
0001
0000
1000
0000
0000
0100
0000
0000
0010
0000
0000
0001
,
0000
0000
1000
0000
0000
0100
0000
0000
0010
0000
0000
0001
1000
0000
0001
1000
,
0100
0000
0000
0010
0000
0000
0001
0000
0100
0000
0000
0010
0000
0000
1000
0000
,
0100
0000
0000
1000
0000
0000
0001
0000
0100
0000
0000
0001
0000
0000
0010
0000
,
0100
0000
0000
0010
0000
0000
0001
0000
0010
0000
0000
0100
0000
0000
1000
0000
,
0010
0000
0000
0100
0000
0000
0001
0000
0010
0000
0000
0100
0010
0001
1000
0010
,
0200
0000
0010
0000
0000
0010
0000
0000
0010
0000
0000
0010
0000
0000
0010
0000
,
0320
0000
0100
0000
0000
0100
0000
0000
0230
0000
0000
0010
0000
0000
0310
0000
,
0100
0000
0010
0000
1000
0000
0100
0000
0010
0001
0010
0001
1000
0100
1000
0100
,
0020
0000
0030
0002
0000
0003
2000
0000
3000
0200
0000
0300
0020
0000
0032
0000
,
1003
0000
1000
0100
0000
1000
0001
0000
0100
0000
0001
0100
0000
0001
1000
0000
,
0100
0000
0010
0001
0000
0010
0100
0000
0010
0000
0100
1000
0000
0100
0010
0000
,
0100
0000
1000
0010
0000
1000
0001
0000
0010
0000
0001
0010
0000
0001
0100
0000
,
0010
0000
0001
0010
0000
1000
0100
0000
0010
0000
0001
0010
0000
1000
0010
0000
,
0001
0000
1000
0010
0000
0100
0001
0000
0010
0000
0100
0010
0000
0001
1000
0000
,
0100
0000
0010
0100
0000
1000
0010
0000
0100
0000
0001
0010
0000
0001
1000
0000
,
0010
0000
1000
0001
0000
0010
0001
0000
1000
0000
0001
1000
0000
0010
1000
0000
,
1001
0000
0000
0001
0000
0000
1000
0010
1000
0000
0100
0010
0000
0001
1000
0000
,
1001
0000
0001
0100
0000
0001
0010
0000
0100
0000
0010
0100
0000
1000
0010
0000
,
0110
0000
0100
0001
0000
0001
0010
0000
0110
0000
0010
0100
0000
0100
1000
0000
,
1001
0000
0001
0100
0000
0010
0100
0000
0010
0000
1000
0001
0000
0100
0001
0000
,
0101
0000
0100
0010
0000
1000
0100
0000
0011
0000
0001
0100
0000
0010
1000
0000
,
1001
0000
0000
0001
0000
0000
0100
0000
0001
0000
0000
1000
0000
0000
0100
0000
,
0110
0000
0000
0100
0000
0000
1000
0000
1010
0000
0000
1010
0000
0000
1010
0000
,
0010
0000
0100
0000
0010
0000
0100
0000
0001
0000
1000
0000
0001
1000
0001
1000
,
0200
0000
0000
0310
0000
0000
0001
0000
0200
0000
0000
0310
0000
0000
2000
0000
,
3001
0000
1000
0000
0100
0000
0010
0000
0001
0000
1000
0010
0000
0100
0001
1000
,
0000
0000
0001
0000
0010
0000
0100
0000
1000
0000
0002
0100
0000
1003
0100
0010
,
0100
0000
0010
0000
0001
0000
0100
0000
0010
0000
0100
0001
0000
0010
0100
1000
,
0001
0100
0001
0100
0010
1000
0010
1000
0100
0010
0002
1003
0001
0010
0100
1000
,
0001
0000
0000
0000
;
