#TITLE:COSMIC RAY;
#SUBTITLE:;
#ARTIST:BEMANI Sound Team "Captain Sonic";
#TITLETRANSLIT:;
#SUBTITLETRANSLIT:;
#ARTISTTRANSLIT:;
#GENRE:;
#CREDIT:;
#MUSIC:COSMIC RAY.ogg;
#BANNER:COSMIC RAY.png;
#BACKGROUND:COSMIC RAY-bg.png;
#CDTITLE:;
#SAMPLESTART:21.268;
#SAMPLELENGTH:9.859;
#SELECTABLE:YES;
#OFFSET:-0.345;
#BPMS:0.000=195.000000;
#STOPS:156.000=2.154;
#BGCHANGES:;
#FGCHANGES:;

//--------------- dance-single - Pandemonium X ----------------
#NOTES:
     dance-single:
     Pandemonium X:
     Beginner:
     6:
     0,0,0,0,0:
0000
0000
0000
0000
,
0000
0000
0000
0000
,
0000
0000
0000
0000
,
0000
0000
0000
0000
,
0000
0000
0000
0000
,
1000
0000
0000
0000
,
0001
0000
0000
0000
,
1000
0000
0000
0000
,
0110
0000
0000
0000
,
0001
0000
0000
0000
,
0000
0000
0000
0000
,
1000
0000
0000
0000
,
0000
0000
0000
0000
,
0010
0000
0000
0000
,
0000
0000
0000
0000
,
0200
0000
0000
0000
,
0000
0000
0000
0300
,
0010
0010
0000
0010
,
0100
0000
0000
0001
,
1000
0000
0001
0000
,
1000
1000
1000
0000
,
0001
1000
0000
1000
,
0100
0100
0000
0010
,
0001
0000
0001
0000
,
1001
0000
0000
0000
,
0001
0001
0000
1000
,
0001
0001
0000
0100
,
0010
0010
0010
0000
,
0100
0000
0000
0000
,
0010
0010
0000
0010
,
0100
0100
0000
0010
,
1000
1000
0001
0001
,
0010
0000
0000
0000
,
0200
0000
0000
0000
,
0000
0000
0300
0000
,
2000
0000
0000
0000
,
0000
0000
3000
0000
,
0020
0000
0000
0000
,
0000
0000
0030
0000
,
0100
0001
0001
0000
,
1000
1000
1000
0000
,
0010
0010
0010
0000
,
0100
0100
0100
0010
,
0100
0001
0001
0000
,
1000
0100
0100
0000
,
1000
0010
0010
0000
,
0100
0001
0000
1000
,
0000
0001
2000
0000
,
0000
0000
0000
0000
,
3000
0100
0100
0100
,
0000
0010
0010
0010
,
0000
0000
0002
0000
,
0000
0000
0000
0000
,
0003
1000
1000
1000
,
0000
0110
0000
0000
,
0000
0001
0200
0000
,
0000
0000
0000
0000
,
0300
0010
0010
0010
,
0000
0100
0100
0100
,
0000
0001
2000
0000
,
0000
0000
0000
0000
,
3000
0100
0100
0100
,
0100
1001
0000
0000
,
0000
0001
0020
0000
,
0000
0000
0000
0000
,
0030
0000
0000
0000
,
0000
0000
0000
0000
,
0000
0100
2000
0000
,
0000
0000
0000
0000
,
3000
0000
0000
0000
,
0000
1001
0000
0000
,
0000
0001
0000
0001
,
0000
1000
0000
1000
,
0000
0010
0000
0010
,
0000
0100
0000
0100
,
0000
0010
0010
0100
,
0100
0001
0001
1000
,
1000
0001
0001
0001
,
0001
1001
0000
0000
,
0000
0010
0010
0000
0000
0000
0000
0000
;

//--------------- dance-single - Pandemonium X ----------------
#NOTES:
     dance-single:
     Pandemonium X:
     Easy:
     8:
     0,0,0,0,0:
0000
0000
0000
0000
,
0000
0000
0000
0000
,
0000
0000
0000
0000
,
0000
0000
0000
0000
,
0000
0000
0000
0000
,
0001
0000
0000
0001
0000
0000
0001
0000
,
1000
0000
0000
1000
0000
0000
1000
0000
,
0010
0000
0000
0100
0000
0000
0010
0000
,
1001
0000
0000
0000
0000
0000
0000
1000
,
0100
0000
0100
0000
,
0100
0000
0100
0000
,
0010
0000
0010
0000
,
0010
0000
0010
0000
,
0001
0000
0001
0000
,
0001
0000
0001
0000
,
2000
0000
0000
0000
,
0000
0000
0000
3000
,
0001
0000
1000
0000
0000
0000
0001
1000
,
0001
1000
0000
0001
,
0100
0000
0010
0000
1000
0010
1000
0010
,
1000
0000
0000
0000
0100
0000
0000
0100
0000
0000
0100
0000
0000
0000
0000
0000
,
0010
0001
0000
0010
,
0001
1000
0000
0010
,
0100
0000
0001
0000
1000
0001
1000
0001
,
0100
0000
0000
0100
0000
0000
0100
0000
,
0010
1000
0000
0010
,
1000
0001
0000
0010
,
0100
0000
0000
0000
0100
0000
0000
0000
0010
0000
0000
0010
0000
0000
0010
0000
,
0001
1000
0001
0000
0000
0100
0000
0100
,
0010
0100
0000
0010
,
0100
0001
0000
1000
,
1100
0000
0000
0000
0101
0000
0000
0000
1000
0000
0000
0001
0000
0000
0100
0000
,
0010
0000
0000
0010
0000
0000
0010
0000
,
0200
0000
0000
0000
,
0000
0000
0300
0000
,
0020
0000
0000
0000
,
0000
0000
0030
0000
,
2000
0000
0000
0000
,
0000
0000
3000
0000
,
0000
0001
0100
0010
,
1000
0001
0010
0000
0001
0000
0010
0000
,
0001
1000
0010
1000
,
0001
0000
0100
0001
1000
0000
0200
0000
,
2300
3001
1000
0010
,
1000
0001
0010
0000
0001
0000
1000
0000
,
0000
0100
0010
0001
,
1000
0220
0000
0330
,
0000
0001
2002
0000
,
0000
0000
0000
0000
,
3003
0001
1000
0100
,
0010
0110
1001
0110
,
1000
0010
2020
0000
,
0000
0000
0000
0000
,
3030
1000
1000
0010
,
0100
0000
0000
1001
0000
0000
0000
0000
0000
0001
0000
1000
,
0001
0000
0001
1000
0000
0000
0022
0000
0000
0000
0000
0000
,
0000
0000
0000
0000
,
0033
0010
0100
1000
,
0001
0101
1010
1001
,
0000
0001
0220
0000
,
0000
0000
0000
0000
,
0330
1000
0001
0010
,
0100
2000
0000
0000
,
0000
3001
0200
0000
,
0010
0000
0001
0000
,
0310
0100
0001
0000
,
1000
0000
0100
0000
,
0010
0100
2000
0000
,
0100
0000
0001
0000
,
3010
0100
0000
0010
,
0000
1001
0000
0000
,
0000
0001
0100
0010
,
1000
0100
0010
0001
,
0010
0001
1000
0000
0010
0000
1000
0000
,
0001
1000
0010
0000
1000
0000
0001
0000
,
1000
0001
0100
0010
0100
0000
0010
1000
,
0010
0000
0100
0001
0100
0000
0001
1000
,
0001
1001
1001
0110
,
0110
2000
0000
0000
,
0000
0100
3100
0000
0000
0000
0000
0000
;

//--------------- dance-single - Pandemonium X ----------------
#NOTES:
     dance-single:
     Pandemonium X:
     Medium:
     13:
     0,0,0,0,0:
0000
0000
0000
0000
,
0000
0000
0000
0000
,
0000
0000
0000
0000
,
0000
0000
0000
0000
,
0000
0000
0000
0000
,
2000
0000
0000
0100
0000
0000
3001
0000
,
0002
0000
0000
0100
0000
0000
1003
0000
,
2000
0000
0000
0100
0000
0000
3001
0000
,
0110
0000
0000
0000
0000
0000
0000
1000
,
0002
0000
0013
0000
0020
0000
0130
0000
,
0200
0000
0000
0000
1300
0000
0000
0000
0100
0000
0010
0000
0000
0001
0000
0000
,
2000
0000
3001
0000
0020
0000
0130
0000
,
0020
0000
0000
0000
0031
0000
0000
0000
1000
0000
0010
0000
0000
0100
0000
0000
,
0020
1030
0002
0103
,
0002
0013
0200
1300
,
2002
0000
0000
0000
,
0000
0000
0000
3003
,
1000
0000
1001
0000
0000
0000
0001
1001
,
1000
0000
0000
0000
1100
0000
0000
0000
0000
0000
0000
0100
0010
0000
0001
0000
,
1000
0000
0010
0000
0100
1000
0100
0001
,
1000
0000
0001
0000
1000
0000
0000
0100
0000
0000
0100
0000
0000
0000
0100
0000
,
0010
0000
0011
0000
0000
0000
0001
0101
,
0100
0000
0000
0000
0110
0000
0000
0000
0000
0000
0000
1000
0001
0000
1000
0000
,
0100
0000
1100
0000
0100
0001
0100
1000
,
1001
0000
0000
0110
0000
0000
1001
0000
,
1000
0100
0110
0000
0000
0000
0010
0011
,
0001
0100
0020
0000
0130
0001
2000
0000
,
3001
0100
0001
0000
1000
0010
1000
0000
0010
0000
1000
0001
0000
1000
0001
0000
,
0010
0000
0100
0000
1000
0000
0000
0001
0000
1000
0001
0000
0000
0000
1000
0000
,
0001
0010
0110
0000
0000
0000
0100
1100
,
1000
0001
0200
0000
0310
1000
0002
0000
,
1003
0010
1000
0000
0001
0100
0001
0000
0100
0000
0001
1000
0000
0001
1000
0000
,
1100
0000
0000
0011
0000
0000
1001
0000
,
2000
0000
3200
0000
0302
0000
0000
0203
,
0000
2300
0001
3001
,
0002
0000
0203
0000
2300
0000
0000
3200
,
0000
0302
1000
1003
,
2001
0000
3002
0000
2003
0000
0000
3020
,
0000
0032
0023
2030
,
3100
0010
0001
1000
,
0010
0100
0001
0000
1000
0000
0001
0000
,
1000
0100
0010
0100
,
1000
0000
0000
0001
1000
0000
0100
0000
1000
0000
0000
0000
0001
0000
0010
0000
,
0001
0010
0100
0000
0010
0000
0001
0000
,
1000
0010
0100
0000
0001
0000
1000
0000
,
0000
0000
0001
0100
0001
0100
0010
1000
,
0010
1000
0200
0000
0000
0000
0300
0000
,
0000
1100
0021
0100
,
0001
0100
0001
0100
,
0031
0000
1000
0010
0100
0001
0010
0100
,
1000
0000
1000
0010
0001
0010
1000
0000
,
1001
0011
1200
0010
,
1000
0010
1000
0010
,
1300
0000
0001
0100
0010
1000
0010
0100
,
0001
0000
0000
1001
0000
0000
0000
0000
0001
1000
0001
1000
,
0010
0100
0010
1000
0000
0000
2010
0000
0000
0001
0000
0000
,
0010
0001
0100
0001
,
3010
0000
0100
0010
1000
0001
0010
0100
,
0010
0001
0200
0000
0010
0000
0301
0000
,
1001
0001
0102
1000
,
0100
1000
0010
1000
,
0103
0000
0010
0100
0001
1000
0100
0010
,
0100
1000
0020
0000
0000
0000
0000
0000
,
0000
0000
0000
0000
0130
0000
0000
0100
0001
0000
0000
0000
0000
0000
0000
0001
,
0010
0000
0000
0000
0000
0000
0000
0010
0100
0000
0000
0000
0000
0000
0000
0100
,
1000
0000
0001
0000
0100
0000
0000
0010
0100
0000
0000
0000
0000
0000
0000
0010
,
1000
0000
0000
0000
0000
0000
0000
1000
0001
0000
0000
0000
0000
0000
0000
0001
,
0100
0000
0000
0000
1001
0000
0000
1000
0100
0000
0000
0000
0000
0000
0000
0100
,
0010
0000
0000
0000
0000
0000
0000
0010
0001
0000
0000
0000
0000
0000
0000
0001
,
0100
0010
2000
0000
3100
0000
0002
0000
,
0103
2002
0000
3003
,
1001
0000
0001
0010
0001
0010
0100
1000
,
0100
1000
0001
1000
0001
1000
0001
0100
,
0001
1000
0100
0010
0100
1000
0001
0010
,
0100
0010
0001
1000
0010
0100
0001
1000
,
0100
0010
0001
0001
1000
1000
0010
0010
,
0100
0100
0001
0001
0100
0100
0010
0010
,
1000
0000
1000
0000
0001
0000
1000
0100
1000
0000
0001
0100
0001
0000
1000
0100
,
1000
0000
0001
0100
0010
0000
1000
0000
0200
0000
0000
0000
0310
0000
0001
0000
,
0200
0000
0000
0000
0000
0000
0000
0000
0000
0000
0000
0000
0010
0000
0000
0000
0000
0000
0000
0000
0000
0000
0000
0000
0020
0000
0000
0000
0000
0000
0000
0000
0000
0000
0000
0000
0000
0000
0000
0000
0000
0000
0000
0000
0000
0000
0000
0000
0000
0000
0000
0000
0000
0000
0000
0000
0000
0000
0000
0000
0000
0000
0000
0000
0000
0000
0000
0000
0000
0000
0000
0000
0330
0000
0000
0000
0000
0000
0000
0000
0000
0000
0000
0000
0000
0000
0000
0000
0000
0000
0000
0000
0000
0000
0000
0000
;

//--------------- dance-single - Pandemonium X ----------------
#NOTES:
     dance-single:
     Pandemonium X:
     Hard:
     16:
     0,0,0,0,0:
0000
0000
0000
0000
,
0000
0000
0000
0000
,
0000
0000
0000
0000
,
0000
0000
0000
0000
,
0000
0000
0000
0000
,
0001
0000
0000
0001
0000
0000
0001
0000
,
1000
0000
0000
1000
0000
0000
1000
0000
,
0010
0000
0000
0010
0000
0000
0010
0000
,
0200
0000
0000
0000
0000
0000
0000
0301
,
1001
1000
0001
0000
1000
0001
1000
0000
,
1000
0000
0001
0000
1000
0000
0000
0000
1000
0000
0001
0000
0000
0010
0000
0000
,
0001
1000
0001
0000
0001
1000
0001
0000
,
0001
0000
1000
0000
0001
0000
0000
0000
1000
0000
0001
0000
0000
1000
0000
0000
,
0001
0100
0010
0000
0100
0010
1000
0000
,
0001
0010
0100
0000
1000
0001
0010
0001
,
2000
0000
0000
0000
,
0000
0000
0000
3000
,
1001
0000
1100
0000
0000
0000
1000
1010
,
0010
0000
0100
0000
0001
0000
1000
0000
0100
0000
0000
0010
0100
0000
1000
0000
,
0001
0000
0000
0000
1010
0000
0000
0000
0001
0100
0010
0000
1000
0000
0100
0000
,
0010
0100
0010
0000
1001
0000
1000
0001
0000
0100
0010
0000
0000
0000
0100
0000
,
0101
0000
1010
0000
0000
0000
0001
0011
,
0010
0000
0100
0000
0010
0000
0001
0000
0010
0000
0000
0100
0010
0000
0001
0000
,
1000
0000
0000
0000
0110
0000
0000
0000
0001
0100
0010
0000
1000
0000
0100
0000
,
0110
0000
0000
0011
0000
0000
1100
0000
,
1001
0000
0101
0000
0000
0000
1000
1010
,
0010
0000
1000
0000
0100
0000
1000
0100
0010
0000
0010
0001
1000
0000
0001
0000
,
0100
0010
0100
0000
0010
0100
0010
0000
1000
0000
0100
0010
0000
0100
0010
0000
,
0001
1000
0001
1000
0001
0000
0010
0000
0100
0010
0100
0000
0000
0000
0010
0000
,
0110
0000
1001
0000
0000
0000
0001
0101
,
0001
0000
0100
0000
0010
0000
0000
0000
1000
0000
0000
0010
0100
0000
0001
0000
,
0010
0100
0010
0000
0100
0010
0100
0000
0100
0000
0010
0100
0000
0100
1000
0000
,
1100
0000
0000
1001
0000
0000
0110
0000
,
1001
0001
2000
0000
0010
0000
0000
0001
,
0000
0000
0010
0000
0000
3001
0000
0000
,
0001
1000
0002
0000
1000
0000
0000
0100
,
0000
1000
2000
3003
,
1100
0100
2000
0000
0001
0000
0000
0010
,
0000
0000
0001
0000
3020
0000
0000
0130
,
0010
1000
0001
1000
,
0010
0100
0001
0000
0100
0000
0010
0000
,
1000
0010
0100
0001
,
1000
0000
0000
0010
1000
0000
0001
0000
0010
0000
0000
0000
0100
0000
0010
0000
,
0001
0000
1000
0001
0100
0000
0010
0000
,
0100
0001
1000
0100
0010
0000
0100
0000
,
0000
0000
0100
0010
0001
1000
0001
1000
,
0010
0000
1000
0010
0200
0000
0000
0000
0000
0000
0000
0300
0000
0000
0000
0000
,
0000
0000
0000
0000
1001
0000
0001
0100
0001
0000
0100
0001
0100
0000
0001
0100
,
0001
0000
0100
0001
0100
0000
0001
0100
0001
0000
0100
0001
0100
0000
0001
0100
,
0010
0000
0000
0000
0000
0000
1000
0000
0001
0000
1000
0000
0100
0000
0010
0000
0001
0000
1000
0000
0000
0001
0000
0000
,
0200
0000
0000
0000
0310
1000
0010
1000
0001
0000
0010
0000
0001
0000
0000
0000
,
1100
0000
0000
0000
0001
0000
1000
0010
1000
0000
0010
1000
0010
0000
1000
0010
,
1000
0000
0010
1000
0010
0000
1000
0010
1000
0000
0010
1000
0010
0000
1000
0010
,
0100
0000
0010
0000
0100
0000
0001
0000
0000
0010
0000
0000
1000
0000
0000
0010
0000
0000
0100
0000
0000
0010
0000
0000
,
0100
0000
0000
0000
0000
0000
0000
0000
0000
0000
0000
0000
0000
0000
0000
0000
0000
0000
0000
0000
0000
0000
0000
0000
1000
0000
0000
0000
0000
0000
0000
0000
0000
0000
0000
0000
0000
0000
0000
0000
0000
0000
0000
0000
0000
0000
0000
0000
0001
0000
0000
0000
0000
0000
0000
0000
0000
0000
0000
0000
0000
0000
0000
0000
0000
0000
0000
0000
0000
0000
0000
0000
0000
0000
0000
0000
0000
0000
0000
0000
0000
0000
0000
0000
0000
0000
0000
0000
0000
0000
0000
0000
0000
0000
0000
0000
0000
0000
0000
0000
0000
0000
0000
0000
0000
0000
0000
0000
0000
0000
0000
0000
0000
0000
0000
0000
0000
0000
0000
0000
0000
0000
0000
0000
0000
1000
0000
0000
0000
0000
0000
0000
0000
0000
0000
0000
0000
0000
0000
0000
0000
0000
0000
0000
0100
0000
0000
0000
0000
0000
0000
0000
0000
0000
0000
0000
0000
0000
0000
0000
0000
0000
0000
0010
0000
0000
0000
0000
0000
0000
0000
0000
0000
0000
0000
0000
0000
0000
0000
0000
0000
0000
0100
0000
0000
0000
0000
0000
0000
0000
0000
0000
,
0000
0000
0000
0000
0000
0000
0000
0000
0000
0000
1000
0000
0000
0000
0000
0000
0000
0000
0000
0000
0000
0000
0000
0000
0000
0000
0000
0000
0000
0001
0000
0000
0000
0000
0000
0000
0000
0000
0000
0000
0000
0000
0000
0000
0000
0000
0000
0000
0100
0000
0000
0000
0000
0000
0000
0000
0000
0000
0000
0000
0000
0000
0000
0000
0000
0000
0000
0000
0000
0000
0000
0000
0001
0000
0000
0000
0000
0000
0000
0000
0000
0000
0000
0000
1000
0000
0000
0000
0000
0000
0000
0000
0000
0000
0000
0000
0001
0000
0000
0000
0000
0000
0000
0000
0000
0000
0000
0000
0000
0000
0000
0000
0000
0000
0000
0000
0000
0000
0000
0000
1000
0000
0000
0000
0000
0000
0000
0000
0000
0000
0000
0000
0001
0000
0000
0000
0000
0000
0000
0000
0000
0000
0000
0000
1000
0000
0000
0000
0000
0000
0000
0000
0000
0000
0000
0000
0000
0000
0000
0000
0000
0000
0000
0000
0000
0000
0000
0000
0001
0000
0000
0000
0000
0000
0000
0000
0000
0000
0000
0000
1000
0000
0000
0000
0000
0000
0000
0000
0000
0000
0000
0000
,
0001
0000
1000
0001
1000
0000
0001
1000
0001
0000
1000
0001
1000
0000
0001
1000
,
0001
0000
0000
0000
0000
0000
1000
0000
0100
0000
1000
0000
0010
0000
0100
0000
0010
0000
0100
0000
0000
0001
0000
0000
,
0010
0000
0100
0000
0010
0100
0010
0001
1000
0000
0000
0000
1100
0000
0000
0000
,
0011
0000
0000
0000
1001
0000
1000
0001
1000
0000
0001
1000
0001
0000
1000
0001
,
1000
0000
0001
1000
0001
0000
1000
0001
1000
0000
0001
1000
0001
0000
0010
0100
,
1000
0000
1001
1000
1001
0001
0011
0010
,
0110
0100
0020
0000
0000
0000
0000
0000
,
0030
0000
1001
0001
1000
0100
0001
0100
,
1000
0100
0001
0100
1000
0100
0001
0100
,
1000
0000
0001
0100
0010
0000
0100
0001
,
1000
0000
0100
0010
0001
0000
0010
0001
,
1000
0010
0100
0001
0100
1000
0100
0001
,
0100
1000
0100
0001
0100
1000
0100
0001
,
0100
0000
0010
1000
0001
0000
1000
0000
0010
0000
0000
0000
0100
0000
0001
0000
,
0010
0110
0000
0000
,
0000
0000
1001
1000
0001
0100
0010
1000
,
0001
0010
0100
0010
0001
1000
0010
1000
,
0001
0000
0010
0001
1000
0000
0100
0000
1000
0000
0100
0000
1000
0000
0001
0000
,
0010
0100
1000
0000
0001
0000
0100
0000
0010
0000
1000
0001
0010
0000
0100
0000
,
0010
0000
0001
1000
0100
0010
0100
0010
0100
0000
0010
0000
0001
1000
0001
1000
,
0001
0000
0100
0000
0010
1000
0010
1000
0010
0000
1000
0000
0001
0010
0001
0010
,
0001
0000
1000
0010
0100
0000
0100
0001
1000
0000
1000
0100
0010
0000
0010
0001
,
1000
0001
1001
1000
0100
0010
0001
1000
,
0001
0011
2200
0000
0000
3300
0000
0000
;

//--------------- dance-single - Pandemonium X ----------------
#NOTES:
     dance-single:
     Pandemonium X:
     Challenge:
     17:
     0,0,0,0,0:
0000
0000
0000
0000
,
0000
0000
0000
0000
,
0000
0000
0000
0000
,
0000
0000
0000
0000
,
0000
0000
0000
0000
,
0201
0000
1300
1200
0000
0310
1001
0000
,
1200
0000
0301
0201
0000
1300
1001
0000
,
0201
0000
1300
1200
0000
0301
1001
0000
,
0110
0000
0000
0000
0000
0000
0000
1001
,
1000
0000
0100
0000
0010
0001
0000
0000
1000
0000
0100
0000
0010
0001
0000
0000
,
1000
0000
0100
0000
0010
0001
0000
0000
1000
0000
1100
0000
0000
0011
0000
0000
,
1001
0000
1000
0000
0010
0100
0000
0000
0001
0000
1000
0000
0010
0100
0000
0000
,
0001
0000
1000
0000
0010
0100
0000
0000
0001
0000
0101
0000
0000
1001
0000
0000
,
0011
0000
0010
0000
0100
1000
0000
0000
0001
0000
0010
0000
0100
1000
0000
0000
,
0001
0000
0010
0000
0100
1000
0000
0000
0001
0000
0010
0000
0100
1000
0100
1000
,
0200
0320
0230
0000
2300
3020
0032
0203
,
0000
2300
3200
0000
0302
0000
1003
0000
,
1000
0100
1100
0000
0000
0000
1000
1010
,
0010
0000
0100
0000
0001
1000
0000
0001
0010
0000
0100
0010
0001
0000
0011
0000
,
0101
0000
0000
0000
1001
0000
0000
0000
1000
0001
1000
0000
1000
0000
1100
0000
,
0100
0010
0001
0010
0100
0010
0001
1000
0000
0001
1000
0000
0000
0000
1000
0001
,
0010
0000
0011
0000
0000
0000
0001
0011
,
1001
0000
1000
0000
1001
0000
0000
0000
0001
0000
0000
0100
0010
0000
1000
0000
,
0001
0000
0000
0000
1100
0000
0000
0000
0001
0100
0010
0000
0010
0000
0110
0000
,
1001
0000
0000
MMMM
0000
0000
1001
0000
0000
MMMM
0000
0000
1001
0000
0000
0000
,
1001
1000
1010
0000
0010
0100
0101
1010
,
1000
0100
1000
0000
0100
0010
0000
0010
0001
0000
0100
0010
0000
1000
0100
0000
,
0010
0100
1000
0000
0001
0100
1000
0000
0100
0000
0001
0100
0000
0010
1000
0000
,
0100
0010
0100
1000
0100
1000
0001
1000
0010
0100
0010
0000
0000
0000
0110
0000
,
0101
0001
0011
0000
0000
0000
1000
1100
,
1000
0001
1000
0000
0001
0010
0000
0100
0010
0100
1000
0001
1000
0000
0001
0000
,
0100
0010
0001
0000
0010
1000
0100
0000
0010
0000
0100
0010
0000
0010
0001
0000
,
1001
0000
0000
MMMM
0000
0000
1001
0000
0000
MMMM
0000
0000
1001
0000
0000
0000
,
0001
0100
1000
0100
0001
1000
0100
0001
,
0100
1000
0002
0000
2003
3002
2003
0000
,
3001
0010
1000
0010
0001
1000
0010
0001
,
0010
1000
0002
0000
2000
0000
0000
3003
,
1001
1000
0100
0001
0100
1000
0010
0001
,
0010
1000
0002
0000
2003
0000
3002
2003
,
0001
3000
1010
0000
0101
0000
0011
0000
,
0110
0100
1100
0000
1010
0000
0110
0000
,
0101
0011
1001
1010
,
1001
0000
0000
1000
0100
0000
0010
0000
0011
0000
0000
0000
0020
0000
0230
0000
,
2300
3001
0101
0000
1010
0000
1100
0000
,
0011
0010
0110
0000
1100
0000
1010
0000
,
MMMM
0000
0001
1000
0001
1000
0001
1000
,
0001
0000
0000
1000
0000
0001
0200
0000
0000
0000
0000
0000
0000
0000
0000
0000
0000
0000
0320
0000
0000
0000
0000
0000
,
0000
0000
0000
0000
0130
0000
0001
1000
0100
1000
0100
1000
0100
1000
0100
1000
,
0100
1000
0100
1000
0100
1000
0100
1000
0100
1000
0100
1000
0100
1000
0100
1000
,
0100
0000
1000
0000
0100
0000
1000
0000
0100
0000
0010
0000
0001
0000
0010
0000
0100
0000
1000
0000
0000
0010
0000
0000
,
1010
0000
0000
0000
1000
0010
1000
0010
0100
0000
0000
0000
0110
0000
0000
0000
,
0110
0000
0000
0000
1001
0000
1000
0001
0010
0001
0010
0001
0010
0001
0010
0001
,
0010
0001
0010
0001
0010
0001
0010
0001
0010
0001
0010
0001
0010
0001
0010
0001
,
0010
0000
0100
0001
0100
1000
0001
0100
,
1000
0000
0000
0000
0000
0000
0100
0000
0000
0000
0000
0000
0101
0000
0000
0000
0000
0000
0000
0000
0000
0000
0000
0000
0000
0000
0000
0000
0000
0000
0000
0000
0001
0000
0000
0000
0000
0000
1000
0000
0000
0000
0001
0000
0000
1000
0000
0000
,
0001
0000
0000
0000
1000
0000
0000
0000
0100
0000
0000
0000
0010
0000
0000
0000
0000
0000
0001
0000
0000
1000
0000
0000
0010
0000
0000
1000
0000
0000
0010
0000
0000
1000
0000
0000
0010
0000
0000
1000
0000
0000
0010
0000
0000
1000
0000
0000
,
0010
1000
0010
1000
0010
1000
0010
1000
0010
1000
0010
1000
0010
1000
0010
1000
,
0010
0000
0000
0000
0000
0000
0100
0000
0010
0000
1000
0000
0001
0000
0010
0000
0100
0000
1000
0000
0000
0100
0000
0000
,
0110
0000
0000
0000
0001
1000
0001
0100
0010
0000
0000
0000
0110
0000
0000
0000
,
0110
0000
0000
0000
1001
0000
1000
0001
0100
0001
0100
0001
0100
0001
0100
0001
,
0100
0001
0100
0001
0100
0001
0100
0001
0100
0001
0100
0001
0100
0001
0100
0001
,
0100
0000
0010
0001
0010
1000
0100
0001
,
0100
0000
0000
0000
0000
0000
1000
0000
0000
0000
0000
0000
0002
0000
0000
2003
0000
0000
3002
0000
0000
2003
0000
0000
3002
0000
0000
2003
0000
0000
0000
0000
0002
3000
0000
0000
2003
0000
0000
0000
0002
0000
3000
0000
2003
0000
0000
0000
,
3002
0000
2003
0000
3001
0000
1000
0100
0010
0100
0010
0100
0010
0100
0010
0100
,
0010
0100
0010
0100
0010
0100
0010
0100
0010
0100
0010
0100
0010
0100
0010
0000
,
0110
1100
0110
0010
,
0011
0001
0101
0100
,
0110
0000
0000
0000
1001
0000
1000
0010
0100
0010
0100
0010
0100
0010
0100
0010
,
0100
0010
0100
0010
0100
0010
0100
0010
0100
0010
0100
0010
0100
0010
0100
0010
,
0100
0000
0010
1000
0001
0000
1000
0000
1100
0000
0000
0000
1000
0000
0001
0000
,
0101
0210
0310
0120
,
0130
0000
1001
1000
0001
0001
0100
0100
,
0010
0010
1000
1000
0100
0100
0010
0010
,
0001
0000
0001
0010
0100
0000
0100
0000
1000
0000
1000
0000
0001
0000
0001
0000
,
0100
0010
1000
0000
0010
0000
0010
0000
0100
0000
0100
0000
0001
0000
0001
0000
,
1000
0000
0001
1000
0100
0010
0100
0010
0001
0010
0001
0010
0001
0100
0001
0100
,
0010
0100
0010
0100
0010
1000
0010
1000
0001
0100
0001
0100
0001
1000
0001
0010
,
0100
1000
0100
1000
0001
0100
0001
1000
0100
0010
0001
1000
0010
0100
0001
1000
,
0100
1000
0001
0100
0001
0000
1000
0000
0100
0010
0000
0010
0001
0000
1000
0000
,
0002
0103
1010
0000
0000
0000
0000
0000
;
