#TITLE:Assault TAXI;
#SUBTITLE:;
#ARTIST:āˆ€Sāˆ€;
#MUSIC:Assault TAXI.ogg;
#BANNER:;
#BACKGROUND:Assault TAXI-bg.png;
#LYRICSPATH:;
#CDTITLE:;
#SAMPLESTART:102.968;
#SAMPLELENGTH:12.541;
#OFFSET:-0.111;
#BPMS:0.000000=154.000000;
#STOPS:328.750000=0.390000,
329.750000=0.390000
;
#TIMESIGNATURES:;
#BGCHANGES:;
#FGCHANGES:;
#ATTACKS:;
#SPEEDS:;
#SCROLLS:;

//---------------dance-single - "P.X. Joe"---------------
#NOTES:
     dance-single:
     "P.X. Joe":
     Beginner:
     5:
     0,0,0,0,0:
// measure 0
0000
0000
0000
0000
,  // measure 1
0000
0000
0000
0000
,  // measure 2
0000
0000
0000
0000
,  // measure 3
0000
0000
0000
0000
,  // measure 4
0000
0000
0000
0000
,  // measure 5
0000
0000
0000
0000
,  // measure 6
0001
0000
0000
0000
,  // measure 7
0000
0000
0000
0000
,  // measure 8
1000
0000
0000
0000
,  // measure 9
0000
0000
0000
0000
,  // measure 10
0010
0000
1000
0000
,  // measure 11
0001
0000
0000
0000
,  // measure 12
0010
0000
0001
0000
,  // measure 13
1000
0000
0000
0000
,  // measure 14
0001
0000
1000
0000
,  // measure 15
0010
0000
0100
0000
,  // measure 16
0001
0001
1000
1000
,  // measure 17
0110
0000
0000
0000
,  // measure 18
1001
0000
0001
0000
,  // measure 19
1000
0000
0100
0000
,  // measure 20
0010
0000
0001
0000
,  // measure 21
0100
0000
0010
0000
,  // measure 22
0100
0000
0001
0000
,  // measure 23
1000
0000
0100
0000
,  // measure 24
0010
0000
0001
0000
,  // measure 25
1001
0000
0000
0000
,  // measure 26
1000
0000
1000
0000
,  // measure 27
1000
0000
1000
0000
,  // measure 28
0001
0000
0001
0000
,  // measure 29
0001
0001
0001
0000
,  // measure 30
0100
0000
0100
0000
,  // measure 31
0100
0000
0100
0000
,  // measure 32
0010
0010
0010
0010
,  // measure 33
0000
0000
0000
0000
,  // measure 34
1001
0000
0000
0000
0000
0010
0010
0000
,  // measure 35
1000
0000
0000
0000
,  // measure 36
1001
0000
0001
0000
,  // measure 37
1000
1000
1000
0000
,  // measure 38
1001
0000
0000
0000
0000
0100
0100
0000
,  // measure 39
0001
0000
0010
0000
,  // measure 40
1001
0000
0001
0001
,  // measure 41
1000
0000
0001
0000
,  // measure 42
0110
0000
0000
0000
0000
0001
0001
0000
,  // measure 43
1000
1000
1000
0000
,  // measure 44
0011
0000
1010
0000
,  // measure 45
0001
1000
0110
0000
,  // measure 46
1001
0000
0000
0000
0000
0010
0010
0000
,  // measure 47
1001
0000
0100
0000
,  // measure 48
0001
1000
0010
0100
,  // measure 49
0001
0000
0000
0000
,  // measure 50
1000
0000
0000
0000
,  // measure 51
0000
0000
0000
0000
,  // measure 52
0000
0000
0000
0000
,  // measure 53
0000
0000
0000
0000
,  // measure 54
0001
0000
0001
0000
,  // measure 55
1000
0000
0000
0001
,  // measure 56
0001
0000
1000
0000
,  // measure 57
0220
0000
0330
0000
,  // measure 58
0001
0000
0000
0000
,  // measure 59
1000
0000
0000
0110
,  // measure 60
0010
0000
0000
0000
,  // measure 61
0100
0000
0000
0000
,  // measure 62
0001
0000
0001
0000
,  // measure 63
1000
0000
1000
0000
,  // measure 64
0001
1000
0010
0100
,  // measure 65
0001
0000
0000
0000
,  // measure 66
1000
0000
0100
0000
,  // measure 67
0001
0000
0100
0000
,  // measure 68
1000
1000
1000
0000
,  // measure 69
0001
0001
0001
0000
,  // measure 70
0001
0000
0100
0000
,  // measure 71
1000
0000
0100
0000
,  // measure 72
0001
0001
0001
0000
,  // measure 73
1000
1000
1000
0000
,  // measure 74
0020
0000
0000
0000
,  // measure 75
0000
0000
0030
1001
,  // measure 76
0001
1000
0001
0000
,  // measure 77
1000
0001
1000
0000
,  // measure 78
0001
0000
0010
0000
,  // measure 79
1000
0000
0010
0000
,  // measure 80
0001
0010
0100
1000
,  // measure 81
2002
0000
0000
3003
,  // measure 82
0010
0010
0010
0010
,  // measure 83
0010
0000
1001
0000
,  // measure 84
0001
0000
0100
0000
,  // measure 85
0000
0000
0010
0000
,  // measure 86
1000
0000
0100
0000
,  // measure 87
0000
0000
0010
0000
,  // measure 88
0100
0000
1000
0000
,  // measure 89
0000
0000
0001
0000
,  // measure 90
1000
0000
0020
0000
,  // measure 91
0000
0000
0000
0030
0000
0000
0000
0000
;

//---------------dance-single - "P.X. Joe"---------------
#NOTES:
     dance-single:
     "P.X. Joe":
     Easy:
     8:
     0,0,0,0,0:
// measure 0
0000
0000
0000
0000
,  // measure 1
0000
0000
0000
0000
,  // measure 2
0000
0000
0000
0000
,  // measure 3
0000
0000
0000
0000
,  // measure 4
0000
0000
0000
0000
,  // measure 5
0000
0000
0000
0000
,  // measure 6
1000
0000
0000
0001
0000
0000
0100
0000
,  // measure 7
0002
0000
0000
0003
,  // measure 8
0010
0000
0000
0001
0000
0000
0100
0000
,  // measure 9
1001
0001
1000
0010
,  // measure 10
0100
0100
0010
1000
,  // measure 11
0001
0001
0010
0100
,  // measure 12
0010
0010
0100
1000
,  // measure 13
0001
0001
0100
1010
,  // measure 14
0100
0001
1000
0000
1000
0001
0100
0000
,  // measure 15
0100
0010
1000
0000
0001
0010
0100
0100
,  // measure 16
0010
0100
1000
0001
,  // measure 17
2002
0000
0003
3000
,  // measure 18
0101
0001
0010
0001
,  // measure 19
1000
0200
0310
0000
0100
0000
1000
0000
,  // measure 20
0001
0100
0010
0100
,  // measure 21
0001
0000
0100
0020
1030
0000
0100
1000
,  // measure 22
0001
0000
1000
0001
0010
0000
0100
0000
,  // measure 23
0010
0001
0100
0001
,  // measure 24
1000
1000
0100
0000
0010
0000
0100
0000
,  // measure 25
1000
0000
0001
0000
0100
0010
1000
0000
,  // measure 26
1001
0001
0011
1000
,  // measure 27
1001
0001
0101
1000
,  // measure 28
1001
1000
1100
0001
,  // measure 29
1001
1000
0201
0000
,  // measure 30
0310
1001
0100
1001
,  // measure 31
0010
0000
1001
0000
0110
0000
1000
0001
,  // measure 32
2000
3200
0320
0032
,  // measure 33
2000
0000
0000
3003
,  // measure 34
0001
0100
0010
0000
0100
0001
0001
0000
,  // measure 35
0021
0000
0230
0000
1300
0001
0100
0000
,  // measure 36
0010
1000
0100
0000
0010
0000
1100
0000
,  // measure 37
0200
0000
2300
0000
3010
0100
0001
0000
,  // measure 38
1000
0001
0100
0000
0010
1000
1000
0000
,  // measure 39
1020
0000
0130
0000
0010
0100
0001
0000
,  // measure 40
0010
0100
1000
0000
0100
0000
0011
0000
,  // measure 41
0001
0000
0100
0000
0010
1000
0001
0000
,  // measure 42
0010
0100
1000
0000
0001
0000
0010
0000
,  // measure 43
0011
1100
0011
0000
,  // measure 44
0001
1000
0000
0000
0001
1000
0000
0000
,  // measure 45
0110
0000
1001
0000
0001
1000
0010
0000
,  // measure 46
1000
0100
0010
0000
0100
0010
0010
0000
,  // measure 47
2100
0000
3010
0000
0100
0010
1000
0000
,  // measure 48
0001
1000
0010
0000
1000
0001
0010
0000
,  // measure 49
2002
0000
0000
3003
,  // measure 50
0110
0000
0000
0000
,  // measure 51
0000
0000
0000
0000
,  // measure 52
0000
0000
0000
0000
,  // measure 53
0000
0000
0000
0000
,  // measure 54
0001
0001
1000
1000
,  // measure 55
0010
0010
0100
0100
,  // measure 56
0001
0100
0001
0010
,  // measure 57
2002
0000
0000
3003
,  // measure 58
1000
0010
1000
0000
,  // measure 59
0001
0100
0001
0000
,  // measure 60
0010
0001
0010
0000
,  // measure 61
0100
1000
0100
0000
,  // measure 62
1000
0100
0010
0001
,  // measure 63
1000
0000
0100
0000
0010
0000
0001
0010
,  // measure 64
0100
0100
0010
0010
,  // measure 65
0100
1000
0010
0100
0001
1000
1001
0000
,  // measure 66
0001
0100
0001
1000
,  // measure 67
0010
1000
0100
0010
,  // measure 68
0001
0000
0100
0000
0010
0100
0002
0000
,  // measure 69
0013
0000
0100
0000
0010
0001
2000
0000
,  // measure 70
3100
0010
0001
1000
,  // measure 71
0010
0100
0001
0010
,  // measure 72
0001
0000
1000
0000
0010
0100
0002
0000
,  // measure 73
0013
0000
0100
0000
1000
0001
0020
0000
,  // measure 74
0230
1300
0020
0130
,  // measure 75
0002
0013
0200
1300
,  // measure 76
0001
0000
1000
0000
0010
0100
0002
0000
,  // measure 77
0013
0000
0100
0000
1000
0001
0200
0000
,  // measure 78
0310
1000
0001
0010
,  // measure 79
0001
1000
0010
1000
,  // measure 80
0001
0010
0100
0010
0000
0100
0010
0001
,  // measure 81
2000
0000
0001
3001
,  // measure 82
0101
1010
0101
1010
,  // measure 83
1001
0000
0001
1000
,  // measure 84
0100
0010
0200
0000
,  // measure 85
0000
0300
0010
0001
,  // measure 86
1000
0001
0020
0000
,  // measure 87
0000
0030
0100
0010
,  // measure 88
0001
1000
0020
0000
,  // measure 89
0000
0030
0100
0010
,  // measure 90
1000
0001
0200
0000
,  // measure 91
0000
0000
0300
0000
;

//---------------dance-single - "P.X. Joe"---------------
#NOTES:
     dance-single:
     "P.X. Joe":
     Medium:
     13:
     0,0,0,0,0:
// measure 0
0000
0000
0000
0000
,  // measure 1
0000
0000
0000
0000
,  // measure 2
0000
0000
0000
0000
,  // measure 3
0000
0000
0000
0000
,  // measure 4
0000
0000
0000
0000
,  // measure 5
0000
0000
0000
0000
,  // measure 6
0001
1000
0000
0100
0000
1000
0000
0010
0000
1000
0000
0100
0000
0010
0000
0100
,  // measure 7
2000
0000
0000
0002
0000
0000
0000
0000
0000
0000
0000
0000
3003
0000
0000
0000
,  // measure 8
0001
0100
0000
0010
0000
0100
0000
0001
0000
0010
0000
0100
0000
0010
0000
0001
,  // measure 9
1000
0000
0000
1000
0000
0000
1000
0000
0100
0000
0010
0000
0100
0000
0000
0000
,  // measure 10
1001
0000
1000
0000
0010
0000
0100
0001
,  // measure 11
0010
0000
0000
0010
0100
0000
0100
0000
1000
0000
0000
0000
0100
0000
1000
0000
,  // measure 12
0010
0000
0100
0000
0001
0010
0100
0000
,  // measure 13
0010
0000
0000
0001
1000
0000
1000
0000
0001
0000
0100
0000
0010
0000
0000
0000
,  // measure 14
1000
0010
0200
0000
0301
1000
0020
0000
,  // measure 15
0130
0001
2000
0000
3100
0010
0001
0001
,  // measure 16
0010
0000
0000
0010
0100
0000
0000
0100
1000
0000
0000
1000
0001
0000
0100
0000
,  // measure 17
0020
0000
0000
0000
1000
0000
0100
0130
,  // measure 18
1001
0000
0000
0000
0001
0000
0000
0000
0010
0000
0000
0001
0000
0000
0100
0000
,  // measure 19
0010
2000
3100
0010
0100
0000
1000
0001
,  // measure 20
0010
0001
0100
0000
0010
1000
0001
0000
,  // measure 21
0010
0000
0000
0100
0000
0000
1000
0000
0010
0000
0100
0000
0001
0000
0001
0000
,  // measure 22
1001
0000
0000
0000
0001
0000
0010
0000
0100
0000
0000
0010
0000
0000
0001
0000
,  // measure 23
0100
0000
0010
1000
0001
0000
0010
0100
,  // measure 24
1000
1000
0100
0000
1000
0010
0100
0000
,  // measure 25
0001
0000
1000
0000
0000
0100
0000
0000
0010
0000
0001
0000
0200
0000
0000
0000
,  // measure 26
0310
0000
0000
1000
0000
0000
0010
0000
0100
0000
0000
0001
0000
0000
0010
0000
,  // measure 27
0100
0000
0000
0010
0000
0000
0001
0000
1000
0000
0000
0010
0000
0010
0000
0010
,  // measure 28
0100
0000
0000
0010
0000
0000
1000
0000
0001
0000
0000
0010
0000
0000
0001
0000
,  // measure 29
1000
0000
0000
0100
0000
0000
0010
0000
0100
0000
0010
0000
0001
0000
1000
0000
,  // measure 30
0010
0000
0000
1000
0000
0000
0010
0000
1000
0000
0000
0001
0000
0000
0010
0000
,  // measure 31
0100
0000
0000
0010
0000
0000
0001
0000
0100
0000
0001
0000
1000
0000
0100
0000
,  // measure 32
0010
0000
0000
0001
0010
0000
0000
0010
0100
0000
0000
0100
1000
0000
0020
0000
,  // measure 33
0100
0100
0000
0100
0130
0000
1001
0000
,  // measure 34
0001
0100
0020
0000
0130
1001
1001
0000
,  // measure 35
1000
0000
0000
0001
0010
0000
0001
0000
0100
0000
0010
0000
0100
0000
0001
0000
,  // measure 36
0010
0100
2000
0000
3001
0000
1010
0000
,  // measure 37
1002
0000
0000
0000
1000
0000
0000
0103
0010
0000
0100
0000
0010
0000
0010
0000
,  // measure 38
0100
0001
0020
0000
0130
1001
1001
0000
,  // measure 39
1001
0000
0000
1000
0100
0000
1000
0000
0010
0000
0100
0000
1000
0000
0100
0000
,  // measure 40
0001
1000
0200
0000
0310
0000
1001
0000
,  // measure 41
0001
0010
1000
0010
0001
1000
0001
0010
,  // measure 42
0100
0010
0002
0000
1003
0001
0100
0000
,  // measure 43
0101
0000
0000
0000
1010
0000
0000
0000
0101
0000
0000
1010
0000
0000
1000
0000
,  // measure 44
0001
0000
1000
0100
0000
0000
0000
0000
0010
0000
0001
0100
0000
0000
0000
0000
,  // measure 45
0010
0000
0000
1000
0200
0000
0000
0310
0002
0000
1000
0000
1003
0000
0000
0000
,  // measure 46
0010
0100
0002
0000
0013
1001
1001
0000
,  // measure 47
0001
0000
0000
0001
1000
0000
0010
0000
0100
0000
0001
0000
0020
0000
0000
0000
,  // measure 48
0130
0000
0000
0100
0010
0000
0000
0010
0001
0000
0000
0001
0100
0000
0010
0000
,  // measure 49
2000
0000
0000
0000
,  // measure 50
3001
0000
0000
0000
,  // measure 51
0000
0000
0000
0000
,  // measure 52
0000
0000
0000
0000
,  // measure 53
0000
0000
0000
0000
,  // measure 54
1000
0000
0000
1000
0000
0000
1000
0000
0001
0000
0010
0000
0200
0000
0000
0000
,  // measure 55
0010
0020
0000
0000
0000
0300
0130
1000
,  // measure 56
0001
0000
0100
0001
1000
0000
0001
1000
,  // measure 57
0220
0000
0000
0330
,  // measure 58
0001
1000
0100
1000
,  // measure 59
0010
0000
0100
0000
0001
0010
0200
0000
,  // measure 60
0310
0001
0010
1000
,  // measure 61
0010
0000
0100
0000
0010
0001
0200
0000
,  // measure 62
0310
0100
0010
0100
0001
1000
0001
1000
,  // measure 63
0001
0010
0001
0010
0100
1000
0200
0320
,  // measure 64
0032
0103
0020
1030
0200
0310
0002
0103
,  // measure 65
0001
0000
0001
0000
1000
0000
0010
0100
0010
0000
1000
0000
0200
0000
0000
0000
,  // measure 66
0310
0001
0100
0010
0001
0010
0100
0001
,  // measure 67
1000
0100
0010
0100
1000
0010
0100
1000
,  // measure 68
0100
0001
0000
0001
0010
0000
0100
0010
0000
0010
0001
0000
1000
0000
0000
0000
,  // measure 69
0001
1000
0000
1000
0100
0000
0100
0010
0000
2100
0000
0000
3001
0000
0000
0000
,  // measure 70
1001
1000
0010
0100
1000
0100
0010
1000
,  // measure 71
0001
0010
0100
0010
0001
0100
0010
0001
,  // measure 72
0010
1000
0000
1000
0100
0000
0010
0100
0000
0100
1000
0000
0001
0000
0000
0000
,  // measure 73
1000
0001
0000
0001
0010
0000
0100
1000
0001
1000
0001
0000
2001
0000
0000
0000
,  // measure 74
3002
2003
3200
0302
,  // measure 75
0023
2030
3002
1003
,  // measure 76
1000
0010
0000
0010
1000
0000
0001
0010
0000
0001
0100
0000
0010
0000
0000
0000
,  // measure 77
0100
0001
0000
0001
0100
0000
0010
1000
0000
2100
0000
0000
0002
0000
3000
0000
,  // measure 78
0103
1000
0100
0010
1000
0001
0010
1000
,  // measure 79
0010
0100
0010
0001
0100
1000
0100
0010
,  // measure 80
1000
1000
0001
0020
0000
0130
1000
0001
,  // measure 81
2002
0000
0000
3003
,  // measure 82
0101
1100
0101
1100
,  // measure 83
1001
0000
0000
0000
0000
0000
0000
0000
1020
0000
0000
0000
0130
0001
0000
0010
,  // measure 84
0000
0001
0000
1000
0000
0010
0000
0100
0002
0000
0000
2000
0000
0000
0000
0000
,  // measure 85
0000
0000
0000
0000
3003
0000
0000
0000
1000
0010
0000
0100
0000
1000
0000
0100
,  // measure 86
0000
0001
0000
0010
0000
0100
0000
0010
0002
0000
0000
0200
0000
0000
0000
0000
,  // measure 87
0000
0000
0000
0000
0303
0000
0000
0000
1000
0100
0000
0010
0000
0100
0000
1000
,  // measure 88
0000
0010
0000
0100
0000
0001
0000
0010
0200
0000
0000
0020
0000
0000
0000
0000
,  // measure 89
0000
0000
0000
0000
0330
0000
0000
0000
0010
0001
0000
0010
0000
0100
0000
1000
,  // measure 90
0000
0010
0000
0001
0000
0010
0000
0100
0002
0000
0000
2000
0000
0000
0000
0000
,  // measure 91
0000
0000
3003
0000
;

//---------------dance-single - "P.X. Joe"---------------
#NOTES:
     dance-single:
     "P.X. Joe":
     Hard:
     17:
     0,0,0,0,0:
// measure 0
0000
0000
0000
0000
,  // measure 1
0000
0000
0000
0000
,  // measure 2
0000
0000
0000
0000
,  // measure 3
0000
0000
0000
0000
,  // measure 4
0000
0000
0000
0000
,  // measure 5
0000
0000
0000
0000
,  // measure 6
0001
0010
0100
0010
0000
0001
0000
0010
0000
0001
0000
1000
0000
0001
0000
0100
,  // measure 7
0020
0000
0000
2030
0000
0000
3200
0000
0000
0310
0000
0000
0000
0000
0000
0000
,  // measure 8
0001
0010
0001
0100
0000
0010
0000
1000
0000
0010
0000
1000
0001
0000
0100
0000
,  // measure 9
0101
0000
0000
0011
0000
0000
0101
0000
0001
0010
0001
1000
0010
0000
0000
1000
,  // measure 10
0001
1000
0001
0010
0001
0100
1000
0100
,  // measure 11
0001
0000
0000
0001
1000
0000
1000
0000
0100
0000
0001
0000
0100
0000
1000
0000
,  // measure 12
0010
0000
0000
0010
0100
0000
0001
0000
1000
0000
0100
0000
0001
0000
0100
0000
,  // measure 13
1000
0000
0000
1000
0001
0000
0001
0000
0010
0000
1000
0000
0011
0000
0000
0000
,  // measure 14
0010
0001
0010
0001
0010
0000
0001
0000
0001
1000
0001
1000
0001
0000
1000
0000
,  // measure 15
1000
0100
1000
0100
1000
0000
1000
0000
0001
0100
0001
0100
0001
0000
0001
0000
,  // measure 16
0001
0010
0100
1000
0100
0010
0001
0010
0100
0010
0001
1000
0100
0010
0001
2000
,  // measure 17
0002
0000
3000
0003
,  // measure 18
2010
0000
0000
0000
0001
0000
3001
0000
0010
0000
0010
0001
0000
0001
0100
0000
,  // measure 19
0010
0000
2000
0000
3100
0010
0100
1000
0001
0000
1000
0000
0100
0010
0100
1000
,  // measure 20
0001
0100
0001
0100
0020
0000
0100
0000
1030
0100
0000
0100
0010
0000
0001
0000
,  // measure 21
1000
0000
0001
0000
0100
0010
0200
0000
0301
0000
0010
0000
0200
0300
0200
0300
,  // measure 22
1200
0000
0000
0000
0310
0000
0100
0000
1000
0000
0000
0001
0000
0000
0100
0000
,  // measure 23
0101
0000
0000
0000
1000
0010
1000
0000
0001
0010
0001
0000
1000
0001
0100
0001
,  // measure 24
1000
0010
1000
0100
0010
0000
0010
0000
0100
0000
0010
0001
0010
0000
0001
0000
,  // measure 25
0000
0000
1001
0000
0000
0101
0000
0000
1000
0010
1000
0010
0200
0000
0000
0000
,  // measure 26
0301
0000
1000
0100
0000
0000
0010
0000
0001
0000
1000
0100
0000
0000
0010
0000
,  // measure 27
0001
0000
1000
0100
0000
0000
0010
0000
0001
0000
1000
0100
0000
0100
0000
0100
,  // measure 28
0010
0000
0001
0100
0010
0000
0100
0001
1000
0000
1000
0000
0001
0000
0001
0000
,  // measure 29
0001
0000
1000
0010
0000
0010
0000
0100
0010
0000
1000
0000
0001
0010
0200
0000
,  // measure 30
1300
0000
0100
0010
0000
0000
0001
0000
1000
0000
0100
0010
0000
0000
0001
0000
,  // measure 31
1000
0000
0100
0010
0000
0000
0001
0000
1000
0000
0100
0010
0100
0000
0100
0010
,  // measure 32
0100
0010
0001
0000
0010
0100
1000
0000
0100
1000
0010
0100
0001
0010
0100
1000
,  // measure 33
0001
1000
0000
0001
1000
0000
1002
0000
,  // measure 34
0013
1000
0010
0001
0100
0000
0000
0000
0100
0000
2002
3003
2002
0000
3003
0000
,  // measure 35
1010
0000
0000
1000
0010
1000
0100
0000
0000
0010
0000
0000
0100
0000
0000
1000
0000
0000
0010
0000
0000
0100
0000
0000
,  // measure 36
0010
0001
0010
1000
0001
0000
0000
0000
1010
0000
0000
0000
1000
0000
0001
0000
,  // measure 37
0020
0000
0000
0000
0032
0000
0000
1003
0010
1000
0010
1000
0100
0000
0100
0010
,  // measure 38
0100
0001
0100
1000
0001
0000
0000
0000
0100
0000
2002
3003
2002
0000
3003
0000
,  // measure 39
0001
0000
0000
0010
0001
0010
0100
0000
0000
0010
0000
0000
0001
0000
0000
1000
0000
0000
0020
0000
0000
0000
0000
0000
,  // measure 40
0130
1000
0100
0001
1000
0000
0000
0000
1001
0000
0000
0000
0001
1000
0001
1000
,  // measure 41
0010
1000
0000
1000
0001
0000
0010
0000
0100
0010
0100
0010
0100
0010
0100
0010
,  // measure 42
0100
0001
0100
1000
0001
0000
0000
0000
1000
0010
1000
0010
1000
0000
0001
0000
,  // measure 43
1001
0001
1000
0000
1001
0001
1000
0000
1001
0000
0010
0100
0000
0100
0010
0000
,  // measure 44
1001
1000
0100
0010
0000
0000
0000
0000
1001
1000
0100
0010
0000
0000
0000
0000
,  // measure 45
1002
0000
0000
0013
0002
0000
0000
0103
0010
0100
0010
0000
1000
0000
1000
0001
,  // measure 46
1000
0100
0001
0100
0010
0000
0000
0000
0100
0000
2002
3003
2002
0000
3003
0000
,  // measure 47
1000
0000
0000
0000
0000
0000
0010
0000
0100
0000
0010
0000
1000
0000
0000
0000
0000
0000
0001
0000
0000
0000
0000
0000
0010
0000
0000
0100
0000
0000
1000
0000
0000
0000
0000
0000
0001
0000
0000
1000
0000
0000
0001
0000
0000
0000
0000
0000
,  // measure 48
0001
0100
0010
1000
0001
0100
0010
1000
0001
0100
0010
1000
0001
0100
0010
1000
,  // measure 49
0200
0000
0000
0300
,  // measure 50
1001
0000
0000
0000
,  // measure 51
0000
0000
0000
0000
,  // measure 52
0000
0000
0000
0000
,  // measure 53
0000
0000
0000
0000
,  // measure 54
2000
0000
0000
3001
0000
0000
0100
0000
0200
0000
0320
0000
2030
0000
0000
0000
,  // measure 55
3001
0020
0000
0000
0000
0000
0130
0100
,  // measure 56
0100
0000
0000
0000
1000
0000
0000
1000
0001
1000
0000
0000
0001
0000
1000
0000
,  // measure 57
0040
0400
0000
0000
0000
0000
0000
0000
0000
0000
0000
0000
0330
0000
0000
0000
,  // measure 58
1001
0000
0000
1000
0001
0000
0000
0001
1000
0000
0000
1000
0100
0000
0010
0000
,  // measure 59
0001
0000
0000
0001
1000
0000
0000
1000
0001
0000
0010
0000
0400
0000
0300
0000
,  // measure 60
0010
0000
0000
0001
1000
0000
0000
1000
0001
0000
0100
0000
0001
0000
0010
0000
,  // measure 61
0100
0000
0000
1000
0001
0000
0000
0001
1000
0100
1000
0000
0100
0000
0010
0000
,  // measure 62
0100
1000
0100
1000
0001
1000
0001
1000
0010
1000
0010
1000
0010
0100
0010
0100
,  // measure 63
0001
0100
0001
0100
0001
0010
0001
0010
0100
1000
0100
1000
0020
0000
0000
0000
,  // measure 64
0130
0010
0100
0001
0100
0001
0010
0001
1000
0100
1000
0001
0010
0001
0010
0100
,  // measure 65
1000
0000
0000
0000
0020
0030
0000
0000
0020
0030
0000
0000
0001
0000
1000
0000
1010
0000
0000
0000
0101
0000
0000
0000
1002
0000
0000
0000
0000
0000
0000
0000
,  // measure 66
0013
0001
0100
0000
0010
1000
0001
0000
1000
0100
0010
0100
1000
0001
0100
0001
,  // measure 67
0010
0000
0100
1000
0010
0100
0001
0010
0100
0010
0001
0100
0010
1000
0100
0010
,  // measure 68
0100
1000
0100
1000
0100
0000
0100
1000
0000
1000
0010
0000
0010
1000
0100
0010
,  // measure 69
0001
1000
0000
1000
0001
0000
0001
0010
0000
0110
0000
0000
2001
0000
0000
0000
,  // measure 70
3001
0100
0010
0000
0100
0001
1000
0000
0001
0010
0100
0010
0001
1000
0010
1000
,  // measure 71
0100
0000
0010
0001
0100
0010
1000
0100
0010
0100
1000
0010
0100
0001
0010
0100
,  // measure 72
1000
0010
0000
0010
1000
0000
1000
0001
0000
0001
0100
0000
0001
0010
0100
1000
,  // measure 73
0001
0100
0000
0100
0001
0000
1000
0100
0000
1100
0000
0000
0011
0000
0000
0000
,  // measure 74
0004
4000
0000
0000
0000
0000
0000
0000
,  // measure 75
0000
0000
0000
3003
,  // measure 76
0001
0100
0010
0100
0001
0000
0010
0001
0000
0010
0100
0000
0010
0001
0100
0001
,  // measure 77
1000
0100
0010
0100
1000
0000
0010
0100
0000
0010
1000
0000
0100
0010
0100
1000
,  // measure 78
0001
0000
0010
0000
0001
0000
0100
0000
0010
0000
1000
0000
0100
0010
0001
1000
,  // measure 79
0010
0100
1000
0100
0010
1000
0001
0010
,  // measure 80
0200
0000
1300
0000
0020
0000
0200
0000
0030
0000
0310
0000
1000
0010
1000
0010
,  // measure 81
2000
0000
0000
3010
0000
0000
0200
0000
0000
0301
0000
0000
1000
0000
0001
0000
1000
0000
1001
0000
0000
0000
0000
0000
,  // measure 82
0001
0010
0100
0020
0130
1000
0010
2000
3001
0100
0010
0100
0001
1000
0010
1000
,  // measure 83
0001
0010
0001
1000
0100
0010
0001
0000
1000
0020
0000
0000
0130
0001
0000
0010
,  // measure 84
0000
0100
0000
0010
0000
0001
0000
1000
0010
0000
0000
0102
0000
0000
0000
0000
,  // measure 85
0100
0000
0000
0000
0013
0000
0000
0000
0001
0010
0001
1000
0000
1000
0000
0100
,  // measure 86
0000
0010
0000
0100
0000
1000
0000
0001
1000
0000
0000
0021
0000
0000
0000
0000
,  // measure 87
0031
1000
0001
0000
1000
0100
1000
0100
0010
0001
0100
0001
0000
1000
0000
0100
,  // measure 88
0000
1000
0000
0010
0000
0100
0000
0001
0010
0000
0000
0200
0000
0000
0000
0000
,  // measure 89
0000
0000
0000
0000
0300
0000
0000
0000
1000
0010
1000
0100
0000
0010
0000
0100
,  // measure 90
0000
1000
0000
0010
0000
0100
0000
0010
2000
0000
0000
0002
0000
0000
0000
0000
,  // measure 91
0000
0000
3003
0000
;
