#TITLE:Apollo;
#SUBTITLE:;
#ARTIST:T.J.hangneil;
#TITLETRANSLIT:;
#SUBTITLETRANSLIT:;
#ARTISTTRANSLIT:;
#GENRE:;
#CREDIT:;
#MUSIC:Apollo.ogg;
#BANNER:;
#BACKGROUND:;
#CDTITLE:;
#SAMPLESTART:84.703;
#SAMPLELENGTH:14.024;
#SELECTABLE:YES;
#OFFSET:0.820;
#BPMS:0.000=274.000000
,228.000=210.000000
,284.000=220.000000
,298.000=230.000000
,305.000=240.000000
,312.000=499.999969
,340.000=260.000000
,341.000=130.000000
,342.000=65.000000
,342.500=43.500000
,343.000=274.000000
,567.000=66.730003
,568.000=240.000000
,582.000=249.999985
,596.000=270.000000
,603.000=285.000000
,610.000=300.000000
,617.000=315.000000
,624.000=39.375000
;
#STOPS:;
#JACKET:;
#DISCIMAGE:;
#CDIMAGE:;
#TAGS:;
#PREVIEWVID:;
#BGCHANGES:4.000=0718.mp4=1.000=0=0=1,
99999.000=-nosongbg-=1.000=0=0=0=StretchNoLoop====
;
#FGCHANGES:;

//--------------- dance-single - Pandemonium X ----------------
#NOTES:
     dance-single:
     Pandemonium X:
     Beginner:
     9:
     0,0,0,0,0:
0000
0000
0000
0000
,
0000
0000
0000
0000
,
0000
0000
0000
0000
,
0000
0000
0000
0000
,
0000
0000
0000
0000
,
0000
0000
0000
0000
,
0000
0000
0000
0000
,
0000
0000
0000
0000
,
0000
0000
0000
0000
,
0001
0000
0000
0000
,
1000
0000
0000
0000
,
0001
0000
1000
0000
,
0010
0000
0100
0000
,
0001
0000
0000
0000
,
0010
0000
0000
0000
,
0100
0000
0100
0000
,
0010
0100
0010
0000
,
0100
0100
0000
0000
,
1000
0001
1000
0000
,
0001
0000
0100
0000
,
0010
0000
1000
0000
,
0001
0001
0000
0000
,
0010
0100
0010
0000
,
0100
0000
1000
0000
,
0020
0000
0000
0000
,
0130
0000
0010
0000
,
1000
0001
1000
0000
,
0001
0000
0000
1000
,
0000
0000
0001
0000
,
0100
0000
0001
0000
,
0010
0100
0010
0000
,
0100
0000
0100
0000
,
1000
1000
1000
0000
,
0001
0000
1000
0000
,
0010
0100
0010
0000
,
0100
0000
0000
0001
,
0000
0000
0010
0000
,
0100
0000
1000
0000
,
0001
1000
0001
0000
,
1000
0000
0001
0000
,
0200
0000
0000
0000
,
0310
0000
1000
0000
,
0200
0000
0000
0000
,
0310
0000
0001
0000
,
0200
0000
0000
0000
,
0310
0000
1000
0000
,
0002
0000
0000
0003
,
2002
0000
0000
3003
,
0220
0000
0000
0330
,
0001
0000
0100
0000
,
0020
0000
0000
0000
,
0130
0000
0001
0000
,
2000
0000
0000
0000
,
3200
0000
0000
0000
,
0320
0000
0000
0000
,
0032
0000
0000
0000
,
2003
0000
0000
0000
,
3000
0000
0000
0000
,
0000
0000
0000
0000
,
0000
0000
0000
0000
,
0000
0000
0001
0000
,
1000
0000
0001
0000
,
0100
0000
0010
0000
,
0100
0000
0001
0000
,
1000
1000
0000
0001
,
0001
0000
0100
0010
,
0010
0000
0100
0100
,
0000
0001
1000
1000
,
0000
0100
0100
0000
,
0010
0001
0001
0000
,
1000
1000
0000
0001
,
1000
0000
0000
0001
,
0000
0000
1000
0100
,
0000
0000
0010
0000
,
0000
0001
0010
0000
,
0000
0100
0000
0000
,
1000
0010
0000
0000
,
0100
0000
0000
0001
,
1000
0000
0000
0000
,
0000
0000
0000
0000
,
0000
0000
0000
0000
,
0000
0000
0000
0000
,
0000
0000
0000
0000
,
0000
0000
0000
0000
,
0000
0000
0000
0000
,
0000
0000
0000
0001
,
0001
0000
0000
1000
,
0010
1000
0000
0000
,
0000
0010
0000
0100
,
0000
0001
0000
1000
,
1000
0000
0000
0001
,
0010
0001
0000
0200
,
0000
0000
0000
0000
,
0000
0000
0000
0310
,
0000
1000
0000
0001
,
0010
0001
0000
1000
,
0000
0100
0000
0010
,
0000
0100
0000
1000
,
0000
0001
0000
0100
,
0010
0100
0000
0010
,
0000
0010
0000
0010
,
0100
0010
0000
0100
,
0000
0001
0000
1000
,
0100
1000
0000
0100
,
0000
0010
0000
0001
,
0000
0100
0000
0010
,
0000
1000
0000
0001
,
0100
0001
0000
2002
,
0000
0000
3003
0220
,
0000
0000
0330
1000
,
0000
1000
0000
1000
,
0000
1000
0000
0001
,
0000
0100
0000
0010
,
0000
1000
0000
0001
,
0000
0001
0000
0001
,
0000
0001
0000
1000
,
0000
0100
0000
0010
,
0000
0001
0000
0100
,
0000
0100
0000
0100
,
0000
0100
0000
0001
,
0000
1000
0000
0100
,
0000
1000
0000
0010
,
0000
0010
0000
0010
,
0000
0010
0000
0100
,
0000
0010
0000
1000
,
0000
0001
0000
1000
,
0000
0100
0000
0010
,
0000
0001
0100
0020
,
0000
0000
0000
0130
,
0000
0001
0000
1000
,
0100
1000
0000
0001
,
0100
0001
0000
2000
,
0000
3001
0000
0002
,
0000
0103
0000
0001
,
0000
1000
0000
0100
,
0000
0010
0100
1000
,
0000
0100
0000
0010
,
0000
0001
0100
0010
,
0100
0010
0100
0001
,
1000
0001
1000
0001
,
0100
0001
0100
0010
,
1000
0010
0100
0000
,
0001
1000
0000
1000
,
0100
0000
0010
0100
,
1000
0000
0100
0010
,
0000
0001
0100
0010
,
0000
0100
0001
0000
,
1000
0001
1000
0000
,
0100
0010
0000
0100
,
1000
0000
0000
0001
,
0000
0000
0100
0010
,
0000
0000
0100
0000
,
0000
0001
1000
0000
,
0000
0100
0000
0000
,
0010
0001
0000
0000
,
0100
0000
0000
0010
,
0200
0000
0000
0000
,
0300
0000
0000
0000
;

//--------------- dance-single - Pandemonium X ----------------
#NOTES:
     dance-single:
     Pandemonium X:
     Easy:
     13:
     0,0,0,0,0,0,0,0,0,0,0,0,0,0,0,0,0,0,0,0,0,0,0,0,0,0,0,0:
0000
0000
0000
0000
,
0000
0000
0000
0000
,
0000
0000
0000
0000
,
0000
0000
0000
0000
,
0000
0000
0000
0000
,
0000
0000
0000
0000
,
0000
0000
0000
0000
,
0000
0000
0000
0000
,
0000
0000
0000
0000
,
0001
0100
0001
1000
,
0100
2000
3010
2000
,
3001
0010
0001
0100
,
0020
1030
0100
0020
,
0031
0100
0001
1000
,
0100
2000
3010
2000
,
3001
0000
0000
0001
0000
0000
0001
0000
,
1000
0100
0001
0100
,
2000
3020
0130
0002
,
0023
0230
2300
0000
,
3001
0100
0101
0001
,
1001
1000
1100
0100
,
0020
0230
1300
0200
,
0320
0032
2003
0000
,
3100
0000
0000
0100
0000
0000
0100
0000
,
1000
1000
1000
1000
,
0002
0023
0031
0200
,
0320
2030
3200
0310
,
0100
0100
1000
0010
,
0010
0100
0001
0001
,
2000
3020
0130
0002
,
2003
3200
0320
0130
,
1000
0000
0000
1000
0000
0000
1000
0000
,
0100
0010
0100
1000
,
0020
0230
0301
2000
,
3200
0320
0032
1003
,
0001
0001
1000
0010
,
0010
1000
0100
0100
,
2000
3200
0310
0002
,
0023
0230
0320
0031
,
0100
0000
0000
0100
0000
0000
0100
0000
,
0010
0010
0010
0010
,
1000
0000
0000
0010
0000
0000
0100
0000
,
0001
0010
0100
1000
,
0100
0000
0000
1000
0000
0000
0010
0000
,
0100
0001
1000
0100
,
0010
0000
0000
0100
0000
0000
1000
0000
,
0001
0010
0100
1000
,
2200
0000
0000
3300
,
0022
0000
0000
0033
,
0001
0000
0000
1000
0000
0000
0010
0000
,
1000
0100
1000
0010
,
0100
0000
0001
0000
0000
1000
0000
0000
,
0100
0000
0000
1000
0000
0000
0001
0000
,
0100
0100
0010
0010
,
1000
1000
0001
0001
,
1000
0100
0010
0001
,
1000
0100
0010
0001
,
0000
0000
0000
0000
,
0000
0000
0000
0000
,
0000
0000
0000
0000
,
0000
0000
0000
0000
1000
0001
0100
0000
,
0010
1000
0001
0010
0000
0100
0010
0000
,
0001
0000
0010
0001
0100
0000
0010
1000
,
0001
0010
0000
0100
0010
0000
0001
0000
,
1000
0100
0010
0001
0000
0010
0100
1000
,
0100
0010
0000
0100
1000
0001
1000
0100
,
0010
0001
0000
0010
0100
1000
0100
0010
,
0000
0001
0011
0000
0001
0010
0100
1000
,
0000
0100
0010
0001
0010
0100
0000
0010
,
0001
1000
0001
0010
0100
1000
0000
0100
,
0010
0001
0010
0100
0000
1000
1100
0000
,
1000
0100
0010
0001
0000
0010
0100
1000
,
0100
0010
0000
0100
1000
0001
1000
0100
,
0010
0001
0000
0010
0100
1000
0100
0010
,
0000
0001
0011
0000
0001
0010
0100
1000
,
0000
0100
0010
0001
0010
0100
0000
0010
,
0001
1000
0001
0010
0100
1000
0000
0100
,
0010
0001
0010
0100
0000
1000
0100
0010
,
0002
0000
0000
0000
,
0000
0000
0000
0000
,
0000
0000
0000
0000
,
0000
0000
0000
0000
,
0000
0000
0000
0000
,
0000
0000
0000
0000
,
0000
0000
0000
0000
,
0003
0000
0000
2000
,
3200
0300
2000
3020
,
0230
0302
0000
0003
,
0000
1001
0000
0101
,
0000
0011
0000
0020
,
0230
0300
0010
0001
,
2000
0002
3003
1000
,
0100
0000
0010
0000
0001
0000
0400
0040
,
0000
0000
0330
1000
,
0000
0100
0000
0000
0010
0000
0100
0000
,
0000
1000
0000
0000
0001
0000
0100
0001
,
0010
0000
0000
0100
0000
0000
0010
0000
,
0000
0001
0000
0000
1000
0000
0001
0000
,
0000
0100
0000
0000
0001
0000
0010
0000
,
0000
0100
0000
0000
0010
0000
0011
0000
,
0000
0011
0000
0000
0011
0000
0001
0010
,
0001
1000
0010
1000
,
0000
0100
0000
0000
1000
0000
0010
0000
,
0000
0100
0000
0000
0001
0000
1000
0100
,
1000
0000
0000
0100
0000
0000
0010
0000
,
0000
0100
0000
0000
1000
0000
0001
0000
,
0000
0100
0000
0000
0001
0000
1000
0000
,
0000
0100
0000
0000
0010
0000
0220
0000
,
0000
0000
0330
2002
,
0000
0000
3003
1000
,
0100
1000
0100
0010
,
0001
0010
0001
0100
,
1000
0100
0001
0100
,
1000
0100
0001
0100
,
0001
0100
0001
1000
,
0010
1000
0010
0001
,
0010
1000
0010
0001
,
0010
0100
0001
0010
,
0001
0010
0001
1000
,
0100
1000
0100
1000
,
0100
0001
0100
1000
,
0010
0001
0010
0100
,
0001
0100
0001
1000
,
0010
1000
0010
1000
,
0010
0001
0010
0100
,
0001
1000
0001
2000
,
0000
3200
0000
0000
0320
0000
0000
0230
,
0000
0000
2300
0000
3001
0100
0020
0000
,
0000
0000
0000
0230
,
2300
3200
0302
2003
,
3200
0320
0230
2300
,
3002
0023
0230
0320
,
0000
0032
0000
0000
2003
0000
0000
3001
,
0100
0010
1000
0100
,
0000
0010
0000
0000
0001
0000
0000
0100
,
0000
0010
0100
0001
,
0000
1000
0000
0000
0100
0000
0000
0010
,
0000
0100
1000
0001
,
0100
0010
1000
0001
,
0100
0010
1000
0001
,
0010
0100
1000
0001
,
0010
0000
0001
1000
0001
1000
0000
0000
,
0100
1000
0010
0100
,
0001
0010
0100
0110
,
0010
0001
0100
0010
,
1000
0100
0110
0010
,
0001
0100
0010
1000
,
0100
0110
0010
0001
,
0100
0010
1000
0100
,
0110
0100
1000
0010
,
0100
0001
0010
0110
,
0100
1000
0010
0100
,
0001
1000
1001
0001
,
0100
0010
1000
0001
,
0100
0101
0001
0100
,
0010
1000
0001
1000
,
0200
0000
0000
0000
,
0300
0000
0000
0000
;

//--------------- dance-single - Pandemonium X ----------------
#NOTES:
     dance-single:
     Pandemonium X:
     Medium:
     16:
     0,0,0,0,0,0,0,0,0,0,0,0,0,0,0,0,0,0,0,0,0,0,0,0,0,0,0,0:
0000
0000
0000
0000
,
0000
0000
0000
0000
,
0000
0000
0000
0000
,
0000
0000
0000
0000
,
0000
0000
0000
0000
,
0000
0000
0000
0000
,
0000
0000
0000
0000
,
0000
0000
0000
0000
,
0000
0000
0000
0000
,
0001
0100
0010
1000
,
0001
0000
0010
0001
0010
0000
0010
0100
,
0010
0100
1100
1000
,
1010
0010
0110
0100
,
0001
0000
0100
0000
0010
0000
1000
0100
,
1000
0000
0100
0010
0100
0000
1000
0000
,
0001
0000
0100
0001
0000
0001
0010
0000
,
0010
0100
1000
0000
1100
0000
1000
0010
,
0100
0000
0001
0000
0100
0000
0010
0100
,
0001
0000
1000
0100
0020
0000
0000
0000
,
0130
1000
1010
0010
,
0110
0100
0101
0001
,
1000
0000
0001
0000
0100
0000
0010
0100
,
0001
0000
1000
0001
2000
0000
0000
0000
,
3001
1000
0100
0010
,
0001
1000
0001
1000
0001
1000
0001
1000
,
0001
1000
0010
1000
,
0001
0010
0001
1000
,
0001
0100
0010
1000
0000
0000
0001
0100
,
0010
1000
0000
0000
0001
0100
0010
1000
,
0001
0010
0001
1000
,
0010
1000
0001
1000
,
0001
0000
1000
0100
0000
0010
0001
0000
,
1000
0100
0010
0000
0011
0000
0010
0100
,
1000
0010
1000
0001
,
0010
0001
1000
0001
,
1000
0100
0010
0001
0000
0000
1000
0100
,
0010
0001
0000
0000
1000
0100
0010
0001
,
0010
0001
0100
0010
,
1000
0001
0010
0001
,
1000
0000
0001
0100
0000
0010
1000
0000
,
0001
0010
0001
0010
0100
1000
0100
1000
,
0001
0000
0000
0101
0000
0000
0011
0000
,
0010
0100
0010
0001
0010
0100
1000
0001
,
1000
0000
0000
1010
0000
0000
1100
0000
,
0100
0010
0001
1000
0010
0100
0001
1000
,
0001
0000
0000
0011
0000
0000
0101
0000
,
0001
0100
0010
1000
0001
0010
0100
1000
,
0040
0400
0000
0000
0000
0000
0330
0000
,
0004
4000
0000
0000
0000
0000
3003
0000
,
0110
0000
0000
1001
0000
0000
0101
0000
,
0001
0100
0010
1000
0001
0010
0100
1000
,
0001
1000
0100
0000
0000
0110
0000
0000
,
1000
0100
0010
0001
1000
0010
0100
0001
,
0100
0010
0100
0010
0100
0010
0100
0010
,
1000
0001
1000
0001
1000
0001
1000
0001
,
1000
0100
1000
0100
1000
0100
1000
0100
,
0010
0001
0010
0001
0010
0001
0010
0001
,
0000
0000
0000
0000
,
0000
0000
0000
0000
,
0000
0000
0000
0000
,
0000
0000
0000
0000
1000
1000
1100
0000
,
0001
0100
0100
0110
0000
0010
1000
1000
,
1001
0001
0001
0001
0011
0000
0010
0100
,
0010
0110
0000
0100
1000
0001
0001
1001
,
1000
0010
0100
0001
0000
1000
0100
1000
,
0010
0000
0100
0000
0000
0000
0010
0000
0100
0001
1000
0000
0100
0000
0010
0000
,
0001
1000
0000
0100
1000
0001
0100
0001
,
0000
0000
1000
0000
0100
0010
0001
0000
1000
0000
0001
0000
0100
0000
0001
0000
,
0000
1000
0100
0010
0100
1000
0000
0001
,
1000
0001
0100
0000
0010
0000
1000
0000
0100
0000
0010
0000
0000
0000
0100
0000
,
1000
0000
0001
0000
0100
0000
0010
0000
0000
0000
1000
0000
0001
1000
0001
1000
,
0001
0000
0010
0000
0100
1000
0100
0000
0000
0000
0010
0000
0001
1000
0001
0000
,
0100
0000
0010
0000
0000
0100
0010
0000
0100
0000
0001
0000
1000
0000
0100
0000
,
0010
0001
0010
0000
0000
0000
0100
0000
1000
0001
1000
0000
0010
0000
0100
0000
,
0000
0010
0100
0000
0010
0000
1000
0000
0001
0000
0010
0000
0001
0000
0100
0000
,
0001
0000
1000
0000
0100
0000
1000
0000
0100
0000
0010
0000
0001
1000
0001
0000
,
1000
0001
0010
0100
1000
0001
0100
0001
,
0010
0000
0001
0000
0010
0000
0100
0000
1000
0100
1000
0000
0001
0000
1000
0000
,
2002
0000
0000
0000
,
0000
0000
0000
0000
,
0000
0000
0000
0000
,
0000
0000
0000
0000
,
0000
0000
0000
0000
,
0000
0000
0000
0000
,
0000
0000
0000
0000
,
3003
0000
0000
0001
,
0100
0000
0010
0000
1000
0100
0020
0000
,
0130
0010
0002
0000
0013
0100
1000
0000
,
0100
0110
0010
0011
,
0001
0000
1001
0000
1000
0000
0010
0100
,
0010
0100
0010
0100
0010
0100
0001
1000
,
0001
1000
0001
1000
0001
1000
0001
0010
,
0100
0000
0000
0010
0000
0000
0001
0000
0000
1000
0000
0000
0010
0000
0000
0100
0000
0000
0004
0000
4000
0000
0000
0000
,
0000
0000
3003
0002
,
0013
0200
0000
1300
0020
0000
0230
0000
,
0301
0020
0000
0130
2000
0000
3010
0100
,
2000
0000
3100
0002
0000
0013
2000
0000
,
3010
0200
0000
0310
0002
0000
0023
0000
,
0130
0020
0000
0031
0200
0000
0320
0000
,
1030
0200
0000
0310
0002
0000
1003
0000
,
0100
0001
0000
0100
1000
0000
0010
0001
,
0010
0000
0110
0000
0001
1000
0002
0000
,
0103
0020
0000
1030
0200
0000
0302
0000
,
0103
2000
0000
3010
0002
0000
0013
0100
,
0002
0000
0013
0200
0000
0301
0200
0000
,
1300
0020
0000
0130
0002
0000
2003
0000
,
3010
0200
0000
0301
0020
0000
2030
0000
,
3010
0002
0000
0103
2000
0000
3004
0400
,
0000
0000
0000
0000
0303
0000
0040
4000
,
0000
0000
3030
0001
,
1000
0100
0000
0010
0001
0000
1000
0100
,
0000
0010
0001
0000
1000
0001
0010
0001
,
1000
0010
0100
0000
0010
1000
0001
0100
,
0001
0000
1000
0100
1000
0001
0100
0000
,
0001
1000
0000
0100
1000
0000
0001
0010
,
0000
0100
1000
0000
0001
0000
0100
0001
,
1000
0000
0100
0010
0100
1000
0001
0000
,
0010
0100
1000
0100
0010
0001
1000
0000
,
0100
0001
0000
0100
1000
0000
0100
0001
,
0000
0100
1000
0000
0010
0000
0100
1000
,
0100
0001
1000
0000
0001
0010
1000
0010
,
0001
0000
1000
0100
0010
0001
1000
0000
,
0001
0010
0000
1000
0010
0000
0001
0010
,
0000
1000
0010
0000
0100
0010
0001
1000
,
0010
0000
0100
0010
1000
0001
0010
0000
,
0100
0010
0001
1000
0010
1000
0002
0000
,
0000
0203
0000
0000
0320
0000
0000
2030
,
0000
0000
0000
3200
0000
0000
0310
0000
0001
2000
0000
0000
,
0000
0000
0000
0000
0000
0000
3001
0010
,
0001
1000
0010
1000
0001
0010
0001
1000
,
0010
0001
0010
0100
0001
0010
1000
0010
,
0001
0100
0010
1000
0001
1000
0200
0000
,
0000
2300
0000
0000
3002
0000
0000
0103
,
0010
1000
0001
0010
0100
1000
0001
0100
,
0010
1000
0001
0010
0001
1000
0100
0010
,
0100
1000
0001
0000
1001
0000
1000
0010
,
0100
0001
1000
0100
1000
0001
0010
0100
,
0010
0001
1000
0000
1001
0000
0001
0100
,
0001
0100
0001
0100
0001
0100
0010
0100
,
0010
0100
0010
0100
0010
0100
0010
1000
,
0010
1000
0010
1000
0010
1000
0001
0100
,
0001
1000
0001
0010
0001
1000
0000
0000
,
0001
0100
0010
1000
0000
0001
0010
0100
,
0010
0001
0000
0010
0100
1000
0001
0100
,
0001
1000
0000
0100
1000
0001
0100
0001
,
0000
1000
0100
1000
0001
1000
0100
0010
,
0000
0100
1000
0001
1000
0010
0000
0100
,
0001
1000
0100
0010
0100
1000
0000
0100
,
0010
0001
1000
0010
0000
0100
0001
1000
,
0010
1000
0001
0010
0000
0100
0010
0001
,
1000
0010
0000
1000
0001
0010
0100
0010
,
0001
1000
0000
0100
0010
0100
1000
0001
,
0000
0100
0001
1000
0100
0010
0001
1000
,
0000
0001
1000
0100
0010
0001
0000
1000
,
0001
0010
0100
1000
0001
0100
0000
0010
,
0100
0001
1000
0100
0010
0001
1000
0002
,
2000
0000
0000
0000
,
3003
0000
0000
0000
;

//--------------- dance-single - Pandemonium X ----------------
#NOTES:
     dance-single:
     Pandemonium X:
     Hard:
     18:
     1.034501,1.278632,0.210391,0.298619,0.397027,1067,1036,31,44,0,0,0,0,0,1.034501,1.278632,0.210391,0.298619,0.397027,1067,1036,31,44,0,0,0,0,0:
0000
0000
0000
0000
,
0000
0000
0000
0000
,
0000
0000
0000
0000
,
0000
0000
0000
0000
,
0000
0000
0000
0000
,
0000
0000
0000
0000
,
0000
0000
0000
0000
,
0000
0000
0000
0000
,
0000
0000
0000
0000
,
0001
0100
0010
1000
0010
0100
0010
1000
,
0001
0000
1000
0100
0001
0000
0100
1000
,
0010
0100
0001
1000
0200
1300
0001
1000
,
0020
0130
0001
0010
0200
0310
0001
1000
,
0002
0103
0001
0010
0100
0010
0001
1000
,
0001
0000
1000
0010
0001
0000
0010
0100
,
0001
0000
1000
0100
0000
0001
0100
0000
,
1000
0100
0010
0000
0011
0000
0010
0100
,
1000
0001
0100
0001
1000
0001
1000
0100
,
0010
0000
0001
0010
2000
0000
3010
0001
,
0100
0010
1000
0001
0020
0031
0010
0100
,
0020
0031
0100
0010
2000
3010
0100
0001
,
0200
0310
0100
0001
0010
0001
1000
0100
,
0010
0000
0001
0010
2000
0000
3010
0001
,
1000
0000
0010
0100
0000
0001
1000
0000
,
0100
0001
0100
1000
0100
0001
0100
1000
,
0010
1000
0001
0010
0001
1000
0010
1000
,
0001
1000
0100
1000
0001
1000
0001
0000
,
1000
0100
0010
0001
0000
0000
1000
0100
,
0010
0001
0000
0000
1000
0100
0010
0001
,
1000
0001
1000
0100
1000
0001
0100
0001
,
1000
0001
0100
0010
1000
0000
1001
0000
,
0001
0000
0100
0010
0000
1000
0100
0010
,
1000
0010
0001
0000
1100
0000
0100
0010
,
0001
1000
0010
1000
0001
0010
0100
0010
,
0001
1000
0010
0100
0001
0000
1001
0000
,
0001
0010
0100
1000
0000
0000
0001
0010
,
0100
1000
0000
0000
0001
0010
0100
1000
,
0001
0100
0001
1000
0001
1000
0010
1000
,
0001
0010
0100
1000
0020
0000
0000
0000
,
1030
0000
0001
0010
0000
0100
0010
0000
,
0001
0010
1000
0010
0001
0010
1000
0010
,
0011
0000
0000
1100
0000
0000
1010
0000
,
0010
0100
0001
1000
0100
1000
0001
1000
,
0010
0100
0020
0000
0000
0032
0000
0000
,
0023
0000
0000
2030
0000
0000
3020
0000
,
0130
0000
0000
1001
0000
0000
0011
0000
,
0010
0100
0010
0001
0010
0001
0010
0001
,
1000
0010
1000
0010
1000
0010
1000
0010
1000
0010
0000
0000
,
0100
0001
0100
0001
0100
0001
0100
0001
0100
0001
0000
0000
,
1001
0000
0000
0011
0000
0000
0101
0000
,
0001
0100
0010
1000
0001
0010
0100
1000
,
0001
0010
0200
0000
0000
2300
0000
0000
,
3200
0000
0000
0302
0000
0000
0203
0000
,
1300
0010
1000
0010
1000
0010
1000
0010
,
0100
0001
0100
0001
0100
0001
0100
0001
,
1000
0001
1000
0001
1000
0001
1000
0001
,
0010
0100
0010
0100
0010
0100
0010
0100
,
0000
0000
0000
0000
,
0000
0000
0000
0000
,
0000
0000
0000
0000
,
0000
0000
0000
0000
0000
0000
0000
0000
1000
0000
0010
0000
0100
0000
0010
1000
,
0010
1000
0100
0000
0010
0000
0001
0000
1000
0001
1000
0001
1000
0010
0100
0000
,
0001
0000
0010
0000
0100
0000
0010
0000
0001
0000
0100
0010
0100
0010
0100
0000
,
0001
0000
1000
0000
0100
0010
0100
0010
0100
0000
0010
0000
0001
1000
0001
0000
,
1000
0100
1000
0000
0001
0000
0100
0000
0000
0000
0010
0000
0100
0001
0100
0000
,
0001
0000
1000
0000
0000
0000
0100
0000
0010
0001
1000
0000
0001
0010
0001
0000
,
1000
0000
0010
0000
0000
0000
0100
0000
0010
1000
0010
0000
1000
0000
0001
0000
,
0000
0000
0010
0000
1001
0000
0000
0000
0001
0000
1000
0000
0100
0010
0100
0000
,
0000
0000
0010
0000
0001
0000
1000
0000
0010
1000
0010
0000
0000
0000
0100
0000
,
0010
1000
0001
0000
1000
0000
0001
0000
0010
0100
0010
0000
0000
0000
0100
0000
,
1000
0000
0001
0000
0100
0001
0100
0000
0000
0000
0010
0000
0100
0001
1000
0000
,
0001
0000
0010
0000
0100
0000
1000
0001
1000
0001
1000
0000
0001
0000
0100
0000
,
0010
0000
1000
0000
0001
1000
0001
0000
1000
0000
0001
0000
1000
0000
0100
0000
,
0010
0000
0001
1000
0001
1000
0001
0000
1000
0000
0010
0000
0100
0000
0001
0000
,
0010
0001
0010
0000
0001
1000
0001
1000
0100
0000
0010
0000
0001
1000
0001
1000
,
0001
0000
1000
0000
0010
0000
0100
0000
0001
0000
0010
0001
0010
0000
0001
0000
,
1000
0000
0001
0000
0010
0000
0100
0000
1000
0001
1000
0001
1000
0000
0001
0000
,
0100
0000
0010
0000
1000
0000
0100
0010
0100
0000
1000
0001
1000
0001
1000
0001
,
2000
0000
0000
0000
,
0000
0000
0000
0000
,
0000
0000
0000
0000
,
0000
0000
0002
0000
,
0000
0000
0000
0000
,
0000
0000
0000
0000
,
0000
0000
0000
0000
,
3003
0000
0000
0001
,
0100
0000
0010
0000
1000
0001
0010
0000
,
0100
0010
0001
0000
0010
0100
1000
0001
,
0100
0010
2000
3000
0000
0000
0002
0003
,
0000
0000
0020
0030
0000
0000
0200
1300
,
0001
1000
0001
1000
0001
1000
0001
1000
,
0001
0000
0000
1000
0000
0000
0001
0000
0000
1000
0000
0000
0001
0000
0000
1000
0000
0000
0100
0000
0010
0000
0001
0000
,
0100
0000
0000
0010
0000
0000
0100
0000
0010
0000
1000
0000
0001
0000
0000
1000
0000
0000
0002
0000
0023
0000
0230
0000
,
2300
0000
3200
0000
0320
0000
0032
0000
0023
0000
0230
0000
2300
0000
3200
0000
0320
0000
0031
0000
0000
0100
0000
0000
,
0001
0100
1000
0100
1000
0100
0001
1000
,
0001
1000
0010
0100
0001
0000
1000
0010
,
1000
0010
0001
0010
0001
0010
1000
0001
,
1000
0001
0100
0010
1000
0000
0001
0010
,
0001
0010
1000
0010
1000
0010
0001
0010
,
0100
1000
0100
0010
0001
0000
1000
0000
,
0001
0100
0000
0010
1000
0000
1000
0001
,
0010
0000
0110
0000
0100
1000
0001
0100
,
0010
1000
0001
0010
0100
1000
0001
1000
,
0100
0010
0001
0000
1001
0000
1000
0010
,
0100
0001
1000
0100
0010
0001
1000
0001
,
0010
0100
1000
0000
1001
0000
0001
0100
,
0010
0001
0010
0100
0001
0010
0100
1000
,
0100
0000
0000
0010
0000
0000
1000
0000
0000
0010
0000
0000
0001
0000
0000
1000
0000
0000
0001
0000
0100
0000
0001
0000
,
0100
0001
0100
0001
0100
0001
0100
0000
0000
0010
1000
0010
,
1000
0010
1000
0010
1000
0010
1000
0010
1000
0010
0000
0000
,
0100
0101
0000
0001
0011
0000
0010
1000
,
0010
0000
0011
0000
0010
0100
1000
0100
,
0001
0100
1000
0001
1000
0010
0001
0010
,
1000
0001
1000
0100
0001
0100
1000
0000
,
1000
1010
0000
0010
0110
0000
0100
0010
,
1000
0000
1010
0000
1000
0001
0100
1000
,
0100
0001
0100
1000
0100
0001
0100
1000
,
0100
0001
1000
0100
0001
0100
1000
0000
,
0001
0011
0000
1000
1010
0000
0010
0100
,
0101
0000
1001
0000
1000
0001
0010
1000
,
0010
0001
1000
0001
0010
1000
0010
0001
,
1000
0001
0010
1000
0010
0001
1000
0000
,
0001
0101
0000
1000
1100
0000
1000
0001
,
1000
0000
0110
0000
0001
1000
0100
0001
,
0100
1000
0100
0001
0100
1000
0010
0001
,
0010
1000
0100
0001
0100
2000
0200
0000
,
3300
0022
0000
0033
2200
0000
3300
0202
,
0000
0000
0000
0303
0000
0000
2020
0000
0000
0030
0000
0000
3001
0000
0010
0000
0100
0000
2000
0000
0000
0000
0000
0000
,
0000
0000
0000
0000
0000
0000
0000
0000
0000
0000
0000
0000
3001
0000
0000
0100
0000
0000
0010
0000
0100
0000
0001
0000
,
1000
0000
0000
0100
0000
0000
0010
0000
0001
0000
1000
0000
0001
0000
0000
1000
0000
0000
0001
0000
0100
0000
0001
0000
,
0100
0000
0000
0010
0000
0000
1000
0000
0010
0000
1000
0000
0010
0000
0000
0100
0000
0000
0001
0000
1000
0000
0001
0000
,
1000
0000
0000
0100
0000
0000
0010
0000
0001
0000
0010
0000
0001
0000
0000
1000
0000
0000
0200
0000
0000
0000
0000
0000
,
0000
0000
0000
0320
0000
0000
0000
0000
0000
0000
0000
0000
0032
0000
0000
0000
0000
0000
0000
0000
0013
0000
0100
0000
,
1000
0000
0001
0000
1000
0000
0001
0000
0000
1000
0000
0000
0100
0000
0000
0010
0000
0000
0001
0000
0000
1000
0000
0000
,
0010
0100
0001
1000
0100
1000
0001
1000
,
0100
0010
0220
0330
2002
3000
1003
0001
,
0100
0010
1000
0100
0010
0001
1000
0001
,
0010
0100
0220
0330
2002
0003
3001
0100
,
0001
0100
0001
0100
0001
0100
0010
1000
,
0010
1000
0010
1000
0010
1000
0001
0001
,
1000
1000
0001
0001
1000
1000
0001
0010
,
1000
0010
0001
0100
1000
0100
0000
0000
,
0001
0000
1000
0000
0100
0010
0001
0000
0010
0000
0100
0000
1000
0000
0001
0000
,
0100
0001
1000
0000
0001
0000
1000
0000
0001
0000
1000
0000
0100
0000
0010
0000
,
0100
1000
0001
0000
0010
0000
0001
0000
1000
0000
0100
0010
0001
0000
1000
0000
,
0001
0000
1000
0000
0001
1000
0001
1000
0001
0000
1000
0000
0100
0010
0001
0000
,
0010
0000
0100
0000
1000
0000
0001
0000
0100
0001
1000
0000
0001
0000
1000
0000
,
0001
0000
1000
0000
0100
0000
0010
0000
0100
1000
0001
0000
0010
0000
0001
0000
,
1000
0000
0100
0010
0001
0000
1000
0000
0001
0000
1000
0000
1001
0000
0000
0000
,
0001
0000
0100
0000
0010
1000
0010
0000
1000
0000
0001
0000
0010
0000
0001
0010
,
0001
0010
0100
1000
0001
1000
0001
0100
,
0010
1000
0010
0000
0100
0000
0001
0000
1000
0000
0100
1000
0100
0000
0010
0000
,
0001
0000
1000
0001
1000
0001
1000
0001
1000
0000
0010
0000
0100
0000
0001
0000
,
1000
0000
0100
0000
1000
0000
0100
0000
0010
0000
0001
0000
1000
0010
1000
0010
,
0100
0010
0100
0001
1000
0000
0100
0000
0010
0000
0001
0000
1000
0000
0010
0000
,
1000
0000
0010
0000
0100
0000
0001
0000
1000
0100
1000
0100
0010
0100
0010
0001
,
2000
0000
0000
0000
,
3000
0000
0000
0000
;

//--------------- dance-single - The Final Frontier ----------------
#NOTES:
     dance-single:
     The Final Frontier:
     Challenge:
     19:
     0,0,0,0,0,0,0,0,0,0,0,0,0,0,0,0,0,0,0,0,0,0,0,0,0,0,0,0:
0000
0000
0000
0000
,
0000
0000
0000
0000
,
0000
0000
0000
0000
,
0000
0000
0000
0000
,
0000
0000
0000
0000
,
0000
0000
0000
0000
,
0000
0000
0000
0000
,
0000
0000
0000
0000
,
0000
0000
0000
0000
,
0001
0100
0010
1000
0001
0010
0001
1000
,
0020
0000
0000
0130
0001
1000
0200
0000
0000
0310
0001
1000
,
0001
0000
0010
0000
0001
0000
0010
0000
0000
0100
0000
0000
2000
0000
0000
3010
0000
0000
0100
0000
0000
0001
0000
0000
,
0020
0000
0100
0030
1000
0000
0001
0000
0000
0100
0000
0000
0020
0000
0000
1030
0000
0000
0001
0000
1000
0000
0100
0000
,
0020
0031
0100
0001
1000
0010
0100
0001
,
2000
0000
0000
0000
0000
0000
3100
0000
1000
0000
0001
0000
0200
0000
0000
0000
0000
0000
0310
0000
1000
0000
0001
0000
,
1000
0000
0000
0000
1000
0000
0020
0030
0000
0000
0020
0030
0001
0000
0000
0000
,
1000
0000
0000
0000
0000
0000
0001
0000
0000
0000
0000
0000
0200
0000
0000
0300
0000
0000
0000
0000
0000
0000
0000
0000
0200
0000
0000
0300
0000
0000
0000
0000
0000
0000
0000
0000
1000
0000
0000
0000
0100
0000
0000
0000
0010
0000
0000
0000
,
0001
1000
0100
0010
0100
1000
0001
1000
,
0200
0000
0000
0310
0001
1000
0020
0000
0000
0130
0001
1000
,
0100
0000
0010
0000
0100
0000
0010
0000
0000
0001
0000
0000
2000
0000
0000
3001
0000
0000
1000
0000
0000
0010
0000
0000
,
0200
0000
0001
0300
1000
0000
0010
0000
0000
0100
0000
0000
0002
0000
0000
1003
0000
0000
0100
0000
0010
0000
0001
0000
,
2000
3010
0100
0001
1000
0100
0010
0001
,
2000
0000
0000
0000
0000
0000
3010
0000
0100
0000
0001
0000
2000
0000
0000
0000
0000
0000
3100
0000
1000
0000
0001
0000
,
1000
0000
0000
0000
1000
0000
0020
0030
0000
0000
0020
0030
0001
0000
0000
0000
,
0100
1000
0100
0001
0100
1000
0100
0001
,
1000
0100
1000
0100
0010
0001
0010
0001
,
0100
0010
0100
0010
1000
0001
1000
0001
,
1000
0100
0001
0100
0000
0000
0100
0001
,
0100
1000
0000
0000
1000
0100
0001
0100
,
0010
0001
0010
0001
1000
0100
1000
0100
,
0010
0100
0010
0100
1000
0100
0010
0001
,
1000
0000
0000
0000
0001
0000
0020
0030
0000
0000
0020
0030
1000
0000
0000
0000
,
0001
0000
1000
0000
0200
0300
0000
0000
0200
0300
0000
0000
0001
0000
1000
0000
,
0100
0010
0100
0010
0001
0010
0001
0010
,
0100
1000
0100
1000
0010
1000
0010
1000
,
0010
0001
0010
1000
0000
0000
1000
0010
,
0001
0010
0000
0000
0100
1000
0100
0001
,
1000
0100
1000
0100
0010
0001
0010
0001
,
0100
0010
0100
0010
1000
0001
1000
0001
,
1000
0000
0000
0000
0001
0000
0020
0030
0000
0000
0020
0030
1000
0000
0000
0000
,
0001
0010
1000
0010
0001
0100
1000
0100
,
0002
0000
0000
0023
0000
0000
0230
0000
,
0002
0300
0000
0203
0000
0000
2300
0000
,
3010
0100
0002
0000
0003
2000
0000
0000
,
3200
0000
0000
0320
0000
0000
0032
0000
,
2003
0000
0000
3020
0000
0000
0032
0000
,
0023
0230
0302
0000
,
1003
0010
0100
0001
1000
0010
0100
0001
1000
0010
0100
0001
,
1000
0100
0010
0001
1000
0100
0010
0001
1000
0100
0010
0001
,
1000
0000
0001
0011
0000
1000
1100
0000
,
0100
0010
0001
0010
0100
1000
0001
0100
,
0101
0000
0001
1001
0000
1000
1100
0000
,
0001
1000
0100
1000
0001
0100
0010
1000
,
0001
0001
1000
1000
0010
0010
0100
0100
,
0001
0001
1000
1000
0001
0001
1000
1000
,
0001
0001
0001
0001
0001
0001
0001
0001
,
1000
1000
1000
1000
1000
1000
1000
1000
,
0000
0000
0000
0000
,
0000
0000
0000
0000
,
0000
0000
0000
0000
,
0000
0000
0000
0000
0000
0000
0000
0000
0001
0000
1000
0000
1100
0000
0100
0010
,
0100
1000
0001
0000
1000
0000
1001
0000
0001
0100
0001
1000
0100
0000
0100
0000
,
0010
0000
0001
0010
0100
0000
1000
0000
1100
0000
1000
0001
1000
0001
0100
0000
,
0010
0000
0110
0000
0100
0001
0100
0001
1000
0000
1001
0000
0001
1000
0001
0000
,
1001
0000
0001
0000
0010
0100
1000
0000
0100
0000
0010
0000
0001
0000
1000
0001
,
0010
0000
0100
0000
1000
0000
1000
0001
0100
0000
0010
0000
1000
0000
0001
0000
,
0010
0100
1000
0000
0100
0000
0010
0000
0001
0000
1000
0001
0010
0000
0100
0000
,
1000
0001
1000
0001
0100
0001
0100
0001
1000
0000
0100
0000
0010
0001
1000
0000
,
0100
0000
0010
0000
0001
1000
0010
0000
0100
0000
0001
0000
1000
0000
0001
1000
,
0001
0000
1000
0000
0100
0000
0010
0000
0100
1000
0001
0000
0100
0000
0001
0000
,
1000
0000
0001
0100
0010
0000
0100
0000
0001
1000
0001
1000
0001
1000
0100
0010
,
0001
0000
0010
0000
0001
0000
1000
0000
0010
0100
0001
1000
0100
0000
0010
0000
,
0100
0000
1000
0000
0100
0010
0001
1000
0010
0000
0100
0000
0101
0000
0001
0000
,
1000
0000
0100
0000
0010
0001
1000
0001
1000
0000
0100
0000
0010
0000
0100
0000
,
1000
0001
1000
0010
0100
0001
1000
0100
0010
0000
0001
0000
1000
0000
0100
0000
,
0010
0100
0010
0001
1000
0000
0010
0000
0100
0000
0010
1000
0010
0100
0010
0000
,
1000
0000
0001
0000
1000
0000
0100
0000
0010
0001
1000
0000
0010
0000
0100
0000
,
0010
0000
0100
0001
1000
0001
1000
0000
0001
0000
0010
0100
0010
0000
0001
0000
,
1000
0001
1000
0001
1000
0001
1000
0001
,
1000
0001
1000
0001
1000
0001
1000
0001
,
1000
0001
1000
0001
1000
0001
1000
0001
,
1000
0001
1000
0001
0100
0010
0100
0010
,
0100
0010
0100
0010
0100
0010
0100
0010
,
0100
0010
0100
0010
0100
0010
0100
0010
,
0100
0010
0100
0010
0100
0010
0100
0010
,
0400
0040
0000
0000
0000
0000
0000
0000
0000
0000
0000
0330
1000
0000
0001
0000
,
0010
0000
0000
0001
0000
0000
0100
0000
0000
0010
0000
0000
1000
0000
0010
0000
1000
0000
0002
0000
0000
0000
0000
0000
,
0103
0000
0010
0000
0100
0000
0002
0000
0000
0000
0000
0000
1003
0000
0010
0000
0100
0000
0010
0000
0000
0100
0000
0000
,
0001
0000
0000
0100
0000
0000
0020
0000
0000
1030
0000
0000
0010
0000
0000
0100
0000
0000
0002
0000
0103
0000
0010
0000
,
1000
0000
0000
0010
0000
0000
0200
0000
0300
0001
0000
0000
1000
0000
0100
0000
1000
0000
0001
0000
0000
0100
0000
0000
,
0001
0100
0010
1000
0010
1000
0001
0010
,
0001
0000
0000
0010
0000
0000
0100
0000
0000
1000
0000
0000
0010
0000
0000
0100
0000
0000
0001
0000
1000
0000
0100
0000
,
0010
0000
0000
0001
0000
0000
0010
0000
0000
0100
0000
0000
0010
0000
0000
0001
0000
0000
2000
0000
3200
0000
0320
0000
,
0032
0000
2003
0000
3200
0000
0320
0000
0032
0000
2003
0000
3200
0000
0320
0000
0032
0000
1003
0000
0000
0010
0000
0000
,
0100
0001
1000
0100
1000
0001
0100
0001
,
1000
0100
0010
0001
1000
0010
1000
0001
,
0010
0100
1000
0100
0010
0001
1000
0010
,
1000
0001
0010
0001
1000
0100
1000
0001
,
0100
0001
1000
0100
0010
0100
1000
0001
,
0100
0001
1000
0100
1000
0001
1000
0000
,
0001
0000
0020
0030
0000
0000
0020
0030
1000
0000
0000
0000
0001
0000
1000
0000
,
0200
0300
0000
0000
0200
0300
0000
0000
0001
0000
1000
0000
0001
0000
0100
0000
,
0010
1000
0001
0010
0100
0010
0001
1000
,
0010
1000
0001
0010
0100
1000
0100
0010
,
0100
1000
0001
0100
0010
1000
0001
0010
,
0100
0010
0001
1000
0010
1000
0001
0010
,
0100
0010
0001
1000
0010
1000
0001
0010
,
0100
0000
0000
1000
0000
0000
0100
0000
0000
0010
0000
0000
0001
0000
0000
1000
0000
0000
0001
0000
0100
0000
0010
0000
,
1000
0001
0100
0010
1000
0001
0100
0010
1000
0001
0010
0001
,
1000
0000
0100
0000
1000
0000
0001
0000
0010
0000
0001
0000
1000
0000
0001
0000
1000
0000
0100
0000
0000
0001
0000
0000
,
0100
1000
0010
0001
0010
1000
0100
0001
,
0100
1000
0010
0001
0010
1000
0001
0010
,
0100
1000
0001
1000
0001
0010
0100
1000
,
0001
1000
0001
0010
0100
1000
0010
0001
,
0010
1000
0100
0001
0100
1000
0010
0001
,
0010
1000
0100
0001
0100
1000
0010
0100
,
0001
1000
0010
0100
0001
1000
0001
0100
,
0010
1000
0001
0010
0100
1000
0001
0010
,
1000
0010
0001
0100
1000
0100
0001
0010
,
1000
0010
0001
0100
1000
0100
0001
0010
,
0100
1000
0001
1000
0001
0010
0100
1000
,
0001
1000
0001
0010
0100
1000
0001
0010
,
1000
0010
0001
0100
1000
0100
0001
0010
,
1000
0010
0001
0100
1000
0100
0001
0010
,
0100
1000
0001
0010
0100
1000
0001
1000
,
0001
0010
0100
1000
0001
0010
0220
0000
,
0330
2200
0000
3300
2020
0000
3030
0202
,
0000
0000
0303
0000
0022
0000
0003
0000
0031
0000
1000
0001
0200
0000
0000
0000
,
0000
0000
0000
0000
0000
0000
0000
0000
0000
0000
0000
0000
0310
0000
1000
0000
0001
0000
0010
0000
0000
0100
0000
0000
,
0010
0000
0000
0001
0000
0000
1000
0000
0000
0100
0000
0000
0010
0000
0000
0001
0000
0000
2000
0000
3020
0000
2030
0000
,
3002
0023
0230
0320
0032
0203
0320
2030
3002
0023
0230
2300
,
3002
2003
3200
0320
0230
2300
3002
0203
0320
2030
0000
0000
,
0000
0000
0000
3002
0000
0000
0000
0000
0000
0000
0000
0000
0023
0000
0000
0000
0000
0000
0000
0000
0130
0000
1000
0000
,
0001
0000
0000
0100
0000
0000
0010
0000
0100
0000
0001
0000
1000
0000
0001
0000
0010
0000
0001
0000
0000
0010
0000
0000
,
0100
0000
0000
1000
0000
0000
0010
0000
0100
0000
0001
0000
1000
0000
0000
0100
0000
0000
1000
0000
0000
0001
0000
0000
,
0100
0000
0001
0000
0100
0000
0001
0000
0010
0000
0001
0000
0010
0000
0100
0000
1000
0000
0001
0000
0000
1000
0000
0000
,
0100
0000
0000
0010
0000
0000
0100
0000
0010
0000
0001
0000
1000
0000
0000
0010
0000
0000
0100
0000
0000
0001
0000
0000
,
1000
0000
0100
0000
1000
0000
0100
0000
0010
0000
0001
0000
1000
0000
0010
0000
0100
0000
0001
0000
0000
0100
0000
0000
,
0010
0000
0000
1000
0000
0000
0001
0000
0010
0000
0001
0000
1000
0000
0000
0010
0000
0000
1000
0000
0000
0001
0000
0000
,
0010
0000
0001
0000
0100
0000
0010
0000
1000
0000
0010
0000
0100
0000
0001
0000
0100
0000
0001
0000
0000
1000
0000
0000
,
0100
0000
0010
0000
0001
0000
1000
0000
0000
0010
0000
0000
0100
0000
0001
0000
1000
0000
0100
0000
0000
0010
0000
0000
,
0100
0000
1000
0000
0001
0000
0100
0000
0000
0001
0000
0000
1001
0000
0000
1001
0000
0000
0000
0000
0000
0000
0000
0000
,
1000
0000
0100
0000
0010
0001
0010
0001
1000
0000
0010
0000
1000
0000
0001
0000
,
0100
0010
0100
0000
0010
1000
0010
1000
0001
0000
0010
0000
0001
0000
1000
0000
,
0100
0010
0100
0000
0010
0000
0001
0000
1000
0000
0010
1000
0010
0000
0100
0000
,
0001
1000
0001
1000
0001
0100
0001
0100
0001
0000
1000
0000
0100
0000
0010
0000
,
0001
0010
0001
0010
0100
0000
0010
0000
0100
0000
1000
0000
0001
0100
0001
0100
,
0001
1000
0001
1000
0100
0000
0010
0000
0001
0010
0001
0000
1000
0000
0010
0000
,
0100
0001
0100
0000
0010
0000
1000
0000
0001
1000
0001
1000
0001
0000
1000
0000
,
0100
0000
0010
0000
0001
0000
1000
0000
0010
1000
0010
0000
1000
0000
0010
0000
,
1000
0000
0001
0000
0010
0100
0010
0000
0100
0000
1000
0000
0001
0000
1000
0000
,
0010
0000
0100
0000
0001
1000
0001
0000
1000
0000
0100
0000
0010
0000
0001
0000
,
1000
0010
1000
0010
1000
0001
1000
0001
1000
0100
1000
0000
0100
0000
0010
0000
,
0001
0000
1000
0001
1000
0000
0010
0000
1000
0000
0001
0000
1000
0010
1000
0000
,
0010
0000
0100
0000
0001
0000
1000
0000
0001
0000
1000
0001
1000
0000
0001
0000
,
1000
0000
0001
0000
1000
0000
0001
1000
0001
1000
0001
1000
0001
1000
0001
1000
,
0020
0000
0000
0000
,
0030
0000
0000
0000
;
