#TITLE:Almagest;
#SUBTITLE:;
#ARTIST:Galdeira;
#MUSIC:Almagest.ogg;
#BANNER:;
#BACKGROUND:;
#LYRICSPATH:;
#CDTITLE:;
#SAMPLESTART:63.568;
#SAMPLELENGTH:21.580;
#OFFSET:-0.197;
#BPMS:0.000000=178.000000;
#STOPS:;
#TIMESIGNATURES:;
#BGCHANGES:;
#FGCHANGES:;
#ATTACKS:;
#SPEEDS:;
#SCROLLS:;

//---------------dance-single - Pandemonium X---------------
#NOTES:
     dance-single:
     Pandemonium X:
     Beginner:
     6:
     0,0,0,0,0:
// measure 0
0000
0000
0000
0000
,  // measure 1
0000
0000
0000
0000
,  // measure 2
0000
0000
0000
0000
,  // measure 3
0000
0000
0000
0000
,  // measure 4
0000
0000
0000
0000
,  // measure 5
0000
0000
0000
0000
,  // measure 6
1001
0000
0001
0000
,  // measure 7
1000
0000
0000
0000
,  // measure 8
0001
0000
1000
0000
,  // measure 9
0100
0000
0000
0000
,  // measure 10
0220
0000
0000
0000
,  // measure 11
0000
0330
1001
0000
,  // measure 12
0001
0000
0000
0000
,  // measure 13
1000
0000
0000
0000
,  // measure 14
0010
0000
0000
0000
,  // measure 15
1000
0000
0100
0000
,  // measure 16
0110
0000
0000
0000
,  // measure 17
0010
0000
0000
0000
,  // measure 18
0001
0000
0000
0000
,  // measure 19
0101
0000
0000
0000
,  // measure 20
1001
0000
0000
0000
,  // measure 21
0100
0000
0000
0000
,  // measure 22
1000
0000
0000
0000
0000
0000
0000
1010
,  // measure 23
0000
0000
0000
0010
,  // measure 24
1001
0000
0000
0000
,  // measure 25
0011
0000
0000
0000
,  // measure 26
1100
0000
0110
0000
,  // measure 27
0011
0000
0000
0000
,  // measure 28
0200
0000
0000
0300
,  // measure 29
0001
0001
0000
0000
0000
0000
0000
0000
,  // measure 30
0000
0000
0000
0000
,  // measure 31
1000
1000
0000
0000
0000
0000
0000
0000
,  // measure 32
0000
0000
0010
0010
,  // measure 33
0100
0100
0000
0000
0000
0000
0000
0000
,  // measure 34
0002
0000
1003
0000
,  // measure 35
0100
0100
0010
0000
,  // measure 36
0002
0000
0003
0000
,  // measure 37
1000
1000
0000
0000
0001
0000
0000
0000
,  // measure 38
1000
0000
0010
0000
,  // measure 39
0100
0100
0000
0000
0010
0000
0000
0000
,  // measure 40
1000
0000
0001
1000
,  // measure 41
0010
0010
0000
0000
0100
0000
0000
0000
,  // measure 42
0010
0000
1000
0000
,  // measure 43
1001
0000
0110
0000
,  // measure 44
1001
1001
0110
0110
,  // measure 45
1000
1000
0002
0203
,  // measure 46
0320
0000
0000
0030
,  // measure 47
2000
0000
0000
3000
,  // measure 48
0200
0000
0000
0300
,  // measure 49
0020
0000
0000
0030
,  // measure 50
0200
0300
0020
0030
,  // measure 51
0200
0000
0000
0300
,  // measure 52
2000
0000
0000
3000
,  // measure 53
0020
0000
0000
0030
,  // measure 54
0100
0100
0000
0100
0000
0000
0000
0000
,  // measure 55
0120
0000
0000
0030
,  // measure 56
2000
0000
0000
3000
,  // measure 57
0002
0000
0000
0000
0000
0000
0003
1000
,  // measure 58
0000
1000
0000
1000
0000
0000
0002
0000
,  // measure 59
0023
0000
0000
0030
,  // measure 60
0200
0000
0000
0300
,  // measure 61
2000
0000
0000
3000
,  // measure 62
2002
0000
0000
3003
,  // measure 63
1001
0000
0001
0000
,  // measure 64
0100
0000
0010
1000
,  // measure 65
1000
1000
0000
0001
,  // measure 66
0000
1000
0000
0100
,  // measure 67
1000
0000
0010
0000
,  // measure 68
0100
0000
0001
0000
,  // measure 69
1000
0000
0001
0000
,  // measure 70
0010
0000
0100
0000
,  // measure 71
1001
0000
0000
0000
;

//---------------dance-single - Pandemonium X---------------
#NOTES:
     dance-single:
     Pandemonium X:
     Easy:
     10:
     0,0,0,0,0:
// measure 0
0000
0000
0000
0000
,  // measure 1
0000
0000
0000
0000
,  // measure 2
0000
0000
0000
0000
,  // measure 3
0000
0000
0000
0000
,  // measure 4
0000
0000
0000
0000
,  // measure 5
0000
0000
0000
0000
,  // measure 6
0002
0103
0020
1030
,  // measure 7
0002
0203
0320
2030
,  // measure 8
3002
0013
0200
1300
,  // measure 9
0002
2003
3020
0130
,  // measure 10
0102
0013
2100
3010
,  // measure 11
1002
0000
0000
0000
0013
0000
0000
0000
0001
1000
0000
0001
0000
0001
0000
0000
,  // measure 12
1000
0100
1000
0010
,  // measure 13
0100
0001
0010
0100
,  // measure 14
0010
0001
0100
0010
,  // measure 15
0100
0001
0100
1000
,  // measure 16
0100
0001
1000
0010
,  // measure 17
1000
0001
0010
0100
,  // measure 18
0010
0001
0100
0010
,  // measure 19
1000
1000
0000
0001
1000
0000
1001
0000
,  // measure 20
0001
0000
0010
0000
0100
1000
0100
0000
,  // measure 21
1000
0000
0010
0000
0100
0001
0100
0000
,  // measure 22
0001
0000
0010
0000
0100
1000
0100
0010
,  // measure 23
0000
0010
0000
0010
0100
0000
1000
0000
,  // measure 24
0010
0000
0100
0000
0001
0010
0100
0000
,  // measure 25
0010
0000
0001
0000
1000
0100
0010
0000
,  // measure 26
0100
0000
1000
0000
0001
0100
0010
0000
,  // measure 27
0100
0001
1000
0100
,  // measure 28
0022
0000
0000
0033
,  // measure 29
1000
1000
0000
0000
0000
0000
0000
0000
,  // measure 30
0001
0100
0000
0010
0100
0000
1001
0000
,  // measure 31
0001
0001
0000
0000
0000
0000
0000
0000
,  // measure 32
0010
0000
0001
0000
0100
0010
1000
0001
,  // measure 33
0010
0010
0000
0000
0000
0000
0000
0000
,  // measure 34
0100
0010
1100
0100
,  // measure 35
1000
0000
0010
0000
0100
0001
0010
0000
,  // measure 36
2002
0000
0000
3003
,  // measure 37
1000
1000
0010
0000
0100
0000
0001
0000
,  // measure 38
0010
0100
0010
0001
,  // measure 39
0100
0100
0001
0000
0010
0000
0100
0000
,  // measure 40
1100
0000
1100
0000
0100
1000
0010
0100
,  // measure 41
0001
0001
0010
0000
0001
0000
0100
0000
,  // measure 42
0010
0100
0001
1000
,  // measure 43
1002
0013
2001
3010
,  // measure 44
0101
1010
1100
0011
,  // measure 45
0002
0203
0320
2030
,  // measure 46
3200
0000
0000
0300
,  // measure 47
0021
0100
0001
0130
,  // measure 48
2100
0010
0001
3010
,  // measure 49
0102
1000
0100
1003
,  // measure 50
1002
0013
2100
3010
,  // measure 51
0201
0010
0001
0310
,  // measure 52
1020
0100
1000
0130
,  // measure 53
2001
0100
0001
0100
,  // measure 54
0010
3010
0000
0010
0100
0000
1001
0000
,  // measure 55
0201
1000
0010
0301
,  // measure 56
0021
0001
0100
1030
,  // measure 57
0012
0000
0010
0000
0100
0000
1000
1003
,  // measure 58
0000
1000
0000
1000
0001
0000
0100
0000
,  // measure 59
0201
1000
0010
0301
,  // measure 60
0021
1000
0100
0031
,  // measure 61
2001
0010
0001
3100
,  // measure 62
2002
0000
0000
3003
,  // measure 63
1000
0000
0001
0000
,  // measure 64
1000
0000
0010
0110
,  // measure 65
0101
0011
0000
0010
,  // measure 66
0000
0001
0000
1000
,  // measure 67
0001
0100
0001
1000
,  // measure 68
0100
0010
0100
1000
,  // measure 69
0001
0100
0010
1000
,  // measure 70
0001
0010
0100
1000
,  // measure 71
1001
0000
0000
0000
;

//---------------dance-single - Pandemonium X---------------
#NOTES:
     dance-single:
     Pandemonium X:
     Medium:
     15:
     0,0,0,0,0:
// measure 0
0000
0000
0000
0000
,  // measure 1
0000
0000
0000
0000
,  // measure 2
0000
0000
0000
0000
,  // measure 3
0000
0000
0000
0000
,  // measure 4
0000
0000
0000
0000
,  // measure 5
0000
0000
0000
0000
,  // measure 6
0001
1000
0200
0000
0310
0001
0200
0000
,  // measure 7
0310
1000
0100
0010
0001
0100
0010
1000
,  // measure 8
0001
1000
0010
1000
0001
0010
0100
0010
,  // measure 9
0001
0100
0010
1000
0001
0010
0100
1000
,  // measure 10
0001
0100
0001
1000
0010
1000
0100
1000
0100
0010
0001
0010
0001
0100
0001
0100
,  // measure 11
0010
1000
0010
1000
0001
0100
0001
0100
0001
0010
0000
1100
0000
0011
0000
0000
,  // measure 12
1000
0100
1000
0001
0100
0001
0010
0000
,  // measure 13
0001
0010
0001
1000
0010
1000
0100
0000
,  // measure 14
0010
0100
1000
0001
0100
0001
0010
0000
,  // measure 15
0100
0010
0001
0100
0001
0100
1000
0100
,  // measure 16
0010
1000
0100
0010
0100
1000
0001
0000
,  // measure 17
1000
0001
0010
0100
0010
0001
1000
0000
,  // measure 18
0001
1000
0010
1000
0001
0010
0100
1000
,  // measure 19
1100
0000
1100
0000
0000
0000
1001
0000
0001
1000
0001
0000
1000
0000
0001
0000
,  // measure 20
1000
0000
0010
0000
0100
0000
0001
0000
0010
0000
0100
1000
0001
0000
0000
0000
,  // measure 21
0100
0000
0010
0000
1000
0000
0100
0000
0010
0000
0100
0010
0001
0000
0000
0000
,  // measure 22
0010
0001
0100
0010
1000
0001
0010
0011
,  // measure 23
0000
0000
1001
0000
0000
0000
1100
0000
1000
0100
0010
0001
0200
0000
0000
0000
,  // measure 24
0301
0000
0100
0000
0010
0000
1000
0000
0100
0000
0010
0001
1000
0000
0000
0000
,  // measure 25
0010
0000
0100
0000
0001
0000
0010
0000
0100
0000
0010
0100
1000
0000
0000
0000
,  // measure 26
0100
0010
0001
0100
0010
1000
0001
0010
,  // measure 27
0200
0001
0010
1300
,  // measure 28
0001
0100
0001
0100
0001
0100
0010
0100
0010
0100
0010
1000
0010
0000
0000
0000
,  // measure 29
1100
1100
0100
0000
0010
0000
0001
0000
,  // measure 30
0100
0000
0001
0000
0000
0010
0100
0000
0010
0000
0001
0000
1000
0000
0000
0000
,  // measure 31
0101
0101
0001
0000
1000
0000
0100
0000
,  // measure 32
1100
0000
0000
0000
1001
0000
0000
0000
0001
0010
0100
0000
0100
0010
0001
0000
,  // measure 33
0011
0011
0001
0000
0100
0000
0010
0000
,  // measure 34
0100
0000
0010
0100
0001
0000
1000
0000
0200
0300
0000
0010
0100
0000
1000
0000
,  // measure 35
2001
0000
0000
0000
3010
0000
0000
0000
1000
0001
0000
0001
0010
0100
1000
0000
,  // measure 36
0001
1000
0001
2000
0002
0000
0000
0000
0000
0000
0000
0000
3003
0000
0000
0000
,  // measure 37
1001
1001
0001
0010
0100
0010
0001
1000
,  // measure 38
0010
0100
0001
1000
0100
0010
0100
0000
,  // measure 39
0011
0011
0010
0001
0100
0010
1000
0001
,  // measure 40
0010
0100
0010
0001
0100
0010
1000
0100
,  // measure 41
1100
1100
0100
1000
0010
0100
0001
0010
,  // measure 42
0100
0010
0001
0100
0010
1000
0001
0000
,  // measure 43
1001
0000
0010
0100
1001
0000
0100
0010
,  // measure 44
1001
0000
0000
0001
1000
0000
0000
1000
0001
0000
0000
0001
1000
0000
0001
0000
,  // measure 45
0010
0000
0100
0000
0100
0000
0010
0000
0001
0100
0010
1000
0001
1000
0100
0000
,  // measure 46
0020
0000
0000
0000
,  // measure 47
0130
0010
0001
0100
0010
1000
0001
0010
,  // measure 48
0100
0010
0001
0100
0010
0100
0010
1000
,  // measure 49
0001
0010
0001
0100
0010
1000
0010
0100
,  // measure 50
0001
0010
1000
0010
0001
0100
1000
0100
,  // measure 51
0001
0100
0010
1000
0001
0010
0100
0010
,  // measure 52
0001
1000
0100
0010
0100
1000
0001
0100
,  // measure 53
0010
1000
0001
0010
0100
0010
0001
0100
,  // measure 54
0101
0000
0101
0000
0000
0000
1001
0000
1000
0100
1000
0000
0001
0100
0001
0000
,  // measure 55
1001
0001
0100
0010
0001
0010
1000
0010
,  // measure 56
1000
0100
0001
0100
0010
0100
1000
0010
,  // measure 57
0001
0010
0100
1000
0010
1000
0001
0011
,  // measure 58
0000
0000
0110
0000
0000
0000
1001
0000
0001
1000
0001
1000
0020
0000
0000
0000
,  // measure 59
1030
0100
1000
0100
0010
0001
0010
0001
,  // measure 60
0100
1000
0100
0001
0010
0100
0010
0001
,  // measure 61
1000
0010
0001
0010
0100
0001
1000
0100
,  // measure 62
0001
0100
1000
0010
0100
0001
1000
0000
,  // measure 63
0001
1000
0000
1000
0100
0000
0000
0000
0010
0001
0000
0001
0100
0000
0000
0000
,  // measure 64
0010
0100
0000
0001
0100
0000
0001
0000
1000
0100
0000
0010
0100
0000
1000
0000
,  // measure 65
1100
0000
0000
0000
0011
0000
0000
0000
0001
0100
0000
0100
0010
0000
0000
0000
,  // measure 66
0100
0001
0000
0001
1000
0000
0000
0000
0100
0000
0010
0000
0100
0000
1000
0000
,  // measure 67
0001
0000
1000
0000
0010
0000
1000
0000
0001
0010
0001
0000
1000
0100
1000
0000
,  // measure 68
0010
0000
0100
0000
0001
0000
1000
0000
0010
1000
0010
0000
0100
0001
0100
0000
,  // measure 69
0010
0100
0000
0001
0010
0000
0100
0000
0010
0100
0000
1000
0010
0000
1000
0000
,  // measure 70
0001
1000
0000
0100
0010
0000
0001
0000
0010
0000
0100
0000
0010
0001
1000
0001
,  // measure 71
0200
0300
0000
0000
;

//---------------dance-single - Pandemonium X---------------
#NOTES:
     dance-single:
     Pandemonium X:
     Hard:
     17:
     0,0,0,0,0:
// measure 0
0000
0000
0000
0000
,  // measure 1
0000
0000
0000
0000
,  // measure 2
0000
0000
0000
0000
,  // measure 3
0000
0000
0000
0000
,  // measure 4
0000
0000
0000
0000
,  // measure 5
0000
0000
0000
0000
,  // measure 6
0001
0100
0001
0010
0100
0010
0001
1000
,  // measure 7
0100
0010
0100
1000
0001
0010
0100
1000
,  // measure 8
0001
0100
0001
0100
0001
1000
0001
0000
1000
0100
1000
0100
1000
0001
1000
0000
,  // measure 9
0001
0100
0001
0100
0001
1000
0001
1000
0001
0010
0001
0010
0100
1000
0100
0010
,  // measure 10
0001
0100
0010
1000
0001
0010
0100
1000
0001
0100
0010
1000
0001
0010
0100
1000
,  // measure 11
0100
0010
0001
0010
0100
1000
0010
0100
0001
1000
0000
0011
0000
1100
0000
0000
,  // measure 12
0001
0000
1000
0000
0100
0000
1000
0000
0010
0000
0100
0001
1000
0000
0000
0000
,  // measure 13
0001
0000
0010
0000
0100
0000
0010
0000
0001
0000
1000
0010
0100
0000
0000
0000
,  // measure 14
0010
0000
0100
0000
0001
0000
0010
0000
0100
0000
1000
0100
0010
0000
0000
0000
,  // measure 15
0100
0000
1000
0000
0010
0000
0100
0000
0001
0000
0010
0000
0100
0010
0001
1000
,  // measure 16
0010
0000
0100
0000
0001
0000
1000
0000
0100
0000
0010
0100
1000
0000
0000
0000
,  // measure 17
0100
0000
1000
0000
0010
0000
0100
0000
0001
0000
1000
0100
0010
0000
0000
0000
,  // measure 18
0100
0000
0010
0000
0001
0000
0100
0000
0010
0000
0100
0001
1000
0000
0100
0000
,  // measure 19
1100
0000
0011
0000
0000
0000
0101
0000
0001
0100
0001
1000
0100
0010
0001
1000
,  // measure 20
0001
0000
0100
0000
0010
0000
1000
0000
0001
0010
0100
0010
0001
0000
0000
0000
,  // measure 21
0010
0000
0100
0000
0010
0000
0001
0000
1000
0100
0010
0100
1000
0000
0000
0000
,  // measure 22
0100
0000
1000
0000
0010
0000
0100
0000
0001
0100
0010
0100
0001
0000
1001
0000
,  // measure 23
0000
0000
0101
0000
0000
0000
1010
0000
0010
0100
0001
0010
0100
1000
0001
0100
,  // measure 24
0001
0000
0010
0000
0100
0000
1000
0000
0001
0010
0100
1000
0010
0000
0000
0000
,  // measure 25
0100
0000
0010
0000
0100
0000
0001
0000
1000
0100
0010
0001
0100
0000
0000
0000
,  // measure 26
1001
0000
1000
0000
0001
0000
0010
0000
0110
0000
0100
1000
0010
0000
0100
0001
,  // measure 27
0010
0000
0100
0000
0010
0000
0001
0000
0100
1000
0100
0001
1000
0001
0010
0100
,  // measure 28
1000
0100
1000
0100
1000
0100
0010
0100
0010
0100
0010
0001
1000
0000
0000
0000
,  // measure 29
0101
1010
0010
0100
0001
0010
0100
0010
,  // measure 30
0001
0000
1000
0000
0000
0000
0100
1000
0001
0000
0100
0010
1000
0000
0001
0000
,  // measure 31
0011
1100
0100
1000
0010
0100
0001
1000
,  // measure 32
0010
0000
0000
0000
1001
0000
0000
0000
0001
0100
0010
0001
0010
0100
0001
0000
,  // measure 33
1001
1100
0100
1000
0010
0100
0001
0010
,  // measure 34
0100
0010
0001
0100
0010
1000
0001
0010
1000
0000
0000
0000
0010
0001
0100
0010
,  // measure 35
0001
0000
0000
0000
0010
0000
0100
0000
0001
0010
0100
1000
0001
0100
0001
1000
,  // measure 36
0010
0100
0010
0100
0010
1000
0001
1000
0001
0000
0000
0000
1001
0000
0000
0000
,  // measure 37
1100
0011
0001
0100
0010
0100
0001
1000
,  // measure 38
0001
0010
0100
0010
0001
1000
0010
0100
0010
0100
0001
0010
0100
1000
0100
0010
,  // measure 39
0100
1100
1000
0010
0100
0001
0010
0001
,  // measure 40
1000
0010
0100
0001
0010
0001
0010
0001
0010
0100
1000
0100
0010
0100
1000
0001
,  // measure 41
0100
0101
0001
0010
0001
1000
0100
0010
,  // measure 42
0100
1000
0001
0100
0001
1000
0001
0010
0100
0010
0001
0100
0010
1000
0001
0010
,  // measure 43
0100
0000
0000
0000
1000
0100
0010
0001
1000
0000
0000
0000
0001
0010
0100
1000
,  // measure 44
0001
0000
0100
0000
0000
0000
0000
0000
0000
0000
0000
0000
0010
0000
1000
0000
0000
0000
0000
0000
0000
0000
0000
0000
1000
0000
0000
0100
0000
0000
0010
0000
0000
0001
0000
0000
0010
0000
0000
0100
0000
0000
1000
0000
0000
0001
0000
0000
,  // measure 45
0100
0000
0110
0000
1001
0000
1001
0000
0001
0100
0010
1000
0001
0100
0010
1000
,  // measure 46
0200
0000
0000
0000
,  // measure 47
0310
0001
0100
0000
0010
0000
1000
0000
0001
0000
0100
0000
1000
0000
0100
0000
,  // measure 48
0001
0100
0010
0000
0100
0000
0001
0000
0010
0000
1000
0000
0010
0000
0001
0000
,  // measure 49
1000
0001
0100
0000
0010
0000
1000
0000
0100
0000
0010
0000
0100
0000
1000
0000
,  // measure 50
0001
0100
0010
0000
0100
0000
0001
0000
1000
0100
0010
0000
0100
0000
1000
0000
,  // measure 51
0001
0010
0100
0000
0010
0000
0001
0000
0100
0000
1000
0000
0100
0000
0001
0000
,  // measure 52
1000
0100
0010
0000
0100
0000
1000
0000
0001
0000
0010
0000
1000
0000
0010
0000
,  // measure 53
0100
0010
0001
0000
0010
0000
0100
0000
1000
0000
0001
0000
0100
0000
0001
0000
,  // measure 54
0101
1010
0000
0011
0000
1100
0000
1001
,  // measure 55
0001
0000
0100
0000
0010
0000
1000
0000
0001
0100
0001
0000
1000
0010
1000
0000
,  // measure 56
0010
0000
0100
0000
0001
0000
0010
0000
0100
0010
0100
0000
0010
0001
0010
0000
,  // measure 57
0001
0000
0100
0000
0010
0000
1000
0000
0001
0010
0001
0000
1000
0100
1000
0000
,  // measure 58
0000
0000
0011
0000
0000
0000
1100
0000
0001
0100
0010
1000
0001
0000
0000
0000
,  // measure 59
0001
0000
0100
0000
0010
0000
1000
0000
0001
0100
0010
0000
0100
0010
1000
0000
,  // measure 60
0001
0000
0010
0000
0100
0000
0010
0000
0001
0010
0100
0000
0010
0001
1000
0000
,  // measure 61
0001
0000
0100
0000
0010
0000
1000
0000
0001
0010
0100
0000
1000
0100
0010
0000
,  // measure 62
0001
0010
0100
1000
0100
0010
0100
1000
,  // measure 63
0001
0100
0000
0100
0010
0000
0000
0000
0010
0100
0000
0100
0001
0000
0000
0000
,  // measure 64
0001
1000
0000
1000
0010
0000
0100
0000
0001
0100
0000
0000
0011
0000
0000
0000
,  // measure 65
1001
0000
0000
0000
0101
0000
0000
0000
0001
0100
0000
0100
0010
0000
1000
0000
,  // measure 66
0001
0010
0000
0010
0100
0000
1000
0000
0100
0010
0000
0010
0100
0000
1000
0000
,  // measure 67
0001
1000
0100
0000
0010
0000
0100
0000
1000
0001
0010
0000
0100
0000
0010
0000
,  // measure 68
0001
0100
0010
0000
0100
0000
0001
0000
1000
0100
0010
0000
0100
0000
1000
0000
,  // measure 69
0001
0100
0000
0010
1000
0000
0100
0000
0010
0100
0000
1000
0010
0000
0100
0000
,  // measure 70
0001
0010
0100
0000
0010
0100
1000
0000
0100
0010
0001
0100
0010
1000
0001
1000
,  // measure 71
0020
0030
0000
0000
;

//---------------dance-single - Pandemonium X---------------
#NOTES:
     dance-single:
     Pandemonium X:
     Challenge:
     18:
     0,0,0,0,0:
// measure 0
0000
0000
0000
0000
,  // measure 1
0000
0000
0000
0000
,  // measure 2
0000
0000
0000
0000
,  // measure 3
0000
0000
0000
0000
,  // measure 4
0000
0000
0000
0000
,  // measure 5
0000
0000
0000
0000
,  // measure 6
0001
0100
0001
0100
0010
0100
0010
0000
1000
0100
1000
0100
0010
0100
0010
0000
,  // measure 7
0001
0100
0001
0100
0010
1000
0010
1000
0001
0010
0001
1000
0100
1000
0001
1000
,  // measure 8
0001
0100
0001
0010
0100
0010
0100
0000
1000
0100
1000
0010
0100
0010
0100
0000
,  // measure 9
0001
1000
0001
1000
0001
0010
0001
0010
0100
0010
0001
1000
0010
0100
0001
1000
,  // measure 10
0001
0010
0100
1000
0100
0001
0100
1000
0010
0100
0001
1000
0001
0100
1000
0100
,  // measure 11
0001
0010
0100
1000
0001
0010
0100
1000
0001
1000
0000
0110
0000
1001
0000
0000
,  // measure 12
1000
0000
0001
0000
0100
0000
0001
0000
1000
0100
0010
0001
1000
0000
0000
0000
,  // measure 13
1000
0000
0001
0000
0100
0000
0001
0000
1000
0100
0010
0001
1000
0000
0000
0000
,  // measure 14
1000
0000
0001
0000
0100
0000
0001
0000
1000
0100
0010
0001
1000
0000
0000
0000
,  // measure 15
1000
0000
0001
0000
0100
0000
0001
0000
1000
0100
0010
0001
1000
0010
0100
0001
,  // measure 16
1000
0000
0001
0000
0010
0000
0001
0000
1000
0010
0100
0001
1000
0000
0000
0000
,  // measure 17
1000
0000
0001
0000
0010
0000
0001
0000
1000
0010
0100
0001
1000
0000
0000
0000
,  // measure 18
1000
0000
0001
0000
0010
0000
0001
0000
1000
0010
0100
0001
1000
0000
0001
0000
,  // measure 19
1001
0000
1001
0000
0000
0000
1001
0000
0001
0100
0010
1000
0001
0010
0100
0010
,  // measure 20
0001
0010
0100
1000
0001
0100
0010
1000
0001
1000
0100
0010
0100
0000
0000
0000
,  // measure 21
1000
0100
0010
0001
1000
0010
0100
0001
1000
0001
0010
0100
0010
0000
0000
0000
,  // measure 22
0100
0010
0001
0100
0010
1000
0001
0010
0100
1000
0001
0100
0010
0000
1010
0000
,  // measure 23
0000
0000
0011
0000
0000
0000
1001
0000
0001
0100
0010
1000
0001
0010
0100
1000
,  // measure 24
0001
0100
0001
1000
0100
1000
0001
0010
0001
1000
0100
0010
0001
0000
0000
0000
,  // measure 25
1000
0010
1000
0001
0010
0001
1000
0100
1000
0001
0010
0100
1000
0000
0000
0000
,  // measure 26
0101
1010
0010
1000
1100
0011
0001
1000
,  // measure 27
0010
0000
0000
0000
0010
0000
0000
0000
0100
0010
0000
0010
0100
0000
0001
0000
,  // measure 28
1000
0000
0000
0000
0000
0000
0000
0000
0000
0000
0100
0000
0000
0000
0000
0000
0000
0000
0000
1000
0000
0000
0000
0000
0000
0000
0000
0000
0000
0100
0000
0000
0000
0000
0000
0000
0000
0000
1000
0000
0000
0000
0000
0000
0000
0000
0000
0000
0100
0000
0000
0000
0000
0000
0000
0000
0000
0000
1000
0000
0000
0000
0000
0000
0000
0000
0000
0100
0000
0000
0000
0000
0000
0000
0000
0000
0000
1000
0000
0000
0000
0000
0000
0000
0000
0000
0100
0000
0000
0000
0000
0000
0000
0000
0000
0000
0010
0000
0000
0000
0000
0000
0000
0000
0000
0000
0100
0000
0000
0000
0000
0000
0000
0000
0000
0010
0000
0000
0000
0000
0000
0000
0000
0000
0000
0100
0000
0000
0000
0000
0000
0000
0000
0000
0010
0000
0000
0000
0000
0000
0000
0000
0000
0000
0002
0000
0000
0000
0000
0000
0000
0000
0000
0000
0000
0000
0000
0000
0000
0000
0000
0000
0000
0000
0000
0000
0000
0000
0003
0000
0000
0000
0000
0000
0000
0000
0000
0000
0000
0000
0000
0000
0000
0000
0000
0000
0000
0000
0000
0000
0000
0000
,  // measure 29
0011
1100
1000
0010
0100
0001
0010
0100
,  // measure 30
1100
0000
1010
0000
0000
0010
0100
0000
0001
1000
0100
0000
1100
0000
0000
0000
,  // measure 31
1010
0101
0001
0010
0100
0010
0001
1000
,  // measure 32
1010
0000
0000
0000
1001
0000
0000
0000
0002
0023
0230
2300
3002
0003
1000
0000
,  // measure 33
1100
0011
0010
0001
0100
0010
1000
0001
,  // measure 34
1000
0100
1000
0100
0010
0001
0010
0001
0200
0300
0010
0100
1000
0000
0100
0000
,  // measure 35
0001
0000
0000
0000
1001
0000
0000
0000
1000
0100
0010
0001
1000
0100
0010
0001
,  // measure 36
0100
0000
0000
0000
0000
0000
0000
0000
0000
0000
0010
0000
0000
0000
0000
0000
0000
0000
0000
0100
0000
0000
0000
0000
0000
0000
0000
0000
0000
0010
0000
0000
0000
0000
0000
0000
0000
0000
0100
0000
0000
0000
0000
0000
0000
0000
0000
0000
0010
0000
0000
0000
0000
0000
0000
0000
0000
0000
0000
0000
0100
0000
0000
0000
0000
0000
0000
0000
0000
0000
0000
0000
0010
0000
0000
0000
0000
0000
0000
0000
0000
0000
0000
0000
0100
0000
0000
0000
0000
0000
0000
0000
0000
0000
0000
0000
0020
0000
0000
0000
0000
0000
0000
0000
0000
0000
0000
0000
0000
0000
0000
0000
0000
0000
0000
0000
0000
0000
0000
0000
0000
0000
0000
0000
0000
0000
0000
0000
0000
0000
0000
0000
0000
0000
0000
0000
0000
0000
0000
0000
0000
0000
0000
0000
1030
0000
0000
0000
0000
0000
0000
0000
0000
0000
0000
0000
0000
0000
0000
0000
0000
0000
0000
0000
0000
0000
0000
0000
0000
0000
0000
0000
0000
0000
0000
0000
0000
0000
0000
0000
0000
0000
0000
0000
0000
0000
0000
0000
0000
0000
0000
0000
,  // measure 37
0101
0000
0011
0000
0001
0100
0001
0100
0010
1000
0001
1000
0000
1000
0001
1000
,  // measure 38
0100
1000
0100
1000
0010
0100
0010
0100
0001
0010
0001
0010
0100
1000
0100
0010
,  // measure 39
0001
0000
1001
0000
1000
0010
1000
0010
0100
0001
1000
0100
0000
0100
0010
0100
,  // measure 40
1000
0000
0000
0000
0011
0000
0000
0000
0020
0230
2300
3020
0230
0302
2003
3200
,  // measure 41
0310
0000
1001
0000
1000
0001
0010
0001
1000
0001
0100
0001
0000
0001
1000
0001
,  // measure 42
0010
0100
0010
0100
1000
0100
1000
0010
1000
0010
0100
0010
0100
0001
0100
0001
,  // measure 43
1000
0000
0000
0000
0001
0010
0100
1000
0010
0000
0000
0000
0100
0001
1000
0100
,  // measure 44
1000
0000
0001
0000
1000
0000
0001
0000
0000
0000
0000
0000
1000
0000
0001
0000
1000
0000
0001
0000
0000
0000
0000
0000
1000
0000
0000
0010
0000
0000
0100
0000
0000
0001
0000
0000
0010
0000
0000
0100
0000
0000
0010
0000
0000
0001
0000
0000
,  // measure 45
1000
0000
1010
0000
0101
0000
1010
0000
0102
0000
0000
0000
0013
0100
0010
0001
,  // measure 46
2000
0000
0000
3000
,  // measure 47
0001
0000
1000
0000
0001
0000
0100
0000
0010
0100
0001
0010
0100
1000
0100
1000
,  // measure 48
0001
0000
1000
0000
0001
0000
0010
0000
0100
1000
0001
1000
0010
1000
0001
0010
,  // measure 49
0100
0000
0010
0000
0100
0000
1000
0000
0001
0010
0001
0100
0010
1000
0001
1000
,  // measure 50
0010
0100
0001
0000
0010
0000
0100
0000
1000
0100
0010
0000
0100
0000
1000
0000
,  // measure 51
0010
0000
1000
0000
0100
0000
0010
0000
0001
1000
0010
1000
0001
0010
0100
1000
,  // measure 52
0010
0000
0100
0000
0001
0000
1000
0000
0100
1000
0010
1000
0001
1000
0100
0010
,  // measure 53
0001
0000
1000
0000
0010
0000
0100
0000
0010
1000
0001
0010
0100
0010
0001
1000
,  // measure 54
0001
0000
0000
1001
0000
0000
0000
0000
0000
1001
0000
0000
0001
0100
0001
0100
0000
0000
0000
0000
0000
0010
1000
0010
,  // measure 55
1000
0000
0100
0000
0010
0100
0010
0000
0100
1000
0100
0000
1000
0010
0100
0000
,  // measure 56
0001
0010
0100
0000
1000
0001
0010
0000
0100
0010
0001
0000
0010
0100
1000
0000
,  // measure 57
0001
0100
0001
0000
1000
0100
1000
0000
0100
0010
0100
0000
0010
0000
0011
0000
,  // measure 58
0000
0000
1100
0000
0000
0000
0011
0000
0001
1000
0010
0100
2000
0000
0000
0000
,  // measure 59
3100
0010
1000
0000
0010
0100
0001
0000
1000
0010
0100
0000
0001
1000
0100
0000
,  // measure 60
0010
0001
0100
0000
0010
0100
0001
0000
0010
0001
0100
0000
0010
1000
0001
0000
,  // measure 61
0010
0100
1000
0000
0010
0000
0100
0000
0001
0100
0010
0000
1000
0000
0001
0000
,  // measure 62
0010
0100
0010
0001
1000
0010
0100
0001
1000
0100
0010
0001
0010
0100
0010
0001
,  // measure 63
1000
0010
0000
0010
1000
0000
0100
0000
0010
0001
0000
0001
0100
0000
0010
0000
,  // measure 64
1000
0001
0000
0010
0100
0000
0010
0000
0001
0010
0001
0010
0100
0000
1000
0000
,  // measure 65
1001
0000
0001
0000
1001
0000
1000
0000
0001
0010
0000
0010
0001
0000
0100
0000
,  // measure 66
0010
1000
0000
1000
0100
0000
0010
0100
1000
0010
0100
0001
0010
0100
0010
0001
,  // measure 67
1000
0001
1000
0000
0001
0100
0001
0000
1000
0010
1000
0100
0010
0001
0010
0001
,  // measure 68
1000
0001
1000
0000
0001
0010
0001
0000
1000
0100
1000
0010
1000
0001
0010
0100
,  // measure 69
0010
0100
0000
0100
1000
0000
0001
0000
0100
0010
0000
0010
1000
0000
0001
0000
,  // measure 70
0010
0100
0010
0100
1000
0001
1000
0001
1000
0010
0100
0001
1000
0010
0100
0001
,  // measure 71
0020
0030
0000
0000
;
