#TITLE:ANDROMEDA;
#SUBTITLE:;
#ARTIST:Sota Fujimori;
#TITLETRANSLIT:;
#SUBTITLETRANSLIT:;
#ARTISTTRANSLIT:;
#GENRE:;
#CREDIT:;
#MUSIC:ANDROMEDA.ogg;
#BANNER:ANDROMEDA.png;
#BACKGROUND:ANDROMEDA-bg.png;
#CDTITLE:cdtitle.png;
#SAMPLESTART:64.390;
#SAMPLELENGTH:13.608;
#SELECTABLE:YES;
#OFFSET:1.210;
#BPMS:0.000=150.000000;
#STOPS:;
#BGCHANGES:;
#FGCHANGES:;

//--------------- dance-single - Pandemonium X ----------------
#NOTES:
     dance-single:
     Pandemonium X:
     Beginner:
     4:
     0,0,0,0,0:
0000
0000
0000
0000
,
0000
0000
0000
0000
,
0000
0000
0000
0000
,
0000
0000
0000
0000
,
0000
0000
0000
0000
,
0000
0000
0000
0000
,
0000
0000
0000
0000
,
0000
0000
0000
0000
,
0000
0000
0000
0000
,
0001
0000
0000
0000
,
1000
0000
0000
0000
,
0001
0000
0000
0000
,
0100
0000
0000
0000
,
0001
0000
0000
0000
,
1000
0000
0000
0000
,
0001
0000
0000
0000
,
0010
0000
0200
0000
,
1300
0000
0001
0000
,
1000
0000
0001
0000
,
1000
0000
0001
0000
,
1000
0000
0001
0001
,
0100
0000
0010
0000
,
0100
0000
0010
0000
,
0100
0000
0010
0000
,
2000
0000
3000
0001
,
0100
0000
0010
0000
,
1000
0000
0010
0000
,
0100
0000
0001
0000
,
1000
0000
0200
0300
,
0010
0000
0001
0000
,
1000
0000
0100
0000
,
1000
0000
0001
0000
,
0200
0000
0000
0300
,
0010
0000
0000
0000
,
0100
0000
0000
0000
,
0001
0000
0001
0000
,
1000
0000
1000
0000
,
0010
0000
0100
0000
,
0001
0000
1000
0000
,
0100
0000
0000
0000
,
0010
0000
0001
0000
,
1000
0000
0001
0000
,
0100
0000
0001
0000
,
1000
0000
1000
0000
,
0001
0000
0001
0000
,
1000
1000
0001
0001
,
0010
0000
0100
0000
,
1000
0000
0100
0000
,
1000
0000
0010
0100
,
0001
0000
0001
0000
,
1000
0000
1000
0000
,
0010
0000
0010
0000
,
0100
0000
0100
0000
,
0001
0001
1000
1000
,
0100
0000
0010
0000
,
0001
0000
1000
0000
,
0001
0000
0000
0000
,
0100
0000
0010
0000
,
0100
0000
0001
0000
,
1000
0000
0100
0000
,
0010
0000
0001
0000
,
1000
0000
0001
0000
,
0100
0000
0010
0000
,
0100
0000
0001
0000
,
1000
0000
0000
0000
,
0001
0000
1000
0000
,
0100
0000
0010
0000
,
0001
0000
0010
0000
,
0100
0000
1000
0000
,
0001
0000
0100
0000
,
1000
0000
0100
0000
,
0001
0000
1000
0000
,
0100
0000
0001
0100
,
1000
1000
1000
0000
,
0001
0001
0001
0000
,
0100
0100
0100
0000
,
0010
0010
0010
0000
,
1000
0001
0010
0000
,
0001
1000
0010
0000
,
1000
0001
0100
0000
,
0001
1000
0100
0000
,
1001
0000
0000
0000
;

//--------------- dance-single - Pandemonium X ----------------
#NOTES:
     dance-single:
     Pandemonium X:
     Easy:
     7:
     0,0,0,0,0:
0000
0000
0000
0000
,
0000
0000
0000
0000
,
0000
0000
0000
0000
,
0000
0000
0000
0000
,
0000
0000
0000
0000
,
0001
1000
0100
0000
,
1000
0001
0100
0000
,
0001
1000
0010
0000
,
0220
0000
0000
0330
,
0001
1000
0100
0100
,
1000
0001
0100
0100
,
0001
1000
0010
0010
,
1000
0001
0010
0010
,
0100
0010
0001
0001
,
0100
0010
1000
1000
,
0010
0100
0001
0001
,
0011
0000
2000
0000
,
3001
1000
0100
0100
,
1000
0001
0010
0010
,
0001
0100
0010
0010
,
1000
0000
0100
0000
0010
0000
0100
1000
,
0001
1000
0010
0100
,
0001
0010
0001
1000
,
0100
0010
0100
1000
,
0002
0000
0000
0003
,
0100
0001
0010
0001
,
0010
0100
0010
0100
,
1000
0100
1000
0100
,
0010
0000
0100
0000
1000
0000
0001
1000
,
0010
1000
0001
0010
,
0001
1000
0100
1000
,
0001
0100
0001
1000
,
0020
0000
0000
0030
,
0100
0000
0010
0000
,
1000
0000
0001
0000
,
1000
0000
0100
0000
,
1000
0000
0010
0000
,
0100
0001
0100
0010
,
1000
0000
0001
0000
,
0010
0000
0100
0000
,
1100
0000
0002
0000
,
0103
0001
0010
0001
,
1000
0010
0100
0010
,
1000
0100
0010
0001
,
0010
0100
1000
0100
,
1000
0010
1000
0001
,
1000
0100
0010
0001
,
0001
0100
0001
1000
,
0001
0010
0001
1000
,
0100
1000
0010
0100
,
0001
0010
0100
1000
,
0001
1000
0100
1000
,
0001
0100
0001
1000
,
0010
0010
0100
0100
,
0001
0100
0001
1000
,
0100
1000
0010
0100
,
0001
0000
2000
0000
,
3100
0001
0100
1000
,
0001
0100
1000
0100
,
0001
0010
1000
0010
,
0001
0100
1000
0100
,
0010
0001
0010
1000
,
0100
0001
0100
1000
,
0010
0001
0010
1000
,
1001
0000
0000
0001
,
1001
0001
1000
0010
,
1000
0100
1000
0001
,
0100
0001
0010
0100
,
0010
0001
1000
0100
,
1000
1000
0001
0001
,
0100
0001
1000
0010
,
1000
0100
0010
0001
,
1000
0001
0100
0001
,
0010
0100
0010
0001
,
1000
0100
0010
0100
,
1000
0001
0100
0001
,
1000
0100
0010
0100
,
1000
1000
0001
0001
,
0100
0010
1000
0001
,
0010
0001
1000
0100
,
0020
0000
0200
0000
,
0330
0000
0000
0000
;

//--------------- dance-single - Pandemonium X ----------------
#NOTES:
     dance-single:
     Pandemonium X:
     Medium:
     11:
     0,0,0,0,0:
0000
0000
0000
0000
,
0000
0000
0000
0000
,
0000
0000
0000
0000
,
0000
0000
0000
0000
,
0000
0000
0000
0000
,
0001
1000
0100
0000
,
1000
0001
0100
0000
,
0001
1000
0100
0000
,
0022
0000
0000
0000
0000
0000
0033
0000
,
0001
0000
0000
0100
0000
0000
0001
0000
1000
0000
0000
0100
0000
0100
0000
0000
,
0010
0000
0000
0100
0000
0000
1000
0000
0001
0000
0000
0010
0000
0010
0000
0000
,
0001
0000
0000
1000
0000
0000
0010
0000
0100
0000
0000
0001
0000
0001
0000
0000
,
0010
0000
0000
0100
0000
0000
0010
0000
0100
0000
0000
1000
0000
1000
0000
0000
,
0100
0000
0000
1000
0000
0000
0010
0000
0100
0000
0000
0001
0000
1000
0000
0000
,
0001
0000
0000
0010
0000
0000
0100
0000
1000
0000
0000
0001
0000
1000
0000
0000
,
0100
0000
0000
0010
0000
0000
0001
0000
0010
0000
0000
0001
0000
1000
0000
0000
,
1100
0000
0002
0000
,
0103
0001
0010
0000
0100
1000
0010
0000
,
0100
0001
0010
0000
0100
1000
0001
0000
,
1000
0001
0100
0000
0001
1000
0100
0000
,
1000
0001
0100
0000
1000
0100
0001
0000
,
1000
0001
0010
0000
0001
1000
0010
0000
,
1000
0001
0010
0000
0001
1000
0010
0000
,
0100
0001
0010
0000
0100
1000
0010
0000
,
0200
0000
0320
0000
,
1030
0010
0100
0000
0010
0100
0001
0000
,
0010
0100
1000
0000
0100
0010
0001
0000
,
0010
0001
0100
0000
0010
0100
0001
0000
,
1000
0100
0010
0000
1000
0010
0001
0000
,
0100
0010
1000
0000
0010
0100
0001
0000
,
0010
0100
1000
0000
0100
1000
0010
0000
,
0100
0001
1000
0000
0001
0010
0100
0000
,
2200
3300
0000
0000
,
0001
1000
0010
1000
,
0001
0010
0100
1000
,
0100
0000
0000
0100
0000
0000
0100
0000
1000
0000
0000
1000
0000
0000
1000
0000
,
0010
0000
0000
0010
0000
0000
0010
0000
0100
0000
0000
0000
0100
0000
0100
0000
,
0010
0000
0100
0000
0001
0100
0001
0000
,
1000
0000
0001
0000
0010
0100
0010
0000
,
0100
0000
1000
0000
0010
1000
0010
0000
,
0200
0000
0000
0300
,
0001
1000
0010
0000
1000
0000
0001
0000
,
0010
0100
1000
0000
0100
0000
0010
0000
,
0001
0000
0000
1000
0000
0000
0001
0000
0100
0000
0000
0001
0000
0000
0100
0000
,
0010
0000
0000
1000
0000
0000
0010
0000
0100
0000
0000
0000
0001
0000
0000
0000
,
1000
0100
0010
0000
0001
0010
0100
0000
,
0010
0001
0100
0000
0010
0100
0001
0000
,
1000
0001
0100
0000
0001
1000
0100
0000
,
0010
0100
1000
0001
0100
0001
1000
0000
,
0001
1000
0010
0000
1000
0001
0010
0000
,
0100
0010
0001
0000
0010
0100
1000
0000
,
0100
0000
0000
0100
0000
0000
1000
0000
0010
0000
0000
0010
0000
0000
0100
0000
,
0001
0000
0000
0001
0000
0000
1000
0000
0001
0000
0000
0001
0000
0000
0001
0000
,
0010
0100
0000
0000
1000
0000
0000
0000
0001
0100
0000
0000
0010
0000
0000
0000
,
0100
0001
1000
0000
0100
0010
0001
0000
,
0010
0001
0100
0000
0010
0100
0001
0000
,
2000
0000
3002
0000
,
0103
0001
0010
0001
,
1000
0010
1000
0001
,
1000
0100
1000
0001
,
0100
0001
0010
0100
,
2000
3100
0020
0031
,
0001
0010
0100
1000
,
0002
0000
0103
0000
0020
0000
1030
0000
,
1001
0000
0000
0000
0000
0000
0000
0000
0000
0000
0000
0000
0100
0010
0000
0000
,
1001
1000
0001
0000
0001
0100
0001
0000
,
0100
0010
0100
0000
0010
1000
0010
0000
,
1000
0100
1000
0000
0100
0010
0100
0000
,
0010
0001
0010
0000
0001
0100
0001
0000
,
0020
0130
2000
3001
,
0001
0010
0001
0000
1000
0100
1000
0000
,
0100
0010
0100
0000
0010
0001
0010
0000
,
0001
0100
0001
0000
0100
0010
0100
0001
,
1000
0100
0010
0000
0100
1000
0001
0000
,
0100
0001
1000
0000
0100
0010
0001
0000
,
0010
0100
1000
0000
0100
0010
0001
0000
,
0010
0001
0100
0000
0010
0100
0001
0000
,
2000
3100
0020
0031
,
0010
0001
1000
0000
0010
0100
0001
0000
,
1000
0001
0100
0000
0001
1000
0010
0000
,
0200
0000
0000
0000
,
0310
0000
0000
0000
;

//--------------- dance-single - Pandemonium X ----------------
#NOTES:
     dance-single:
     Pandemonium X:
     Hard:
     16:
     0,0,0,0,0:
0000
0000
0000
0000
,
0000
0000
0000
0000
,
0000
0000
0000
0000
,
0000
0000
0000
0000
,
0000
0000
0000
0000
,
0000
1000
0000
0000
0100
0000
0010
0001
1000
0000
0000
0000
0000
0000
0000
0000
,
0000
0001
0000
0000
0100
0000
0010
1000
0001
0000
0000
0000
0000
0000
0000
0000
,
0000
1000
0000
0000
0100
0000
0010
0100
1000
0000
0000
0000
0000
0000
0000
0000
,
0001
1000
0001
1000
0100
0010
0100
0010
0100
1000
0001
1000
0001
0100
0010
1000
,
0001
0000
1000
0010
0000
1000
0001
0000
1000
0000
0010
1000
0000
0001
0000
0000
,
1000
0000
0001
0100
0000
0001
1000
0000
0001
0100
0000
0001
0000
1000
0000
0000
,
0001
0000
1000
0100
0000
0010
0100
0000
1000
0001
0000
0100
0000
0010
0000
0000
,
1000
0000
0001
0010
0000
0100
0010
0000
0001
1000
0000
0010
0000
0100
0000
0000
,
0001
0000
0100
1000
0000
0100
0001
0000
1000
0001
0000
0010
0000
0100
0000
0000
,
1000
0000
0100
0001
0000
0100
1000
0000
0100
0010
0000
0001
0000
0010
0000
0000
,
1000
0000
0010
0001
0000
1000
0100
0000
1000
0010
0000
0001
0000
0010
0000
0000
,
0200
0000
0000
0000
0000
0000
0000
0000
0301
0100
0010
1000
0001
0100
0010
1000
,
0001
0010
0001
0010
0100
0000
0000
0100
1000
0010
1000
0010
0100
0000
0000
0100
,
0010
1000
0010
1000
0100
0000
0000
0100
0010
0001
0010
0001
1000
0000
0000
0001
,
1000
0010
1000
0010
0100
0000
0000
0100
0001
1000
0001
1000
0001
0000
0000
0001
,
0010
0100
0010
0100
0010
0000
0000
0100
1000
0100
0010
0001
0010
0000
0001
0000
,
1000
0010
1000
0010
0100
0000
0000
0100
0001
1000
0001
1000
0100
0000
0000
0100
,
0010
0001
0010
0001
1000
0000
0000
1000
0100
0010
0100
0010
0001
0100
0010
0100
,
0010
1000
0010
1000
0100
0010
0100
1000
0010
0100
0010
0100
0001
1000
0000
1000
,
0001
0000
0100
0000
0010
0001
0000
0010
1000
0100
1000
0100
0010
0001
0010
0001
,
1000
0001
1000
0001
1000
0100
0000
0100
1000
0001
1000
0001
1000
0000
0000
0000
,
0001
1000
0001
1000
0001
0010
0000
0010
0001
1000
0001
1000
0001
0000
0000
0000
,
1000
0001
1000
0001
0100
0001
0000
0100
0001
1000
0001
1000
0100
0000
0010
0000
,
0001
1000
0001
1000
0010
0000
0100
0000
0001
1000
0100
0010
0001
0000
1000
0000
,
0001
0100
0010
0100
0001
0000
1000
0000
0100
0010
0100
1000
0001
0000
1000
0000
,
0001
1000
0100
1000
0001
0000
0100
0000
0001
1000
0010
1000
0001
0100
0010
1000
,
0001
0010
0000
0010
0100
0000
0100
1000
0001
0000
1000
0010
1000
0000
0010
0000
,
0100
0000
0010
1000
0100
0020
0000
0000
0001
0000
0000
0001
0000
0000
0031
0000
,
1000
0010
1010
0000
0001
0010
0011
0000
,
0001
0100
0101
0000
1000
0100
1100
0000
,
0100
0000
0000
0010
0000
0000
0001
1000
0001
0000
0000
0100
0000
0000
0010
1000
,
0010
0000
0000
0100
0000
0000
0001
0000
1000
0100
0000
0000
0010
0000
0001
0000
,
1000
0010
0000
1000
0001
0000
1000
0000
0001
0100
0000
0001
1000
0000
0001
0000
,
1000
0100
0000
0010
0001
0000
1000
0000
0001
0100
0000
0010
1000
0000
0001
0000
,
1000
0000
0001
0000
0000
0000
1000
0100
1000
0100
0010
0100
0010
0001
0010
0001
,
1000
0010
0100
1000
0100
0001
1000
0100
1000
0010
0100
0001
1000
0010
0100
0001
,
1000
0100
1000
0000
1100
0000
0000
0000
0001
0100
0001
0000
0101
0000
0000
0000
,
0001
0010
0001
0000
0011
0000
0000
0000
1000
0010
1000
0000
1010
0000
0000
0000
,
0001
0000
0100
0010
0000
1000
0100
1000
0001
0000
0010
0001
0000
0010
0100
0010
,
0001
0000
0100
0010
0000
0100
0010
1000
0100
0010
0000
0010
0100
0000
0100
1000
,
0001
0100
0000
0100
0010
0000
0100
0000
0010
1000
0000
1000
0100
0000
0010
0000
,
0001
0010
0001
0000
0011
0000
0000
0000
1000
0010
1000
0000
1010
0000
0000
0000
,
0001
0000
0100
0000
0010
0000
1000
0000
0100
0010
0100
0010
0001
1000
0001
1000
,
0001
0100
0000
0000
0110
0000
0000
0000
0010
1000
0000
0000
1100
0000
0000
0100
,
0010
0000
0001
0000
1000
0000
0010
1000
0001
0000
0010
0000
0001
0000
1000
0100
,
0010
0000
0001
0000
0100
0000
0010
1000
0001
0000
1000
0000
0100
0000
0010
0100
,
1000
0000
1000
0001
0000
0001
0100
0010
1000
0000
1000
0010
0000
0010
0100
0001
,
0010
0000
0010
0100
0000
0100
0010
0001
1000
0000
1000
0001
0000
0001
1000
0100
,
0010
0100
0000
0010
0100
0000
1000
0000
0010
0100
0000
0010
0100
0000
0010
0000
,
1000
0001
0000
1000
0001
0000
0010
0000
0001
1000
0000
0001
1000
0000
0100
0000
,
0010
0001
0100
0010
1000
0001
0010
0100
,
2000
0000
0000
0000
0000
0000
0000
0000
3001
0100
0010
1000
0001
0100
0010
1000
,
0001
1000
0100
1000
0001
0100
0001
0100
,
0010
1000
0001
0100
0001
0100
0010
1000
,
0001
0010
0001
1000
0100
1000
0010
1000
,
0010
0100
0001
0100
0001
0100
0010
1000
,
0001
0100
0000
0001
0100
0000
0001
0000
1000
0100
0000
1000
0100
0000
1000
0000
,
0001
0010
0000
0001
0010
0000
0001
0000
1000
0010
0000
1000
0010
0000
0100
0000
,
0010
1000
0100
1000
0001
0010
0100
0010
,
0002
0000
0000
0000
0000
0000
0000
0000
0000
0000
0000
0000
1003
0100
0000
0000
,
1000
0010
1000
0000
0010
0100
0010
0000
0100
0000
1000
0000
0100
0000
0001
0000
,
1000
0001
1000
0000
0001
0010
0001
0000
0010
0000
1000
0000
0010
0000
0001
0000
,
0100
0001
0100
0000
0010
1000
0010
0000
1000
0000
0100
0000
0001
0000
0100
0000
,
1000
0100
1000
0000
0010
1000
0010
0000
0100
0010
0000
1000
0001
0000
0010
0000
,
0100
0010
0000
0010
0001
0000
1000
0000
0010
0100
0000
0100
0001
0000
1000
0000
,
0100
0010
0100
0000
0010
0000
0001
0000
0100
0010
0100
0000
0010
0000
1000
0000
,
0001
0010
0001
0000
0010
0000
0100
0000
1000
0100
1000
0000
0100
0000
1000
0000
,
0001
0000
0100
0000
0010
0000
1000
0000
0001
0000
0100
0000
0001
0000
0000
0001
,
1000
0100
1000
0100
0010
0001
0010
0001
1000
0001
1000
0001
0100
0010
0100
0010
,
0100
0001
0100
0001
1000
0010
1000
0010
0100
0001
0100
0001
1000
0000
0000
0000
,
0001
0010
0001
0010
0100
1000
0100
1000
0001
1000
0001
1000
0010
0100
0010
0100
,
0010
1000
0010
1000
0001
0100
0001
0100
0010
1000
0010
1000
0001
0000
1000
0000
,
0100
0010
0100
0010
0100
0000
1000
0000
0010
0100
0010
0100
0010
0000
0100
0000
,
0001
1000
0001
1000
0001
0000
0100
0000
0010
1000
0010
1000
0010
0000
0100
0000
,
0001
1000
0001
0000
1000
0000
0001
0000
1000
0100
1000
0100
1000
0000
0100
0000
,
0010
0000
0001
1000
0000
0010
0100
0000
0001
0100
0010
1000
0001
0100
0010
1000
,
0001
0000
0000
0000
;
