#TITLE:5PM ETERNAL;
#SUBTITLE:;
#ARTIST:GUHROOVY fw. NO+CHIN;
#TITLETRANSLIT:;
#SUBTITLETRANSLIT:;
#ARTISTTRANSLIT:;
#GENRE:;
#CREDIT:;
#MUSIC:5PM ETERNAL.ogg;
#BANNER:5PM ETERNAL.png;
#BACKGROUND:5PM ETERNAL-bg.png;
#CDTITLE:;
#SAMPLESTART:30.755;
#SAMPLELENGTH:10.667;
#SELECTABLE:YES;
#OFFSET:1.225;
#BPMS:0.000=90.000
,48.000=180.000
,104.000=90.000
,108.000=180.000
,164.000=90.000
,168.000=180.000
;
#STOPS:;
#BGCHANGES:2.000=5PM ETERNAL.mp4=1.000=0=0=1,
99999.000=-nosongbg-=1.000=0=0=0=StretchNoLoop====
;
#FGCHANGES:;

//--------------- dance-single - Pandemonium X ----------------
#NOTES:
     dance-single:
     Pandemonium X:
     Beginner:
     3:
     0.111214,0.23874,0.0519,0,0,75,70,5,0,0,0,0.111214,0.23874,0.0519,0,0,75,70,5,0,0,0:
0000
0000
0000
0000
,
0000
0000
0000
0000
,
0000
0000
0000
0000
,
0000
0000
0000
0000
,
0001
0000
1000
0000
,
0010
0000
0100
0000
,
0010
0000
1000
0000
,
0100
0000
0010
0000
,
0001
0000
1000
0000
,
0010
0000
0100
0000
,
1001
0000
0001
0000
,
1000
1000
0001
0001
,
0100
0000
0000
0000
,
0010
0000
0000
0000
,
1000
0000
0000
0000
,
0100
0000
1000
0000
,
0001
0000
0000
0000
,
0100
0000
0000
0000
,
0010
0000
0000
0000
,
1000
0000
0000
0000
,
0001
0000
0000
0000
0000
0001
0000
0000
,
0000
0000
0000
0000
,
1000
0000
0000
0000
0000
1000
0000
0000
,
0000
0000
0000
0000
,
0010
0000
0000
0000
0000
0010
0000
0000
,
0000
0000
0000
0000
,
0110
0000
0000
0000
,
1000
0000
0000
0000
,
0000
0000
0000
0000
,
0001
0000
0000
0000
,
0000
0000
0000
0000
,
0010
0000
0000
0000
,
0000
0000
0000
0000
,
0100
0000
0000
0000
,
0000
0000
0000
0000
,
1000
0000
0000
0000
0000
1000
0000
0000
,
0000
0000
0000
0000
,
0001
0000
0000
0000
0000
0001
0000
0000
,
0000
0000
0000
0000
,
0100
0000
0000
0000
0000
0100
0000
0000
,
0000
0000
0000
0000
,
0110
0000
0000
0000
,
0001
0000
1000
0000
,
0100
0000
0000
0000
,
1000
0000
0001
0000
,
0100
0000
0000
0000
,
0010
0000
1000
0000
,
0000
0000
0100
0000
,
0010
0000
0000
0000
,
0001
0000
0001
0000
,
1000
0000
0001
0000
,
0100
0000
0001
0000
,
0010
0000
0000
0000
,
0100
0000
0000
0000
,
1000
0000
0001
0000
,
0100
0000
0010
0000
,
0100
0000
0000
0000
,
0000
1001
1001
0000
;

//--------------- dance-single - Pandemonium X ----------------
#NOTES:
     dance-single:
     Pandemonium X:
     Easy:
     5:
     0.201669,0.240816,0.06228,0.09342,0,136,130,6,9,0,0,0.201669,0.240816,0.06228,0.09342,0,136,130,6,9,0,0:
0000
0000
0000
0000
,
0000
0000
0000
0000
,
0000
0000
0000
0000
,
0000
0000
0000
0000
,
0001
0000
1000
0000
,
0010
0000
0100
0000
,
0010
0000
1000
0000
,
0001
0000
0010
0000
,
0100
0000
1000
0000
,
0100
0000
1000
0000
,
0020
0000
0000
0030
0100
0000
0000
0000
,
0010
0000
0010
0000
0010
0000
0010
0100
,
0001
0000
1000
0000
,
0100
1000
0010
0100
,
0001
0000
0010
0000
,
0100
0010
0001
0000
,
1000
0001
0100
0000
,
0001
1000
0010
0010
,
1000
0000
0001
0000
,
0100
0100
0100
0000
,
0010
0000
0000
0000
0000
0010
0000
0000
,
0000
0000
1000
0001
,
1000
0000
0000
0000
0000
1000
0000
0000
,
0000
0000
0100
0000
,
1000
0000
0000
0000
0000
1000
0000
0000
,
0000
0000
0100
0010
,
2002
0000
0000
3003
,
0001
0000
0000
1000
0000
0000
0010
0000
,
1000
0100
0010
0000
,
0000
0000
0000
0100
0000
0000
0010
0000
,
0001
0100
0001
0000
,
0000
0000
0000
0010
0000
0000
0001
0000
,
1000
0100
1000
0000
,
0000
0000
0000
0010
0000
0000
0100
0000
,
0010
1000
0001
0000
,
1000
0000
0000
1000
0000
0000
0001
0000
,
0200
0000
0320
0000
,
1030
0000
0000
0100
0000
0000
0000
0010
,
0000
0001
0000
0000
,
0011
0000
0000
0101
0000
0000
0000
0000
,
0001
0000
1000
0000
,
0220
0000
0000
0330
,
1000
0000
0001
0000
,
0010
0001
0010
0000
,
0001
0000
1000
0000
,
0010
1000
0010
0000
,
1000
0000
0001
0000
,
1000
0100
1000
0000
,
0001
0000
1000
0000
,
0001
0100
0001
0000
,
1000
0100
0010
0000
,
0100
0000
1000
0000
,
0001
0010
0100
0000
,
0010
0000
0001
0000
,
1000
0001
0100
0000
,
0010
1000
0001
0000
,
0010
0100
1000
0000
,
0000
0110
2002
0000
,
3003
0000
0000
0000
;

//--------------- dance-single - Pandemonium X ----------------
#NOTES:
     dance-single:
     Pandemonium X:
     Medium:
     9:
     0.387026,0.421429,0.18684,0.13494,0.01038,261,243,18,13,0,0,0.387026,0.421429,0.18684,0.13494,0.01038,261,243,18,13,0,0:
0000
0000
0000
0000
,
0000
0000
0000
0000
,
0000
0001
0100
0001
0020
0000
0030
0000
,
0000
0100
1000
0100
0020
0000
0030
0000
,
0100
1000
0010
0000
0100
0001
1000
0000
,
0001
0010
0100
0000
0010
0001
1000
0000
,
0010
1000
0100
0000
0010
0100
1000
0000
,
0010
0001
0100
0000
0010
0100
0001
0000
,
1001
1000
0100
0000
0010
0001
0100
0000
,
0010
0100
0001
0000
0001
0000
0001
0000
,
2002
0000
0000
3003
0000
0000
0000
0000
,
1000
0000
0010
0000
0100
0000
0001
0000
1000
0000
0001
0000
0100
0010
1000
0000
,
0100
1000
0010
0100
,
0001
0010
0110
0011
,
0000
0010
0001
0100
,
0010
0000
1000
0000
0200
0000
0000
0010
,
0310
0100
1000
0010
,
0100
0001
0101
1010
,
0010
0100
0001
1000
,
0001
0010
0100
1000
0001
0000
0000
0000
,
1000
0100
0010
0001
0000
1000
0100
0010
,
0001
0000
1001
1001
,
0001
0010
0100
1000
0000
0001
0010
0100
,
1000
0000
1001
0000
,
0001
0100
0010
1000
0000
0001
0100
0010
,
1000
0000
1001
1001
,
2000
0000
0000
0000
,
3100
0000
0000
1000
0000
0010
0100
0010
,
1000
0000
0001
0000
0010
0010
0000
0000
,
0001
0000
0000
0010
0000
0100
0010
0001
,
0100
0000
0010
0000
1000
1000
0000
0000
,
0001
0000
0000
1000
0000
0100
1000
0010
,
0100
0000
0010
0000
1000
0001
0000
0000
,
0010
0000
0000
0100
0000
0010
0001
0100
,
0010
0000
0100
0000
0001
1000
0000
0000
,
0001
0000
0000
0100
0000
0010
1000
0000
,
0200
0000
0320
0000
,
0031
0000
0000
0010
0000
0001
0100
0010
,
0000
2000
0000
0000
3000
0000
0000
0000
,
1001
0000
0000
0110
0000
0000
0000
0000
,
0001
0001
0001
0000
1000
1000
1000
0000
,
0020
0000
0000
0200
0000
0000
0000
0000
0000
0000
0000
0000
0330
0000
0000
0000
,
0001
1000
0100
0010
,
0100
1000
0010
0100
,
0001
0010
0100
0010
,
0001
0100
0000
0001
0000
1001
0000
0000
,
1000
0100
1000
0010
,
0100
0001
0010
0001
,
1000
0100
0010
0100
,
1000
0000
1100
0000
0000
0011
0000
0000
,
0001
0000
0100
0000
0001
0100
0001
0000
,
0100
0000
0010
0000
1000
0010
1000
0000
,
0010
0000
0100
0000
0001
0100
0001
0010
,
0100
0000
0000
0000
0100
0010
0001
0000
,
1000
0001
0100
0000
0001
0000
1000
0000
,
0100
0010
0001
0000
0010
0000
0001
0000
,
0100
0010
1000
0000
0001
0100
0010
0000
,
1000
1001
0220
0000
,
0330
0000
0000
0000
;

//--------------- dance-single - Pandemonium X ----------------
#NOTES:
     dance-single:
     Pandemonium X:
     Hard:
     11:
     0.541243,0.661531,0.23874,0.07266,0.09342,365,342,23,7,0,0,0.541243,0.661531,0.23874,0.07266,0.09342,365,342,23,7,0,0:
0000
0000
0000
0000
,
0000
0000
0000
0000
,
0000
0000
0001
0100
0001
0000
1000
0000
0200
0000
0000
0000
0300
0000
0000
0000
,
0000
0000
1000
0100
1000
0000
0001
0000
0200
0000
0000
0000
0310
0000
0100
0000
,
1001
0001
0100
0000
0001
1000
0100
0000
,
0010
0000
0100
0000
1000
0000
0000
0000
0100
0010
0000
0100
0000
0010
0000
0000
,
0100
1000
0001
0000
0100
0010
1000
0000
,
0001
0000
0100
0010
0000
1000
0001
0000
1000
0000
1100
0000
0000
0110
0000
0000
,
1001
0001
0100
0000
1001
1000
0100
0000
,
1001
0001
0010
0000
0010
0000
0100
0000
,
2001
0010
3001
1000
,
0001
0000
0001
0000
0001
1000
0001
1000
0001
0100
0001
1000
0010
0100
0010
1000
,
0001
0010
0100
1000
0001
1000
0010
0000
,
0010
0100
0001
0010
0001
0000
1100
0000
,
0000
0100
1000
0010
1000
0000
0010
1000
,
0001
0010
0100
0010
0002
0000
0000
1003
,
1001
0000
0001
0100
0001
0010
0100
0000
,
0010
0100
0010
0100
1000
0000
0011
0000
,
0000
0001
0100
0001
0010
0100
1000
0000
,
0100
0001
0100
1000
0001
0000
0000
0000
,
0100
0100
0001
0010
0000
0100
0100
1000
,
0010
0100
1001
1001
,
1000
1000
0010
0100
0000
0001
0001
0010
,
0100
0000
0010
0000
0002
0000
0000
1003
,
1001
0001
0001
0001
0000
1000
0100
0100
,
0100
0000
0010
0100
1100
0000
1100
0000
,
1000
0000
0001
0000
0100
0000
0001
0000
0010
0100
1000
0001
1000
0000
0000
0000
,
0001
0000
0100
0001
0000
0010
1000
0010
,
0001
0000
0100
0000
0010
1001
0000
0000
,
1000
0000
0010
1000
0000
0010
0001
0010
,
1000
0000
0010
0000
0100
1001
0000
0000
,
0101
0000
0000
0100
0000
0001
0010
1000
,
0010
0000
0100
0000
0010
1001
0000
0000
,
0001
0000
0100
0010
0000
0100
1000
0100
,
0001
0000
0010
0000
0100
1000
0001
0000
,
0100
0100
0001
0010
0000
0100
0100
1000
,
0002
0000
2003
0000
,
3100
0100
0010
0001
0000
0100
0100
0010
,
1000
0000
0001
0000
1000
0001
0100
0000
,
0001
0001
1000
0001
0000
0001
0001
1000
,
0001
0100
1000
0000
1000
0100
0001
0000
,
1001
1000
0100
0000
1000
0001
0100
0000
,
0010
1000
0100
0000
0010
0001
0100
0000
,
0001
1000
0001
0100
0010
0100
1000
0100
,
0010
1000
0001
0000
1000
0100
0010
0000
,
0100
1000
0000
0001
0000
1001
0000
0000
,
0010
0001
0100
0000
0010
0100
0001
0000
,
1000
0001
0010
0001
1000
0100
0010
0001
,
1000
0001
0100
0000
0010
1000
0100
0000
,
0010
0000
1100
0000
0000
1001
0000
0000
,
0001
0100
0010
0000
0100
0001
1000
0000
,
0001
0100
0010
1000
0100
0010
0001
0000
,
0010
0001
0100
0000
0010
1000
0001
0001
,
1000
1000
0000
0000
0010
0010
0000
0000
,
1000
0010
0100
0001
1000
0100
0010
0001
,
1000
0010
0100
0001
1000
0100
0010
0001
,
1000
0010
0100
0000
0001
0010
0100
0000
,
0010
0000
0001
0000
0100
0000
0010
0000
1000
0000
0001
0000
0010
0100
0010
0100
;

//--------------- dance-double - Pandemonium X ----------------
#NOTES:
     dance-double:
     Pandemonium X:
     Easy:
     5:
     0.21798,0.240816,0.08304,0.08304,0,147,139,8,8,0,0,0.21798,0.240816,0.08304,0.08304,0,147,139,8,8,0,0:
00000000
00000000
00000000
00000000
,
00000000
00000000
00000000
00000000
,
00000000
00000000
00000000
00000000
,
00000000
00000000
00000000
00000000
,
00010000
00000000
00000100
00000000
,
00001000
00000000
00000010
00000000
,
00000100
00000000
00000001
00000000
,
00001000
00000000
00000100
00010000
,
00011000
00000000
00001000
00000000
,
01000000
00000000
00100000
00000000
,
10010000
00000000
00000000
00000000
,
10000000
00000000
00010000
00000000
10000000
00000000
00010000
10000000
,
00010000
00000000
00100000
00000000
,
00001000
00010000
00000100
00000100
,
00001000
00000000
00000010
00000000
,
00000100
00000001
00000010
00000000
,
00000100
00000000
00001000
00000000
,
00000100
00010000
00001000
00001000
,
00010000
00000000
00001000
00000000
,
01000000
00010000
00100000
00000000
,
01000000
00000000
00000000
00000000
00000000
10000000
00000000
00000000
,
00000000
00000000
00100000
00100000
,
01000000
00000000
00000000
00000000
00000000
00001000
00000000
00000000
,
00000000
00000000
00010000
00000000
,
00000100
00000000
00000000
00000000
00000000
00001000
00000000
00000000
,
00000000
00000000
00000010
00000010
,
00002002
00000000
00000000
00003003
,
00000001
00000000
00000000
00000100
00000000
00000000
00000010
00000000
,
00001000
00000100
00010000
00000000
,
00001000
00000000
00000000
01000000
00000000
00000000
00010000
00000000
,
10000000
01000000
00100000
00000000
,
01000000
00000000
00000000
10000000
00000000
00000000
00010000
00000000
,
01000000
00010000
00100000
00001000
,
00001000
00000000
00000000
00010000
00000000
00000000
00000100
00000000
,
00001000
00000010
00000100
00000000
,
00000001
00000000
00000000
00001000
00000000
00000000
00000100
00000000
,
00020000
00000000
00032000
00000000
,
00013000
00000000
00000000
00000100
00000000
00000000
00000000
00001000
,
00000000
00000010
00000000
00000000
,
00000110
00000000
00000000
00001001
00000000
00000000
00000000
00000000
,
00000001
00000000
00001000
00000000
,
00000220
00000000
00000000
00000330
,
00000001
00001000
00000100
00000000
,
00010000
00001000
01000000
00000000
,
00010000
00100000
01000000
00000000
,
00100000
00000000
00000000
01000000
00000000
01000000
00000000
00000000
,
10000000
00100000
01000000
00000000
,
00100000
01000000
00010000
00000000
,
00100000
00001000
00010000
00000000
,
00000100
00001000
00000010
00000000
,
00000100
00000100
00000001
00000000
,
00001000
00001000
00000100
00000000
,
00010000
00010000
00001000
00000000
,
01000000
00000000
00010000
00000000
,
00100000
00100000
01000000
01000000
,
10000000
00010000
10000000
00000000
,
00010000
01000000
00001000
00000000
,
00000000
00011000
00022000
00000000
,
00033000
00000000
00000000
00000000
;

//--------------- dance-double - Pandemonium X ----------------
#NOTES:
     dance-double:
     Pandemonium X:
     Medium:
     8:
     0.361818,0.391326,0.1557,0.12456,0.03114,244,229,15,12,0,0,0.361818,0.391326,0.1557,0.12456,0.03114,244,229,15,12,0,0:
00000000
00000000
00000000
00000000
,
00000000
00000000
00000000
00000000
,
00000000
00000000
00010000
00000000
00001000
00000000
00010000
00000000
00000200
00000000
00000000
00000300
00000000
00000000
00000000
00000000
,
00000000
00000000
00010000
00000000
00001000
00000000
00010000
00000000
00000200
00000000
00000000
00000300
00000000
00000000
00000000
00000000
,
00011000
00000000
00001000
00000000
01000000
00010000
00100000
00000000
,
01000000
00000000
00000000
00000000
10000000
00000000
00000000
00000000
00010000
01000000
00000000
00010000
00000000
00100000
00000000
00000000
,
01000000
00000000
00110000
00000000
00100000
00001000
00010000
00000000
,
00000100
00000000
00001000
00000000
00000010
00000100
00000001
00000000
,
00001001
00000000
00000001
00000000
00000010
00000100
00001000
00000000
,
00000100
00010000
00010000
00001000
,
00022000
00000000
00000000
00033000
00000000
00000000
00001000
00000000
,
01000000
00000000
00000000
00000000
01000000
00000000
00100000
00000000
01000000
00000000
00010000
00000000
10000000
01000000
00100000
00000000
,
01000000
10000000
00100000
01000000
,
00010000
00100000
00101000
00011000
,
00000000
00010000
00000100
00001000
,
00000010
00000000
00000100
00000000
00000001
00000000
00000000
00001000
,
00000100
00001000
00000010
00000100
,
00000001
00000010
00000110
00001100
,
00000000
00000100
00010000
00001000
,
01000000
00010000
01000000
00010000
00100000
00000000
00000000
00000000
,
01000000
10000000
01000000
10000000
00000000
10000000
00100000
10000000
,
00100000
00000000
00000000
00000000
,
01000000
00010000
01000000
00010000
00000000
00010000
00100000
00010000
,
00100000
00000000
00000000
00000000
,
00001000
00010000
00001000
00010000
00000000
00010000
00000100
00010000
,
00000100
00000000
00000000
00000000
,
00000022
00000000
00000000
00000033
,
00000001
00000000
00000000
00000100
00000000
00000100
00000010
00000000
,
00001000
00000000
00000100
00000000
00010000
00010000
00000000
00000000
,
00001000
00000000
00000000
01000000
00000000
01000000
00100000
00000000
,
01000000
00000000
00010000
00000000
10000000
10000000
00000000
00000000
,
01000000
00000000
00000000
00100000
00000000
00100000
01000000
00000000
,
00100000
00000000
00010000
00000000
01000000
01000000
00000000
00000000
,
00010000
00000000
00000000
00100000
00000000
00100000
00001000
00000000
,
00010000
00000000
00000100
00000000
00010000
00010000
00000000
00000000
,
00001000
01000000
00010000
00100000
00000000
01000000
10000000
00100000
,
02000000
00000000
03200000
00000000
,
10300000
00100000
01000000
00010000
00000000
00100000
00001000
00010000
,
00001000
00000000
00000000
00000000
,
00011000
00000000
00000000
00011000
00000000
00000000
00000000
00000000
,
00010000
00000100
00010000
00000000
00001000
01000000
00001000
00000000
,
00022000
00000000
00000000
00033000
,
00001000
01000000
00100000
01000000
,
00010000
00100000
01000000
10000000
,
00010000
01000000
00010000
00100000
,
00001000
00010000
00000000
00000100
00000000
00001100
00000000
00000000
,
00001000
00000010
00000100
00000001
,
00000010
00000100
00001000
00000100
,
00010000
00001000
01000000
00010000
,
00100000
00000000
01000000
00000000
10000000
00100000
01000000
00000000
,
00010000
00100000
00001000
00010000
,
00000010
00000100
00000001
00000010
,
00000100
00000000
00001000
00000000
00000100
00000000
00010000
00001000
,
00100000
00010000
00100000
00000000
00010000
01000000
00010000
00000000
,
10000000
01000000
00100000
00010000
,
00100000
00001000
00010000
00000010
,
00000100
00000001
00000010
00000100
,
00001000
00001100
00022000
00000000
,
00033000
00000000
00000000
00000000
;

//--------------- dance-double - Pandemonium X ----------------
#NOTES:
     dance-double:
     Pandemonium X:
     Hard:
     11:
     0.526415,0.691601,0.26988,0.1038,0.08823,355,329,26,10,0,0,0.526415,0.691601,0.26988,0.1038,0.08823,355,329,26,10,0,0:
00000000
00000000
00000000
00000000
,
00000000
00000000
00000000
00000000
,
00110000
00000000
00010000
00100000
01000000
00000000
10000000
00000000
00020000
00000000
00000000
00000000
00030000
00000000
00000000
00000000
,
00000000
00000000
00000000
00000000
00000000
00000000
01000000
00000000
00000000
00100000
00000000
00000000
00010000
00000000
00000000
00000000
00000000
00000000
00100000
00000000
00000000
00000000
00000000
00000000
00001000
00000000
00000000
00000000
00001000
00000000
00000000
00000000
00001000
00000000
00000000
00000000
00010000
00000000
00000000
00000100
00000000
00000000
00001000
00000000
00000000
00000010
00000000
00000000
,
00000100
00000001
00000010
00000000
00000100
00001000
00000010
00000000
,
00000100
00000000
00000010
00000000
00010000
00000000
00000000
00000000
00001000
01000000
00000000
00010000
00000000
00100000
00000000
00000000
,
01000000
10000000
10010000
00000000
00010000
01000000
00100000
00000000
,
01000000
00010000
00100000
00001000
00010000
00000010
00000100
00000001
,
00001001
00000001
00000010
00000000
00000100
00001000
00000010
00000000
,
00000100
00000010
00010000
00000000
00010000
00000000
00001000
00000000
,
00022000
00000000
00000000
00033000
00000000
00001000
01000000
00100000
,
10000000
00000000
10000000
00000000
10000000
10000000
10000000
10000000
00010000
10000000
00010000
10000000
00010000
00100000
00001000
00010000
,
00000010
00000001
00000010
00000100
00000001
00001000
00000100
00000000
,
00001000
00000100
00010000
00001000
00100000
00000000
11000000
00000000
,
00000000
10000000
00100000
01000000
10000000
00000000
01000000
00010000
,
00100000
01000000
10000000
00010000
00200000
00000000
00000000
00301000
,
00011000
00000000
00010000
00000100
00001000
00000010
00000001
00000000
,
00000010
00000100
00000001
00000010
00000100
00000000
00000011
00000000
,
00000000
00000001
00000010
00000001
00000100
00000010
00001000
00000001
,
00001000
00000100
00000010
00000001
00001001
00000000
00000000
00000000
,
00000010
00000100
00001000
00010000
00000000
00001000
00010000
00100000
,
01000000
00000000
10010000
10010000
,
01000000
00100000
00010000
00001000
00000000
00010000
00001000
00000100
,
00000010
00000000
00000000
00000000
00002000
00000000
00000000
00003001
,
00000100
00001000
00010000
00100000
00000000
00010000
00100000
01000000
,
10000000
00000000
10010000
10010000
,
00220000
00000000
00000000
00300000
,
01030000
00000000
00000000
00011000
00000000
00010000
00000100
00001000
,
00000010
00000000
00000100
00000000
00000001
00001001
00000000
00000000
,
00000001
00000000
00000000
00001001
00000000
00001000
00000100
00010000
,
00001000
00000000
01000000
00000000
00100000
10010000
00000000
00000000
,
01020000
00000000
00000000
01030000
00000000
01000000
00001000
00010000
,
00001000
00000000
00010000
00000000
00000010
00000100
00000001
00001000
,
00000100
00000000
00000000
00001100
00000000
00000100
00010000
00001000
,
01000000
00000000
00010000
00000000
00100000
10010000
00000000
00000000
,
00010000
01000000
10000000
01000000
00000000
00100000
01000000
00001000
,
00020000
00000000
00030200
00000000
,
00001300
00000010
00000001
00000010
00000000
00000100
00000001
00001000
,
00000100
00000000
00001000
00000000
00000010
00000100
00000001
00000000
,
00001100
00000000
00000000
00101000
00000000
00000000
00000000
00000000
,
00001000
00100000
00010000
00000000
00100000
00001000
00010000
00000000
,
00000100
00010000
00001000
00000000
00010000
00001000
01000000
00000000
,
00100000
10000000
01000000
00000000
00100000
00010000
01000000
00000000
,
00000000
00100000
01000000
00010000
00100000
00001000
00010000
00000010
,
00000100
00000001
00000010
00000000
00000100
00001000
00000010
00000000
,
00000100
00000001
00000000
00000011
00000000
00001100
00000000
00000000
,
00000100
00010000
00001000
00000000
00010000
00001000
01000000
00000000
,
00000000
00100000
00010000
00100000
10000000
01000000
00100000
00010000
,
00100000
00001000
00010000
00000000
00001000
00010000
00000010
00000000
,
00000100
00001000
00000100
00000001
00000010
00000100
00001000
00000100
,
00010000
00001000
01000000
00000000
00010000
10000000
01000000
00000000
,
00100000
01000000
10000000
00100000
01000000
00010000
00100000
00000000
,
00100000
00001000
00010000
00000000
00001000
00010000
00000100
00001000
,
00000010
00000001
00000010
00000000
00000100
00000001
00000010
00000000
,
00000100
00001000
00000010
00000000
00000100
00000001
00001000
00000000
,
00000100
00010000
00001000
00000000
00100000
00010000
01000000
00000000
,
00100000
00010000
00100000
10000000
01000000
00100000
00010000
01000000
,
00010000
00000000
00000000
00000000
00110000
00000000
00000000
00000000
00101000
00000000
00000000
00000000
00001000
00010000
00001000
00010000
;
