#TITLE:Viola (Driftmoon & Robert Nickson present Astrosphere Remix);
#SUBTITLE:;
#ARTIST:Moogwai;
#TITLETRANSLIT:;
#SUBTITLETRANSLIT:;
#ARTISTTRANSLIT:;
#GENRE:;
#CREDIT:;
#BANNER:Viola (Driftmoon & Robert Nickson present Astrosphere Remix).png;
#BACKGROUND:Viola (Driftmoon & Robert Nickson present Astrosphere Remix)-bg.png;
#LYRICSPATH:;
#CDTITLE:;
#MUSIC:Viola (Driftmoon & Robert Nickson present Astrosphere Remix).ogg;
#OFFSET:0.806000;
#SAMPLESTART:57.480000;
#SAMPLELENGTH:13.741000;
#SELECTABLE:YES;
#BPMS:0.000000=140.000000
;
#STOPS:
;
#BGCHANGES:;
#KEYSOUNDS:;
#ATTACKS:;

//---------------dance-single - ----------------
#NOTES:
     dance-single:
     :
     Beginner:
     2:
     0.099641,0.227329,0.025833,0.000000,0.000000,81.000000,78.000000,3.000000,0.000000,0.000000,0.000000,0.099641,0.227329,0.025833,0.000000,0.000000,81.000000,78.000000,3.000000,0.000000,0.000000,0.000000:
// measure 0
0000
0000
0000
0000
,  // measure 1
0000
0000
0000
0000
,  // measure 2
0000
0000
0000
0000
,  // measure 3
0000
0000
0000
0000
,  // measure 4
0000
0000
0000
0000
,  // measure 5
0000
0000
0000
0000
,  // measure 6
1000
0000
0000
0000
,  // measure 7
0000
0000
0000
0000
,  // measure 8
1000
0000
0000
0000
,  // measure 9
0000
0000
0000
0000
,  // measure 10
0001
0000
0000
0000
,  // measure 11
0100
0000
0000
0000
,  // measure 12
0010
0000
0000
0000
,  // measure 13
0100
0000
0000
0000
,  // measure 14
0001
0000
0000
0000
,  // measure 15
1000
0000
0000
0000
,  // measure 16
0010
0000
0000
0000
,  // measure 17
0100
0000
0000
0000
,  // measure 18
0001
0000
0000
0000
,  // measure 19
1000
0000
0000
0000
,  // measure 20
0010
0000
0000
0000
,  // measure 21
0100
0000
0010
0000
,  // measure 22
1000
0000
0000
0000
,  // measure 23
0001
0000
0000
0000
,  // measure 24
0010
0000
0001
0000
,  // measure 25
1000
1000
0001
0001
,  // measure 26
0110
0000
0000
0000
,  // measure 27
0000
0000
0000
0000
,  // measure 28
0000
0000
0000
0000
,  // measure 29
0000
0000
0000
0000
,  // measure 30
1000
0000
0000
0000
,  // measure 31
0001
0000
0000
0000
,  // measure 32
1000
0000
0001
0000
,  // measure 33
1001
0000
0000
0000
,  // measure 34
1000
0000
0000
0001
,  // measure 35
0000
0000
0010
0010
,  // measure 36
0100
0000
0000
1000
,  // measure 37
0000
0000
0010
0010
,  // measure 38
0100
0000
0000
0001
,  // measure 39
0000
0000
0010
0010
,  // measure 40
0100
0000
0000
0010
,  // measure 41
0000
0000
0001
0001
,  // measure 42
1000
0000
0000
0010
,  // measure 43
0000
0000
0100
0100
,  // measure 44
0010
0000
0000
1000
,  // measure 45
0000
0000
0001
0001
,  // measure 46
1000
0000
0000
0001
,  // measure 47
0000
0000
0010
0010
,  // measure 48
0100
0000
0000
0000
,  // measure 49
0000
0000
0000
0000
,  // measure 50
1000
0000
0000
0000
,  // measure 51
0001
0000
0000
0000
,  // measure 52
0100
0000
0000
0000
,  // measure 53
0010
0000
0010
0000
,  // measure 54
0010
0000
0000
0000
,  // measure 55
1000
0000
0000
0000
,  // measure 56
0001
0000
0000
0000
,  // measure 57
0010
0000
0010
0000
,  // measure 58
0100
0000
0000
0000
,  // measure 59
1000
0000
0000
0000
,  // measure 60
0010
0000
0000
0000
,  // measure 61
0100
0000
0100
0000
,  // measure 62
0100
0000
0000
0000
,  // measure 63
0001
0000
0000
0000
,  // measure 64
1000
0000
0000
0000
,  // measure 65
0001
0000
0000
0000
,  // measure 66
0110
0000
0000
0000
;

//---------------dance-single - ----------------
#NOTES:
     dance-single:
     :
     Easy:
     6:
     0.184521,0.284162,0.017222,0.594157,0.000000,150.000000,148.000000,2.000000,69.000000,0.000000,0.000000,0.184521,0.284162,0.017222,0.594157,0.000000,150.000000,148.000000,2.000000,69.000000,0.000000,0.000000:
// measure 0
0000
0000
0000
0000
,  // measure 1
0000
0000
0000
0000
,  // measure 2
0000
0000
0000
0000
,  // measure 3
0000
0000
0000
0000
,  // measure 4
0000
0000
0000
0000
,  // measure 5
0000
0000
0000
0000
,  // measure 6
0010
0000
0000
0010
0000
0000
0000
0000
,  // measure 7
0000
0000
0000
0000
,  // measure 8
0010
0000
0000
0010
0000
0000
0000
0000
,  // measure 9
0000
0000
0000
0000
,  // measure 10
2001
0000
0000
0000
,  // measure 11
3020
0000
0000
0000
,  // measure 12
0230
0000
0000
0000
,  // measure 13
0302
0000
0000
0000
,  // measure 14
0023
0000
0000
0000
,  // measure 15
0230
0000
0000
0000
,  // measure 16
2300
0000
0000
0000
,  // measure 17
3020
0000
0000
0000
,  // measure 18
0230
0000
0000
0000
,  // measure 19
0302
0000
0000
0000
,  // measure 20
2003
0000
0000
0000
,  // measure 21
3020
0000
2030
0000
,  // measure 22
3200
0000
0000
0000
,  // measure 23
0320
0000
0000
0000
,  // measure 24
0032
0000
2003
0000
,  // measure 25
3002
0203
0320
2030
,  // measure 26
3001
0000
0000
0000
,  // measure 27
0000
0000
0000
0000
,  // measure 28
0000
0000
0000
0000
,  // measure 29
0000
0000
0000
0000
,  // measure 30
0001
0000
0000
0000
,  // measure 31
1000
0000
0000
0000
,  // measure 32
0001
0000
1000
0000
,  // measure 33
0001
0000
1000
0000
0001
0000
1000
0001
,  // measure 34
2000
0000
0000
3020
0000
0000
0230
0000
,  // measure 35
0000
0302
0000
0000
0023
0000
0230
0000
,  // measure 36
2300
0000
0000
3200
0000
0000
2300
0000
,  // measure 37
0000
3020
0000
0000
0230
0000
0320
0000
,  // measure 38
2030
0000
0000
3002
0000
0000
2003
0000
,  // measure 39
0000
3002
0000
0000
0023
0000
0230
0000
,  // measure 40
2300
0000
0000
3020
0000
0000
2030
0000
,  // measure 41
0000
3020
0000
0000
0230
0000
0302
0000
,  // measure 42
0023
0000
0000
0230
0000
0000
0320
0000
,  // measure 43
0000
0230
0000
0000
0320
0000
0032
0000
,  // measure 44
0203
0000
0000
0302
0000
0000
0203
0000
,  // measure 45
0000
0302
0000
0000
0203
0000
0320
0000
,  // measure 46
2030
0000
0000
3002
0000
0000
2003
0000
,  // measure 47
0000
3002
0000
0000
2003
0000
3200
0000
,  // measure 48
0320
0000
0000
0230
0000
0000
0320
0000
,  // measure 49
0000
0230
0000
0000
0320
0000
0032
0000
,  // measure 50
1003
0001
0100
0001
,  // measure 51
1000
0010
1000
0001
,  // measure 52
0100
0001
1000
0010
,  // measure 53
1000
1000
0001
0001
,  // measure 54
1000
0100
0010
0001
,  // measure 55
0010
0001
0100
0010
,  // measure 56
1000
0001
0100
0010
,  // measure 57
1000
1000
0001
0001
,  // measure 58
1000
0001
0010
0001
,  // measure 59
1000
0010
1000
0001
,  // measure 60
1000
0001
0100
0001
,  // measure 61
1000
0100
1000
0001
,  // measure 62
1000
0100
0010
0001
,  // measure 63
0010
0100
1000
0100
,  // measure 64
0010
0010
0100
0100
,  // measure 65
1000
1000
0001
0001
,  // measure 66
0110
0000
0000
0000
;

//---------------dance-single - ----------------
#NOTES:
     dance-single:
     :
     Medium:
     8:
     0.295233,0.368711,0.146386,0.137775,0.000000,240.000000,223.000000,17.000000,16.000000,0.000000,0.000000,0.295233,0.368711,0.146386,0.137775,0.000000,240.000000,223.000000,17.000000,16.000000,0.000000,0.000000:
// measure 0
0000
0000
0000
0000
,  // measure 1
0000
0000
0000
0000
,  // measure 2
0000
0000
0000
0000
,  // measure 3
0000
0000
0000
0000
,  // measure 4
0000
0000
0000
0000
,  // measure 5
0000
0000
0000
0000
,  // measure 6
0001
1000
0000
0010
0100
0000
0000
0000
,  // measure 7
0000
0000
0000
0000
,  // measure 8
0001
1000
0000
0010
0100
0000
0000
0000
,  // measure 9
0000
0000
0000
0000
,  // measure 10
1001
0001
1000
0010
,  // measure 11
1010
0010
0100
0001
,  // measure 12
0101
0001
0010
0100
,  // measure 13
1100
0100
1000
0010
,  // measure 14
0110
0100
0001
0010
,  // measure 15
0011
0001
1000
0010
,  // measure 16
1010
0010
0100
0001
,  // measure 17
0101
0001
1000
0001
,  // measure 18
1001
0001
1000
0010
,  // measure 19
1010
1000
0001
0010
,  // measure 20
0011
0001
1000
0001
,  // measure 21
1001
0010
1001
0100
,  // measure 22
1001
0001
0100
0010
,  // measure 23
0110
0010
1000
0001
,  // measure 24
1000
0000
0100
0000
,  // measure 25
0010
0001
0100
0010
,  // measure 26
1001
0000
0000
0000
,  // measure 27
0000
0000
0000
0000
,  // measure 28
0000
0000
0000
0000
,  // measure 29
0000
0000
0000
0000
,  // measure 30
0010
0000
0000
0000
,  // measure 31
0010
0000
0000
0000
,  // measure 32
0010
0000
0010
0000
,  // measure 33
0010
0010
0010
0010
,  // measure 34
1001
0000
0001
0100
0000
0001
0100
0000
,  // measure 35
0001
0100
0000
0001
0200
0000
0320
0000
,  // measure 36
1030
0000
0001
1000
0000
0001
1000
0000
,  // measure 37
0001
1000
0000
0001
2000
0000
3200
0000
,  // measure 38
0310
0000
0001
0010
0000
0001
0010
0000
,  // measure 39
0001
0010
0000
0001
0020
0000
0032
0000
,  // measure 40
1003
0000
0010
1000
0000
0010
1000
0000
,  // measure 41
0010
1000
0000
0010
2000
0000
3002
0000
,  // measure 42
1003
0000
0100
0010
0000
0100
0010
0000
,  // measure 43
0100
0010
0000
0100
0020
0000
0032
0000
,  // measure 44
0103
0000
0010
0100
0000
0010
0100
0000
,  // measure 45
0010
0100
0000
0010
0200
0000
0320
0000
,  // measure 46
1030
0000
0001
1000
0000
0001
1000
0000
,  // measure 47
0001
1000
0000
0001
2000
0000
3200
0000
,  // measure 48
0310
0000
0001
0010
0000
0001
0010
0000
,  // measure 49
0001
0010
0000
0001
0020
0000
0032
0000
,  // measure 50
0003
1000
0000
0001
0000
0100
0000
0010
,  // measure 51
0000
1000
0000
0010
0000
0100
0000
0001
,  // measure 52
0000
0010
0000
0100
0000
0010
0000
0001
,  // measure 53
0000
1000
0000
1000
0000
0001
0000
0001
,  // measure 54
0000
0100
0000
0010
0000
1000
0000
0010
,  // measure 55
0000
0100
0000
0001
0000
0010
0000
0100
,  // measure 56
0000
1000
0000
0100
0000
1000
0000
0010
,  // measure 57
0000
0100
0000
0100
0000
0010
0000
0010
,  // measure 58
0000
1000
0000
0100
0000
0001
0000
0100
,  // measure 59
0000
1000
0000
0010
0000
0100
0000
0001
,  // measure 60
0000
0010
0000
1000
0000
0010
0000
0001
,  // measure 61
0000
1000
0000
0010
0000
1000
0000
1000
,  // measure 62
0000
0001
0000
0100
0000
1000
0000
0100
,  // measure 63
0000
0010
0000
1000
0000
0010
0000
0001
,  // measure 64
0000
0010
0000
0100
0000
0001
0000
1000
,  // measure 65
0000
0010
0000
0010
0000
0010
0000
0010
;

//---------------dance-single - ----------------
#NOTES:
     dance-single:
     :
     Hard:
     10:
     0.372732,0.526991,0.370272,0.430548,0.150692,303.000000,260.000000,43.000000,50.000000,0.000000,0.000000,0.372732,0.526991,0.370272,0.430548,0.150692,303.000000,260.000000,43.000000,50.000000,0.000000,0.000000:
// measure 0
0000
0000
0000
0000
,  // measure 1
0000
0000
0000
0000
,  // measure 2
0000
0000
0000
0000
,  // measure 3
0000
0000
0000
0000
,  // measure 4
0000
0000
0000
0000
,  // measure 5
0000
0000
0000
0000
,  // measure 6
0001
1000
0001
0000
0000
0000
1000
0001
1000
0000
0000
0000
0000
0000
0000
0000
,  // measure 7
0000
0000
0000
0000
,  // measure 8
0001
1000
0001
0000
0000
0000
1000
0001
1000
0000
0000
0000
0000
0000
0000
0000
,  // measure 9
0000
0000
0000
0000
,  // measure 10
0101
0001
0010
0100
,  // measure 11
1100
0100
1000
0010
,  // measure 12
0110
0100
0001
0010
,  // measure 13
0110
0100
1000
0010
,  // measure 14
0101
0001
0010
0001
,  // measure 15
1010
0001
0100
0001
,  // measure 16
1001
1000
0100
0010
,  // measure 17
1100
0100
1000
0010
,  // measure 18
0101
0001
0010
0001
,  // measure 19
1001
0001
1000
0010
,  // measure 20
0110
0100
0001
0010
,  // measure 21
0110
0100
1100
1000
,  // measure 22
1001
0001
0100
0010
,  // measure 23
1001
0001
0010
0100
,  // measure 24
1100
0000
0101
0000
,  // measure 25
0011
1010
1100
0101
,  // measure 26
1001
0000
0000
0000
,  // measure 27
0000
0000
0000
0000
,  // measure 28
0000
0000
0000
0000
,  // measure 29
0000
0000
0000
0000
,  // measure 30
0110
0000
0000
0000
,  // measure 31
0110
0000
0000
0000
,  // measure 32
0110
0000
0110
0000
,  // measure 33
0110
0000
0110
0000
0110
0000
1000
0001
,  // measure 34
2001
0000
3001
0200
0000
0301
0200
0000
,  // measure 35
0301
0200
0000
0301
0200
0000
0320
0000
,  // measure 36
2030
0000
3001
2000
0000
3001
2000
0000
,  // measure 37
3001
2000
0000
3001
2000
0000
3200
0000
,  // measure 38
0320
0000
0031
0020
0000
0031
0020
0000
,  // measure 39
0031
0020
0000
0031
2000
0000
3020
0000
,  // measure 40
0230
0000
0301
0200
0000
0301
0200
0000
,  // measure 41
0301
0200
0000
0301
0200
0000
0320
0000
,  // measure 42
2030
0000
3001
2000
0000
3001
2000
0000
,  // measure 43
3001
2000
0000
3001
2000
0000
3200
0000
,  // measure 44
0320
0000
0031
0020
0000
0031
0020
0000
,  // measure 45
0031
0020
0000
0031
0020
0000
0230
0000
,  // measure 46
2300
0000
3010
2000
0000
3010
2000
0000
,  // measure 47
3010
2000
0000
3010
2000
0000
3002
0000
,  // measure 48
0203
0000
0310
0200
0000
0310
0200
0000
,  // measure 49
0310
0200
0000
0310
0200
0000
0320
0000
,  // measure 50
0030
0000
1000
0000
0001
0000
0000
0010
0000
0000
0001
0000
1000
0000
0000
0010
,  // measure 51
0000
0000
1000
0000
0001
0000
0000
0100
0000
0000
0001
0000
1000
0000
0000
0010
,  // measure 52
0000
0000
1000
0000
0001
0000
0000
0010
0000
0000
0100
0000
0010
0000
0000
0001
,  // measure 53
0000
0000
1000
0000
1000
0000
0000
0001
0000
0000
0100
0000
0100
0000
0000
0010
,  // measure 54
0000
0000
1000
0000
0010
0000
0000
0100
0000
0000
0001
0000
0010
0000
0000
0100
,  // measure 55
0000
0000
0010
0000
0001
0000
0000
1000
0000
0000
0010
0000
0100
0000
0000
0001
,  // measure 56
0000
0000
0010
0000
0100
0000
0000
1000
0000
0000
0100
0000
0010
0000
0000
0001
,  // measure 57
0000
0000
0010
0000
0001
0000
0000
0100
0000
0000
0010
0000
1000
0000
0000
0001
,  // measure 58
0000
0000
1000
0000
0100
0000
0000
0110
0000
0000
0010
0000
0001
0000
0000
0011
,  // measure 59
0000
0000
0001
0000
0100
0000
0000
0110
0000
0000
0010
0000
1000
0000
0000
1010
,  // measure 60
0000
0000
1000
0000
0001
0000
0000
1001
0000
0000
0001
0000
0010
0000
0000
0110
,  // measure 61
0000
0000
0100
0000
1000
0000
0000
1100
0000
0000
1000
0000
0010
0000
0000
1010
,  // measure 62
0000
0000
0010
0000
0100
0000
0000
0101
0000
0000
0001
0000
0010
0000
0000
0110
,  // measure 63
0000
0000
0100
0000
1000
0000
0000
1100
0000
0000
1000
0000
0010
0000
0000
0110
,  // measure 64
0000
0000
0100
0000
0001
0000
0000
0010
0000
0000
1000
0000
0010
0000
0000
0001
,  // measure 65
0000
0000
0100
0000
1000
0000
0000
0100
0000
0000
0001
0000
1000
0000
0000
0000
,  // measure 66
2002
0000
0000
0000
,  // measure 67
0000
0000
0000
0000
,  // measure 68
3003
0000
0000
0000
;

//---------------dance-single - ----------------
#NOTES:
     dance-single:
     :
     Challenge:
     12:
     0.418247,0.556268,0.292773,0.740543,0.167914,340.000000,306.000000,34.000000,86.000000,14.000000,0.000000,0.418247,0.556268,0.292773,0.740543,0.167914,340.000000,306.000000,34.000000,86.000000,14.000000,0.000000:
// measure 0
0000
0000
0000
0000
,  // measure 1
0000
0000
0000
0000
,  // measure 2
0000
0000
0000
0000
,  // measure 3
0000
0000
0000
0000
,  // measure 4
0000
0000
0000
0000
,  // measure 5
0000
0000
0000
0000
,  // measure 6
0001
0100
0010
0000
0000
0000
0100
0010
1000
0000
0000
0000
0000
0000
0000
0000
,  // measure 7
0000
0000
0000
0000
,  // measure 8
0100
0010
0001
0000
0000
0000
0010
0100
1000
0000
0000
0000
0000
0000
0000
0000
,  // measure 9
0000
0000
0000
0000
,  // measure 10
2001
0010
0001
3010
,  // measure 11
0021
0100
0001
0130
,  // measure 12
2100
0010
0001
3010
,  // measure 13
0201
0010
0001
0310
,  // measure 14
2001
0010
0100
3010
,  // measure 15
0201
0010
0001
0310
,  // measure 16
1020
0100
1000
0130
,  // measure 17
1002
0010
0100
0013
,  // measure 18
0201
1000
0001
1300
,  // measure 19
1020
0001
1000
0031
,  // measure 20
0201
0010
0001
0310
,  // measure 21
2010
3100
0021
0130
,  // measure 22
0120
0001
1000
0031
,  // measure 23
0210
1000
0001
1000
,  // measure 24
0302
0000
2003
0000
,  // measure 25
3002
0000
0023
0000
0230
0000
2300
3000
,  // measure 26
0004
4000
0000
0000
0000
0000
0000
0000
0000
0000
0000
0000
0000
0000
0000
0000
,  // measure 27
0000
0000
0000
0000
,  // measure 28
0000
0000
0000
0000
,  // measure 29
0000
0000
0000
0000
,  // measure 30
0MM0
0000
0000
0000
,  // measure 31
0MM0
0000
0000
0000
,  // measure 32
0MM0
0000
0MM0
0000
,  // measure 33
0MM0
0000
0MM0
0000
3MM3
0000
1001
0110
,  // measure 34
2001
0000
3001
0020
0000
0130
2000
0000
,  // measure 35
3100
0020
0000
0130
2000
3020
0032
0023
,  // measure 36
2030
0000
3010
2000
0000
3001
0020
0000
,  // measure 37
0130
0020
0000
0130
0002
0203
2300
3020
,  // measure 38
0230
0000
0301
0020
0000
0130
2000
0000
,  // measure 39
3100
0020
0000
0130
2000
3020
0032
0023
,  // measure 40
2030
0000
3010
0200
0000
0301
0020
0000
,  // measure 41
0130
2000
0000
3100
0002
0203
2300
3010
,  // measure 42
1020
0000
0130
0201
0000
0301
0012
0000
,  // measure 43
0013
0120
0000
0230
0302
0203
2300
3010
,  // measure 44
1020
0000
0130
0201
0000
0301
0021
0000
,  // measure 45
0031
2001
0000
3200
0302
0203
2300
3010
,  // measure 46
0210
0000
0310
1020
0000
1030
2001
0000
,  // measure 47
3001
0021
0000
0032
0023
2030
3020
0031
,  // measure 48
0102
0000
0103
0210
0000
0310
1020
0000
,  // measure 49
1030
2001
0000
3002
0203
2300
3020
0032
,  // measure 50
0003
0000
1000
0000
0010
0000
0100
0001
0000
0000
0010
0000
0100
0000
1000
0100
,  // measure 51
0000
0000
1000
0000
0010
0000
0100
0001
0000
0000
0010
0000
0100
0000
1000
0100
,  // measure 52
0000
0000
0100
0000
0010
0000
0001
0100
0000
0000
0010
0000
1000
0000
0001
0010
,  // measure 53
0000
0000
0100
0000
1000
0001
1000
0001
0000
0000
0100
0000
0010
1000
0010
1000
,  // measure 54
0000
0000
0001
0000
1000
0000
0001
0010
0000
0000
0100
0000
0010
0000
0001
0100
,  // measure 55
0000
0000
0010
0000
1000
0000
0001
0010
0000
0000
0100
0000
1000
0000
0010
0100
,  // measure 56
0000
0000
0010
0000
1000
0000
0001
0010
0000
0000
0100
0000
0010
0000
0001
0100
,  // measure 57
0000
0000
0010
0000
1000
0000
0100
0010
0000
0000
0100
0000
1000
0000
0010
0100
,  // measure 58
0001
0000
1000
0000
0001
0000
0010
0100
0000
0000
0100
0000
1000
0000
0010
0100
,  // measure 59
0000
0000
0001
0000
0010
0000
0100
1000
0000
0000
0100
0000
0010
0000
0001
0100
,  // measure 60
0000
0000
0010
0000
1000
0000
0001
0010
0000
0000
0100
0000
0010
0000
0001
1000
,  // measure 61
0000
0000
0010
0000
1000
0000
0001
0010
0000
0000
0100
0000
0010
0000
0001
0100
,  // measure 62
0000
0000
0010
0000
1000
0000
0001
0010
0000
0000
0100
0000
1000
0000
0100
0010
,  // measure 63
0000
0000
0100
0000
1000
0000
0010
0100
0000
0000
0100
0000
0010
0000
1000
0001
,  // measure 64
0000
0000
0010
0000
0100
0000
1000
0100
0000
0000
0100
0000
0010
0000
0001
0010
,  // measure 65
0000
0000
0001
0000
0010
0000
0100
1000
0000
0000
0100
0000
0010
0000
0001
1000
,  // measure 66
0020
0000
0000
0000
,  // measure 67
0000
0000
0000
0000
,  // measure 68
0030
0000
0000
0000
;
