#TITLE:노라조;
#SUBTITLE:;
#ARTIST:야채;
#TITLETRANSLIT:Vegetable;
#SUBTITLETRANSLIT:;
#ARTISTTRANSLIT:NORAZO;
#GENRE:;
#CREDIT:;
#MUSIC:Vegetable.ogg;
#BANNER:Vegetable.png;
#BACKGROUND:Vegetable-bg.png;
#CDTITLE:;
#SAMPLESTART:56.682;
#SAMPLELENGTH:22.581;
#SELECTABLE:YES;
#OFFSET:1.209;
#BPMS:0.000=170.000;
#STOPS:;
#LASTBEATHINT:0.566667;
#BGCHANGES:3.750=Vegetable.mp4=1.000=0=0=1,
99999.000=-nosongbg-=1.000=0=0=0=StretchNoLoop====
;
#FGCHANGES:;

//--------------- dance-single - ----------------
#NOTES:
     dance-single:
     Pandemonium X:
     Beginner:
     5:
     0,0,0,0,0:
0000
0000
0000
0000
,
0000
0000
0000
0000
,
0000
0000
0000
0000
,
0000
0000
0000
0000
,
0000
0000
0000
0000
,
0001
0000
0000
0000
,
1000
0000
0000
0000
,
0010
0000
0100
0000
,
0010
0010
0010
0000
,
1001
0000
1000
0000
,
0001
0001
0001
0000
,
0010
0000
0100
0000
,
1000
0000
0100
0000
,
0010
0000
0001
0000
,
1000
1000
1000
0000
,
0001
0000
1000
0000
,
0010
0000
0100
0000
,
0110
0000
0000
0000
,
0001
0001
0001
0001
,
0000
0000
0000
0000
,
1000
1000
1000
1000
,
0010
0000
0000
0000
,
0100
0000
0000
0000
,
1001
0000
0110
0000
,
1001
0000
0000
0000
,
0001
0000
0100
0000
,
0010
0010
0010
0010
,
1000
0000
0001
0000
,
0100
0100
0100
0100
,
0001
0000
0000
0000
,
1000
0000
0000
0000
,
0100
0000
0010
0000
,
1001
0000
0000
0000
,
0001
0000
0000
0000
,
0100
0000
0000
0000
,
0010
0000
1000
0000
,
0100
0000
0000
0000
,
0010
0000
0000
0000
,
0100
0000
0000
0000
,
1000
0000
0001
0000
,
0100
0000
0000
0000
,
0110
0000
0010
0000
,
0100
0100
0100
0000
,
0010
0000
1000
0000
,
0001
0001
0001
0000
,
1000
0000
0001
0000
,
0100
0000
0001
0000
,
0010
0000
0000
0000
,
0000
0000
0000
0000
,
0100
0000
1000
0000
,
0001
0001
0001
0000
,
1000
0000
0001
0000
,
0010
0010
0010
0000
,
0100
0000
1000
0000
,
0010
0000
0100
0000
,
0001
0000
0000
0000
,
0000
0000
0000
0000
,
1000
1000
1000
1000
,
0001
1000
0001
1000
,
0110
0000
0000
0000
,
0000
0000
0000
0000
,
0001
0000
0000
0000
,
1000
0000
0000
0000
,
0100
0000
0100
0000
,
0010
0000
0010
0000
,
0001
0000
0000
0000
,
1000
0000
0000
0000
,
0010
0000
0010
0000
,
0100
0000
0100
0000
,
0001
0000
0000
0000
,
1000
0000
0000
0000
,
0100
0000
0000
0000
,
0010
0000
0001
0000
,
1000
0000
0000
0000
,
0001
0000
0000
0000
,
0100
0000
0010
0010
,
0100
0000
0000
0000
,
1001
0000
0001
0000
,
1000
1000
1000
0000
,
0001
0000
0100
0000
,
0010
0010
0010
0000
,
0100
0000
0010
0000
,
1000
0000
0001
0000
,
1000
0000
0000
0000
,
0000
0000
0000
0000
,
0100
0000
0010
0000
,
0001
0001
0001
0000
,
1000
0000
0001
0000
,
0100
0100
0100
0000
,
0010
0000
0100
0000
,
0001
0000
1000
0000
,
0001
0000
0000
0000
,
0000
0000
0000
0000
,
0010
0010
0010
0010
,
0010
0100
0010
0100
,
1001
0000
0000
0000
,
0000
0000
0000
0000
,
0100
0100
0100
0100
,
0100
0010
0100
0010
,
1001
0000
0000
0000
,
0000
0000
0010
0010
;

//--------------- dance-single - ----------------
#NOTES:
     dance-single:
     Pandemonium X:
     Easy:
     9:
     0.35464,0.633657,0.584112,0.312917,0,357,273,84,45,0,0,0.35464,0.633657,0.584112,0.312917,0,357,273,84,45,0,0:
0000
0000
0000
0000
,
0000
0000
0000
0000
,
0000
0000
0000
0000
,
0000
0000
0000
0000
,
0000
0000
0000
0000
,
0001
0000
0001
0000
,
1000
0000
1000
0000
,
0010
0000
0010
0000
,
0100
0000
0100
0000
,
0010
1000
0001
0010
,
0001
1000
1000
1001
,
0001
1000
0010
1000
,
0001
0010
0001
1001
,
1000
0001
0100
0100
,
0010
1000
0100
1001
,
1000
0001
0001
1000
,
1000
0001
1000
1001
,
0001
0100
0010
1000
,
1010
0101
1010
0101
,
0001
1000
0100
0010
,
0011
1100
0011
1100
,
1000
0000
0000
0110
0000
0000
0000
0000
,
0001
0000
0000
0110
0000
0000
0000
0000
,
0200
1300
0200
0310
,
2002
0000
3003
0000
,
1000
0001
0100
0010
,
1000
0010
1000
0000
0010
1000
0010
0000
,
1000
0001
0100
0001
,
0010
0001
0010
0000
0001
0010
0001
0000
,
0100
0000
0000
1001
0000
0000
0000
0000
,
0010
0000
0000
1001
0000
0000
0000
0000
,
0001
0100
0001
1000
,
0020
0000
0030
0000
,
1000
0100
1000
0001
,
0100
0100
0100
0000
,
0010
0000
1000
0000
,
1001
0000
0000
0000
,
0001
0000
1000
0000
,
0010
0010
0010
1000
,
0002
0000
0023
0000
,
0230
0000
0300
0000
,
1001
0010
1001
0100
,
1001
0110
1001
0000
,
0001
0001
1000
1000
,
1001
0110
1001
0000
,
2000
0000
3002
0000
,
0203
0000
0000
0000
0320
0000
0000
0030
,
2002
0000
0000
0000
,
0000
3003
0000
0000
,
1001
0010
1001
0100
,
1001
1001
0110
0000
,
0001
0001
0100
0100
,
0110
1001
0110
0000
,
2000
0000
3200
0000
,
2300
0000
3002
0000
,
0203
0000
0000
0000
,
0300
0010
0100
0001
,
1001
1001
1001
1001
,
1001
0110
1001
0110
,
2002
0000
0000
0000
,
0000
0000
0000
3003
0000
0000
0000
0000
,
0001
0001
1000
1000
,
0010
0010
0100
0100
,
0001
0100
1000
0100
,
0001
1000
0002
0003
,
1000
1000
0001
0001
,
0010
0010
0001
0001
,
1000
0010
0001
0010
,
1000
0001
0020
0000
,
0130
1000
0100
0010
,
0001
0100
0001
0100
,
0001
1000
0100
0010
,
0100
1000
0001
0100
,
0020
0000
0000
0030
,
0200
0000
0000
0300
,
0002
0000
2003
3020
,
0200
0000
0000
0330
,
1001
0010
1001
0100
,
1001
0110
1001
0000
,
1000
1000
0001
0001
,
1001
0110
1001
0000
,
2000
0000
3020
0000
,
0230
0000
0302
0000
,
2000
0000
0000
0000
,
0000
3003
0000
0000
,
1001
0010
1001
0100
,
1001
1001
0110
0000
,
1001
1001
0110
0110
,
1001
0110
1001
0000
,
0002
0000
0203
0000
,
0320
0000
2030
0000
,
0002
0000
0000
0000
,
0000
3003
0000
0000
,
1001
1001
1001
1001
,
1001
0110
1001
0110
,
2002
0000
0000
0000
,
0000
0000
0000
3003
,
1001
1001
1001
1001
,
1001
0110
1001
0110
,
2002
0000
0000
0000
,
0000
3003
0110
2002
,
0000
3003
0000
0000
;

//--------------- dance-single - ----------------
#NOTES:
     dance-single:
     Pandemonium X:
     Medium:
     11:
     0.452985,0.633657,0.639742,0.396362,0.013907,456,364,92,57,0,0,0.452985,0.633657,0.639742,0.396362,0.013907,456,364,92,57,0,0:
0000
0000
0000
0000
,
0000
0000
0000
0000
,
0000
0000
0000
0000
,
0000
0000
0000
0000
,
0000
0000
0000
0000
,
1000
1000
0001
0001
,
0100
0100
0010
0010
,
1000
0010
0100
0001
,
1000
0010
0100
0001
,
1000
0001
0010
0001
,
1000
0010
0100
1001
,
0001
0000
1000
0001
1000
0000
0001
1000
,
0001
0000
1000
0001
1000
0000
0110
0000
,
0001
0100
0010
1000
,
0100
0010
0001
1001
,
0110
0000
0001
0100
0010
0000
0100
0010
,
1000
0000
0010
0100
0001
0000
1001
0000
,
0001
0100
0010
1000
,
1100
0011
1100
0011
,
0001
0100
0010
1000
,
1001
0110
1001
0110
,
0001
0100
0000
2020
0000
0000
3030
0000
,
1000
0100
1000
0002
0000
0000
0003
0000
,
2000
3010
0200
0301
,
2002
0000
3003
0000
,
0001
0100
0010
1000
,
0001
0010
1000
0000
1000
0010
0001
0000
,
1000
0001
1000
0001
,
1000
0010
0001
0000
0001
0010
1000
0000
,
0001
0100
0000
2020
0000
0000
3030
0000
,
1000
1000
0001
0020
0000
0000
0030
0000
,
0200
1300
0020
0130
,
2002
0000
3003
0000
,
0001
0001
1000
1000
,
0010
1000
0100
1000
0010
0000
0000
0000
,
0100
0001
0010
0100
,
2000
0001
0001
3001
,
1000
0001
0010
0001
,
0100
0001
0010
0001
0100
0000
0001
0000
,
2000
0000
3002
0000
,
0200
0000
0000
0303
,
1010
0001
1001
1000
,
1010
0101
1010
0000
,
1001
0011
1001
1010
,
1001
0110
1001
0000
,
0002
0000
0000
1003
0200
0000
0000
1300
,
0020
0000
0000
1030
0002
0000
0000
1003
,
0020
0000
0000
0000
,
0030
0100
0001
0010
0100
1000
0001
1000
,
1001
0010
1001
0100
,
0101
1010
1001
0000
,
1001
1001
0011
0011
,
1100
0011
1001
0000
,
2000
0000
0000
3001
0020
0000
0000
0031
,
2000
0000
0000
3001
0200
0000
0000
0310
,
2000
0000
0000
0000
0000
0000
0000
3000
,
0100
1000
0100
0010
0001
1000
0001
0000
,
0101
0101
1010
1010
,
1001
0110
1001
0110
,
2002
0000
0000
0000
,
0000
0000
3003
0000
,
1000
0001
0010
0001
,
1000
0010
0100
0001
,
0010
0100
1000
0000
1000
0100
0010
0000
,
0100
0010
0001
0010
0200
0000
0300
0000
,
0010
0001
0100
0010
,
1000
0000
0001
0000
0010
0000
0001
0010
,
0001
0010
0100
0000
0100
0010
0001
0000
,
1000
0100
0010
0001
2000
0000
0000
0000
,
3001
0100
0010
1000
,
0001
0000
1000
0010
0000
0100
0001
0010
,
0200
0310
0002
0103
,
0020
2030
3002
0203
,
0310
0000
0000
0010
0000
0000
0010
0000
0000
0010
0000
0000
0010
0000
0000
0000
,
0100
0000
0000
0100
0000
0000
0100
0000
0000
0100
0000
0000
0100
0000
0000
0000
,
0020
0000
2030
3002
,
2000
0000
0000
3003
,
0101
0001
1001
1000
,
1100
0011
1001
0000
,
0101
0101
1010
1010
,
1001
0110
1001
0000
,
2000
0000
0000
3001
0200
0000
0000
0301
,
2000
0000
0000
3001
0020
0000
0000
0031
,
2000
0000
0000
0000
,
3000
0010
1000
0010
0100
0001
0100
0010
,
1010
0010
1001
0100
,
0101
0011
0101
0000
,
1010
1100
1010
0110
,
1001
0110
1001
0000
,
2000
0000
0000
3001
0020
0000
0000
0031
,
2000
0000
0000
3001
0200
0000
0000
0301
,
2000
0000
0000
0000
,
3000
0001
0010
0100
0010
0001
0100
0010
,
1010
1010
0101
0101
,
1001
0110
1001
0110
,
2002
0000
0000
0000
,
0000
0000
3003
0000
,
1100
1100
0011
0011
,
1001
0110
1001
0110
,
2002
0000
0000
0000
,
0000
0003
3010
0200
,
0000
0300
0000
0000
;

//--------------- dance-single - ----------------
#NOTES:
     dance-single:
     Pandemonium X:
     Hard:
     13:
     0.534443,0.808674,0.479806,0.333778,0.05563,538,469,69,48,0,0,0.534443,0.808674,0.479806,0.333778,0.05563,538,469,69,48,0,0:
0000
0000
0000
0000
,
0000
0000
0000
0000
,
0000
0000
0000
0000
,
0000
0000
0000
0000
,
0000
0000
0000
0000
,
0001
0001
1000
1000
,
0010
0010
0100
0100
,
0010
1000
0001
0100
,
0010
1000
0001
1001
,
0001
0000
0100
0010
0100
0000
0010
0000
,
1000
0000
0001
1000
0001
0000
1001
0000
,
1000
0000
0001
0100
0001
0000
0001
1000
,
0001
0000
0001
0010
0001
0000
1001
0000
,
0100
0000
0100
1000
0010
0000
0100
0000
,
0001
0000
0001
0100
0010
0000
1001
0000
,
1000
0000
1000
0010
1000
0000
1000
0001
,
1000
0000
1000
0100
1000
0000
1001
0000
,
0001
0000
0100
0000
0010
1000
0100
0010
,
0011
1001
0011
0101
,
0001
0000
1000
0000
0001
0100
0010
1000
,
1010
1001
1010
1001
,
1000
0001
0000
0200
0000
0000
0300
0000
,
0001
1000
0001
0020
0000
0000
0030
0000
,
1200
1300
0021
0031
,
2002
0000
3003
0000
,
1000
0001
0100
0010
,
1000
0100
0001
0000
0001
0100
1000
0000
,
0001
1000
0010
1000
,
0001
0010
1000
0000
1000
0010
0001
0000
,
0001
0100
0000
0020
0000
0000
0030
0000
,
0100
0001
1000
0200
0000
0000
0300
0000
,
0021
0130
2100
3010
,
2002
0000
3003
0000
,
0001
0100
0100
0001
1000
0100
0010
0100
,
1000
0001
1000
0010
0100
0000
0000
0000
,
0001
0000
0000
0001
0000
0000
0001
0000
1000
0000
0000
1000
0000
0000
1000
0000
,
2100
0000
0000
3000
,
0000
1001
0000
0100
0010
0001
0100
0010
,
1000
0001
0010
1000
0010
0000
0001
0000
,
0100
0000
0000
0100
0000
0000
0100
0000
0010
0000
0000
0010
0000
0000
0010
0000
,
1000
0001
1000
0001
1000
0000
0001
0000
1000
0000
0000
0000
0000
0000
0000
0000
,
0101
0000
0001
0010
0011
0000
0001
0010
,
0100
1000
0100
0010
0011
0000
0000
0000
,
0001
0001
0100
0010
1000
1000
0010
0100
,
0001
1000
0010
1000
1001
0000
0000
0000
,
0002
0000
0000
0103
0020
0000
0000
1030
,
0200
0000
0000
0310
0002
0000
0000
1003
,
0002
0000
0000
0000
,
0003
1000
0100
0001
0100
0010
0001
0100
,
0110
0000
0010
0100
0110
0000
0010
0100
,
0001
1000
0001
0010
0110
0000
0000
0000
,
0100
0100
1000
0010
0100
0100
0010
1000
,
0001
0010
0100
0010
0110
0000
0000
0000
,
0200
0000
0000
1300
0020
0000
0000
0130
,
0002
0000
0000
1003
0002
0000
0000
0013
,
0200
0000
0000
0000
,
0300
1000
0100
0001
0100
0010
0001
1000
,
1001
0101
1001
1100
,
1001
0101
1001
1100
,
2002
0000
0000
0003
,
0001
0001
0001
0001
3001
0000
0000
0000
,
0100
0000
0001
0010
0100
0000
0010
0000
,
0001
0000
0100
0010
1000
0000
0001
0000
,
1000
0100
0001
0000
0001
0100
1000
0000
,
1000
0100
0001
0100
2000
0000
3000
0000
,
0001
0000
1000
0010
0100
0000
0001
1000
,
0001
0000
0001
1000
0010
0000
1000
0000
,
0001
0010
1000
0010
0001
0100
1000
0100
,
0001
0100
0010
1000
0002
0000
0003
0000
,
1000
0100
1000
0010
0100
0001
0010
0100
,
0010
0000
0101
0100
0000
0101
0100
0001
,
2000
0000
3002
0000
,
0203
0310
2000
3001
,
0120
0000
0000
0100
0000
0000
0100
0000
0000
0100
0000
0000
0130
0000
0000
0000
,
0210
0000
0000
0010
0000
0000
0010
0000
0000
0010
0000
0000
0310
0000
0000
0000
,
0100
0010
1000
0001
0100
0010
1000
0001
,
1000
0001
1000
0001
1000
0001
1000
0001
1000
0001
1000
0001
1000
0000
0000
0000
,
1100
0000
0010
0100
1100
0000
1000
0100
,
1000
0001
0010
0100
1100
0000
0000
0000
,
1000
1000
0010
0100
0001
0001
0010
0100
,
0010
0001
0100
0010
1001
0000
0000
0000
,
0002
0000
0103
0010
2000
0000
3100
0010
,
0002
0000
0013
0001
0200
0000
0310
1000
,
0002
0000
0000
0000
0000
0000
0000
0003
,
0000
1000
0100
0001
0100
0010
0001
0100
,
0110
0000
0010
0100
0110
0000
0100
0010
,
1000
0001
0010
0100
0110
0000
0000
0000
,
0100
0100
0010
0001
0100
0100
0010
1000
,
0001
0010
0100
0010
0110
0000
0000
0000
,
1000
0000
0001
0100
0020
0000
0130
0001
,
2000
0000
3001
0010
0200
0000
0310
0001
,
0200
0000
0000
0000
,
0300
0010
0001
0010
1000
0100
0010
0001
,
1001
1010
1001
0011
,
1001
0110
1001
0110
,
2002
0000
0000
0000
,
0000
0000
0000
3003
,
1001
0101
1001
1100
,
1001
0110
1001
0110
,
2002
0000
0000
0003
,
3001
0001
1000
1000
1020
0000
0200
0000
,
0000
0330
0000
0000
0000
0000
0000
0000
;

//--------------- dance-single - ----------------
#NOTES:
     dance-single:
     Pandemonium X:
     Challenge:
     15:
     0.618881,0.770646,0.751001,0.514575,0.128644,623,515,108,74,16,0,0.618881,0.770646,0.751001,0.514575,0.128644,623,515,108,74,16,0:
0000
0000
0000
0000
,
0000
0000
0000
0000
,
0000
0000
0000
0000
,
0000
0000
0000
0000
,
0000
0000
0000
0000
,
0001
0001
1000
1000
,
0010
0010
0100
0100
,
0101
0110
1001
1100
,
1010
0000
1100
0000
0001
1000
1001
0000
,
0101
0001
0010
0001
0011
0000
1010
0000
,
0101
0000
0001
1000
1100
0000
MMMM
0000
,
1010
0000
1000
0010
0011
0000
0001
0010
,
1010
0000
1000
0001
0101
0000
MMMM
0000
,
1010
0000
1100
0100
1000
0100
0110
0000
,
0011
0000
0001
0100
0110
0000
MMMM
0000
,
0101
0000
0001
0100
1100
0000
1000
0100
,
0101
0000
0001
0010
0110
0000
MMMM
0000
,
2000
0000
0000
0000
3010
0000
0000
0100
0010
0000
1000
0000
0001
0000
0100
0000
,
0102
0013
0102
0013
,
0100
0000
0010
0100
1000
0010
0100
0010
,
1020
0130
1020
0130
,
0010
0100
0000
2002
0000
0000
3000
0000
,
0103
0010
0100
0002
0000
0000
0003
0000
,
1200
0301
1200
0301
,
2002
0000
3003
0000
,
0001
0000
0000
0000
1000
0000
0000
0100
1000
0000
0001
0000
0100
0000
0001
0000
,
2000
0100
3001
0000
0002
0100
1003
0000
,
0001
0000
0000
0000
1000
0000
0000
0001
1000
0000
0100
0000
0010
0000
0001
0000
,
2000
0010
3001
0000
0002
0010
1003
0000
,
0001
0100
0000
2020
0000
0000
3030
0000
,
1000
0010
0100
0202
0000
0000
0303
0000
,
1002
0013
2001
3010
,
4000
0004
0000
0000
0000
0000
0000
0000
3003
0000
0000
0000
0000
0000
0000
0000
,
1000
0100
0001
0100
1000
0010
0100
1000
,
0100
0010
0001
0100
0020
0000
0030
0000
,
1002
0000
0000
0103
0000
0000
1000
0000
1020
0000
0000
0130
0000
0000
0010
0000
,
1002
1000
0100
1003
,
0000
1010
0000
0010
1000
0100
0001
0100
,
1000
0100
0010
0001
0100
0000
0010
0000
,
0102
0000
0000
0013
0100
0000
1000
0000
0020
0000
0000
0130
0001
0000
1000
0000
,
0100
0010
0100
0010
0001
1000
0001
1000
0001
0000
0000
0000
0000
0000
0000
0000
,
1010
0000
1000
0100
0110
0000
0100
0010
,
0011
0001
0101
0100
1001
0000
0000
0000
,
0101
0100
0010
1000
1010
0010
0100
0001
,
1001
0010
1001
0100
2002
0000
3003
0000
,
2000
0000
3100
1000
0020
0000
0031
0010
,
0200
0000
1300
0100
0002
0000
1003
0001
,
0020
0100
0001
0100
,
0031
0010
0010
0100
0100
1000
1000
0001
,
0101
0000
0001
0100
0110
0000
0010
1000
,
1100
0100
0010
0100
1001
0000
0000
0000
,
1010
0010
0100
0001
0011
0010
0100
1000
,
1001
0010
1001
0100
2002
0000
3003
0000
,
0002
0000
0103
0010
2000
0000
3100
0010
,
0002
0000
0013
1000
0020
0000
0130
1000
,
0020
0100
1000
0100
,
0000
1030
1000
0001
0001
0010
0010
0100
,
1001
0110
1001
0110
,
0101
1010
1100
0011
,
0004
4000
0000
0000
0000
0000
0000
0000
0000
0000
0000
0000
0000
0000
0000
0000
,
0000
0000
3003
0000
,
0001
0001
1000
0010
0100
0100
0010
1000
,
0002
0000
0013
0100
2000
0000
0100
0000
,
3001
0000
0100
0001
0100
0000
0001
0000
1000
0000
0100
1000
0100
0000
1000
0000
,
0001
0000
1000
0010
1000
0000
0001
0000
0020
0000
0000
0000
0030
0000
0000
0000
,
0100
0100
1000
0001
1000
1000
0001
0100
,
0020
0000
1030
0001
0020
0000
0100
0000
,
0031
0000
1000
0001
1000
0000
0001
0000
0100
0000
0010
0100
0010
0000
0100
0000
,
0001
0000
1000
0010
1000
0000
0001
0000
0020
0000
0000
0000
0030
0000
0000
0000
,
0100
0000
1000
0000
0100
0000
0010
0000
0100
0000
1000
0100
0010
0000
0001
0000
,
1000
0000
1002
1003
0000
1002
1003
0010
,
2000
0000
0000
0000
0100
0000
0000
3010
0200
0000
0000
0000
0010
0000
0000
0000
,
0302
0023
0230
2300
,
3002
0000
0000
0100
0000
0000
0010
0000
0000
1000
0000
0000
0103
0000
0000
0000
,
2000
0000
0000
0100
0000
0000
0010
0000
0000
0001
0000
0000
3100
0000
0000
0000
,
1000
0001
1000
0001
0100
0010
0100
0010
1000
0001
1000
0001
0100
0010
0100
0010
,
4000
0004
0000
0000
0000
0000
0000
0000
3003
0000
0000
0000
0000
0000
0000
0000
,
1001
0000
1000
0010
0101
0000
0001
0010
,
1100
0100
0110
0010
2002
0000
3003
0000
,
0101
0010
1000
0100
0011
0100
1000
0001
,
1001
0100
1001
0010
2002
0000
3003
0000
,
0002
0000
0103
0010
2000
0000
3001
0100
,
2000
0000
3100
0001
0020
0000
0031
1000
,
0002
0100
0010
1000
,
0003
0010
0010
0100
0100
1000
1000
0001
,
1001
0000
1000
0001
0011
0000
0001
0010
,
0110
0010
0011
0010
1100
0000
0000
0000
,
1010
0010
0100
0001
0011
1100
0100
1000
,
1010
0010
0110
0100
2002
0000
3003
0000
,
0002
0000
1003
0100
0020
0000
0130
1000
,
0020
0000
0031
0010
2000
0000
3010
0100
,
0002
0100
0010
1000
,
0003
1000
1000
0100
0100
0010
0010
0001
,
1010
0101
0011
1100
,
1001
0110
1001
0110
,
4000
0004
0000
0000
0000
0000
0000
0000
0000
0000
0000
0000
0000
0000
0000
0000
,
0000
0000
0000
3003
,
0101
1010
1100
0011
,
0110
1001
0110
1001
,
0040
0400
0000
0000
0000
0000
0000
0000
0000
0000
0000
0000
0000
0000
0000
0000
,
0000
0000
0000
0330
;
