#TITLE:Toxic;
#SUBTITLE:;
#ARTIST:Bossfight;
#TITLETRANSLIT:;
#SUBTITLETRANSLIT:;
#ARTISTTRANSLIT:;
#GENRE:;
#CREDIT:;
#MUSIC:Toxic.ogg;
#BANNER:;
#BACKGROUND:;
#CDTITLE:;
#SAMPLESTART:54.436;
#SAMPLELENGTH:19.158;
#SELECTABLE:YES;
#OFFSET:-0.018;
#BPMS:0.000=150.000;
#STOPS:176.000=0.200
,176.500=0.200
;
#BGCHANGES:;
#FGCHANGES:;

//--------------- dance-single - Pandemonium X ----------------
#NOTES:
     dance-single:
     Pandemonium X:
     Beginner:
     5:
     0,0,0,0,0:
0000
0000
0000
0000
,
0000
0000
0000
0000
,
0000
0000
0000
0000
,
0000
0000
0000
0000
,
0110
0000
0000
0000
,
0001
0001
0001
0000
,
1000
0000
0000
0000
,
0000
0000
0000
0000
,
0010
0010
0100
0000
,
0000
0000
0000
0000
,
0001
0001
1000
0000
,
0000
0000
0000
0000
,
0100
0100
0010
0000
,
0000
0000
0000
0000
,
0001
0000
0000
0000
1000
0000
0000
0010
,
0000
0100
0000
0000
,
0010
0000
0000
0000
,
0000
0000
0000
0000
,
1001
0000
0000
0000
,
0000
0000
0000
0000
,
0100
0000
0010
0000
,
0100
0100
0010
0010
,
1001
0000
0000
0000
,
0000
0000
0000
0000
,
0110
0000
0010
0000
,
0000
1000
0001
0000
,
0010
0000
0100
0000
,
0000
1000
0100
1000
,
0010
0000
0100
0000
,
0000
0010
0100
0000
,
0001
0000
0000
0001
0000
0000
0001
0000
,
0000
0001
0000
0000
0000
0000
0000
0000
,
1000
0000
0000
0000
,
0000
0000
0000
0000
,
0010
0000
0000
0000
,
0100
0000
0000
0000
,
0001
0000
0000
0000
,
1000
0000
0000
0000
,
0010
0000
0000
0010
0000
0000
0010
0000
,
0000
0010
0000
0000
0000
0000
0000
0000
,
0100
0000
0000
0100
0000
0000
0100
0000
,
0000
0100
0000
0000
0000
0000
0000
0000
,
1001
0000
0000
0001
0000
0000
0001
0000
,
0000
0001
0000
0000
0000
0000
0000
0000
,
1000
0001
0000
0000
,
0000
0000
0000
0110
,
0000
0000
0000
0000
,
0000
0000
0000
0010
,
0000
0000
0000
0000
,
0000
0000
0000
1000
,
0000
0000
0000
0000
,
0000
0000
0000
0001
,
0000
0000
0000
0000
,
0000
0000
0000
0010
,
0000
0010
0000
0010
,
0010
0010
0000
1001
,
0000
0100
0000
0100
,
0100
0100
0000
1001
,
0000
0110
0000
0001
,
0000
1000
0000
0010
,
0000
0000
0000
0000
,
0000
0000
0000
0110
,
0000
0000
0000
0000
,
0000
1000
0001
0110
,
0000
0010
0000
0000
,
0000
0000
1000
0100
,
0000
0010
0000
0000
,
0000
0000
0001
0100
,
0000
0010
0000
0000
,
0000
0000
0000
1000
,
1000
1000
0000
0001
,
0000
1000
0000
0110
,
0000
0000
0000
0010
,
0000
0000
0000
0100
,
0000
0000
0000
0001
,
0000
0000
0000
1001
,
0000
0000
0000
1000
,
0000
0000
0000
0010
,
0000
0000
0000
1000
,
0000
0001
0000
0000
;

//--------------- dance-single - Pandemonium X ----------------
#NOTES:
     dance-single:
     Pandemonium X:
     Easy:
     9:
     0,0,0,0,0:
0000
0000
0000
0000
,
0000
0000
0000
0000
,
0000
0000
0000
0000
,
0000
0000
0000
0000
,
1001
0000
0000
0000
,
0001
0001
1000
0001
,
0000
0000
1000
0010
1000
0000
0010
0000
,
1000
0100
0010
0001
1000
0000
1000
0000
,
0101
0000
1010
0000
1100
0000
0000
1000
,
0000
0000
1000
0000
0000
1000
0000
0000
,
1001
0000
0011
0000
1010
0000
0000
1000
,
0000
0000
0001
0000
0000
0010
0000
0000
,
1001
0000
0011
0000
0101
0000
0000
0001
,
0000
0000
0100
0000
0000
0010
0000
0000
,
0100
0001
1000
0000
1001
0000
0000
1010
,
0000
0000
0110
0000
0000
0101
0000
0000
,
1001
1000
0001
0010
,
0001
0000
0100
0000
0010
0000
1000
0001
,
1000
0001
0010
0001
,
0100
0010
1000
0001
,
1001
0010
1001
0100
,
1001
0110
1001
0110
,
0000
0000
0001
0100
0001
0000
0100
0000
,
0001
0010
0100
1000
0001
0000
1001
0000
,
1000
0001
0100
0001
,
0010
0000
0100
0000
1000
1000
1000
0000
,
0100
1000
0010
0100
,
0010
0000
1000
0000
0001
0010
0100
0000
,
0010
0001
0100
0010
,
1000
0000
0001
0000
0010
0010
0010
0000
,
0011
0000
0000
1100
0000
0000
0011
0000
,
0000
1100
0000
0000
1000
0000
0100
0000
,
2002
0000
0000
0000
,
0000
0000
3003
0000
,
0001
0100
0100
0010
,
0010
1000
1000
1001
,
0011
0010
0010
0100
,
0000
1001
0000
0001
2000
0000
3002
0000
,
0103
0000
0001
1000
0000
0001
1000
0000
,
0001
1000
0000
0001
1000
0000
1001
0000
,
0110
0000
0010
0100
0000
0010
0100
0000
,
0010
0100
0000
0010
0100
0001
1000
1000
,
1001
0000
1000
0001
0000
1000
0001
0000
,
1000
0001
0000
1000
0001
0000
1000
0000
,
1000
0001
0200
0000
0000
0320
0000
0000
,
2030
0000
0000
3002
0000
0000
1003
0000
,
0000
0100
0000
0010
,
0000
0001
0000
0010
,
0000
0001
0000
0100
,
0000
0010
0000
1000
,
0001
0010
0001
1000
,
0100
0010
0001
1000
,
0100
0001
0100
1000
,
0010
0100
0001
1001
,
0000
0110
0000
0001
,
0001
1000
1000
0110
,
0000
1001
0000
1000
,
1000
0001
0001
1001
,
0011
1001
1010
1001
,
0110
1001
0110
0000
,
0001
0100
0001
0000
0100
0000
0001
0010
,
0100
1000
0001
0000
1001
0000
0220
0000
,
0000
0000
0000
0000
,
0330
0000
1000
0001
0110
0000
1001
0000
,
1000
0000
0101
0000
0000
0011
0000
0000
,
1100
0000
0000
0010
0200
0000
0310
0000
,
1000
0000
0101
0000
0000
0011
0000
0000
,
0110
0000
0000
0100
0020
0000
0031
0000
,
1001
0000
0101
0000
0000
0011
0000
0000
,
0110
0000
0000
1100
0200
0000
1300
0000
,
1000
0000
1001
0000
0000
0011
0000
0000
,
0110
0000
0000
0012
0000
0000
1003
0000
,
0000
0001
0000
0100
,
0001
0100
0000
0010
,
0000
1000
0000
0001
,
0010
0100
1000
0001
,
0000
1000
0000
0010
,
1000
0010
0000
1000
,
0000
0001
0000
0010
,
0100
1100
0000
0000
;

//--------------- dance-single - Pandemonium X ----------------
#NOTES:
     dance-single:
     Pandemonium X:
     Medium:
     12:
     0,0,0,0,0:
0000
0000
0000
0000
,
0000
0000
0000
0000
,
0000
0000
0000
0000
,
0000
0000
0000
0000
,
0110
0000
0000
0000
,
0001
1000
0001
1000
0001
0000
1000
0000
,
0000
0000
0001
0010
0001
0000
0100
0000
,
0001
0100
0010
1000
1001
0000
0110
0000
,
1001
0000
1001
0000
0110
0000
0000
0002
,
0000
0000
0023
0000
0000
0230
0000
0300
,
1100
0000
0011
0000
1001
0000
0000
2000
,
0000
0000
3020
0000
0000
0230
0000
0300
,
1001
0000
0110
0000
1001
0000
0000
0002
,
0000
0000
2003
0000
0000
3020
0000
0030
,
1001
0000
0110
0000
1001
0000
0000
0021
,
0000
0030
1200
0000
1300
0100
1000
0001
,
0100
0000
0001
0000
0010
0001
0100
0000
,
0010
0000
1000
0000
0100
0000
0000
0000
0010
0000
0001
0000
0100
0000
0010
1000
,
0010
0000
0000
0000
1000
0001
0100
0000
,
0001
1000
0100
0000
1000
0001
0100
0000
,
1001
0101
0011
0110
,
0100
0000
0000
1000
0000
0000
0010
0000
0000
0100
0000
0000
0010
0000
1000
0000
,
0001
0000
1000
0001
0010
0000
0100
0000
,
1000
0100
0010
0001
0011
0000
1010
0000
,
1001
0000
0000
0001
0000
0000
1000
0000
0000
0010
0000
0000
1000
0000
0000
0001
,
0000
0000
0010
0000
0000
0100
0000
0000
0010
0000
0010
0000
0001
0000
0000
0000
,
0100
0000
0000
0010
0000
0000
1000
0000
0000
0001
0000
0000
0010
0000
0000
0001
,
0000
0000
1000
0000
0000
0100
0000
0000
1000
0000
0010
0000
0100
0000
0000
0000
,
1001
0000
0000
0001
0000
0000
1000
0000
0000
0010
0000
0000
1000
0000
0000
0100
,
0000
0000
0010
0000
0000
0001
0000
0000
1000
0000
1000
0000
0010
0000
0000
0000
,
0110
0000
0000
0101
0000
0000
1010
0000
,
0000
0000
0101
0000
0000
0000
0000
0000
0001
0000
1000
0000
0200
0000
0000
0300
,
0012
0000
0000
0000
,
0000
0000
0000
0000
0000
0000
0000
0000
1003
0001
1000
0001
1000
0000
0000
0000
,
1001
0101
1010
0101
,
1010
0101
1010
0110
,
1001
1100
0011
1100
,
0011
1001
0101
1100
,
1001
0000
1000
1001
0000
0001
1001
0000
,
1000
1100
0000
0100
0110
0000
1001
0000
,
1010
0000
1000
1010
0000
0010
0110
0000
,
0100
0101
0000
0001
0011
0000
0010
0100
,
1100
0000
1000
1001
0000
0001
1001
0000
,
1000
1001
0000
0001
1001
0001
0100
0000
,
1001
0110
1001
0000
0000
0101
0000
0000
,
0011
0000
0000
1100
0000
0000
1001
0000
,
1000
0001
0010
0001
,
0100
0010
1000
0010
,
0100
0001
1000
0100
,
0010
0000
0100
0000
1000
0000
0001
1000
,
0001
0000
0000
0000
1000
0000
0000
0010
0000
0000
1000
0000
0000
0001
0000
0000
,
0010
0000
0000
0100
0000
0000
0010
0000
0000
0001
0000
0000
0100
0000
0001
0000
,
1000
0000
0000
0000
0001
0000
0000
1000
0000
0000
0010
0000
0000
0100
0000
0000
,
0001
0000
0000
1000
0000
0000
0002
0000
0000
0000
0000
0000
0103
0000
0000
0000
,
0000
1000
0010
0100
0000
0010
1000
0001
,
0010
0100
1100
0000
0101
0000
1001
0000
,
0000
0001
1000
0010
0000
1000
0001
0010
,
0100
1000
1100
0000
0101
0000
1001
0001
,
1000
0000
0010
0000
1000
0000
0001
0000
1000
0000
0010
0000
1000
0010
0000
1000
,
0010
0000
0100
0001
0000
0100
0001
0000
1000
0000
0001
0000
0011
0000
0000
0000
,
0001
0100
0001
0000
1000
0000
0001
0010
,
0100
1000
1100
0000
0101
0000
2002
0000
,
0000
0000
0000
0000
,
0000
3000
0003
1000
,
0101
0000
0000
0000
0001
0000
0000
1000
0000
0000
0010
0000
0000
1000
0000
0000
,
0100
0000
0000
0010
0000
0000
0100
0000
0000
0000
0000
0000
1001
0000
0000
0000
,
0101
0000
0000
0000
0001
0000
0000
0010
0000
0000
0001
0000
0000
0100
0000
0000
,
0010
0000
0000
1000
0000
0000
0002
0000
0023
0000
0000
0000
0130
0000
0000
0000
,
1100
0000
0000
0000
0100
0000
0000
1000
0000
0000
0001
0000
0000
0100
0000
0000
,
0001
0000
0000
1000
0000
0000
0001
0000
0010
0000
0000
0000
0110
0000
0000
0000
,
1001
0000
0201
0000
0301
1002
0000
1003
,
2010
0000
3000
0220
0000
0330
1001
0000
,
0001
1000
0001
0000
1000
0010
1000
0000
,
0100
0010
0100
0000
0011
0000
0101
0000
,
1000
0001
1000
0000
0001
0010
0001
0000
,
0010
0100
1000
0000
1001
0000
1100
0000
,
1000
0010
1000
0000
0010
0100
0010
0000
,
0100
0001
0100
0000
0000
0000
1001
0000
,
1000
0001
1000
0000
0001
0010
0001
0010
,
0100
1000
0001
0000
0000
0000
0000
0000
;

//--------------- dance-single - Pandemonium X ----------------
#NOTES:
     dance-single:
     Pandemonium X:
     Hard:
     13:
     0,0,0,0,0:
0000
0000
0000
0000
,
0000
0000
0000
0000
,
0000
0000
0000
0000
,
0000
0000
0000
0000
,
2002
0000
3003
0000
,
0001
1000
0001
1000
0001
0000
0010
0100
,
1000
0100
0001
0100
1000
0000
1010
0000
,
1000
0010
0001
0010
1010
0000
0011
0000
,
1001
0000
1001
0000
0102
0000
0000
0203
,
0000
0000
2300
0000
0000
3200
0000
0300
,
1001
0000
1001
0000
2100
0000
0000
3200
,
0000
0000
0302
0000
0000
0203
0000
0300
,
1100
0000
0101
0000
0012
0000
0000
0023
,
0000
0000
0230
0000
0000
2300
0000
3000
,
1001
0001
1000
0000
1010
0000
0000
0110
,
0000
0000
0101
0000
0001
0010
0100
1000
,
0010
1000
0001
0000
0010
0100
1000
0000
,
0100
0000
0010
0000
0001
0000
0000
0000
0010
0000
0001
0000
0100
0000
0001
1000
,
0001
1000
0001
0000
0010
0100
1000
0000
,
0100
1000
0010
0000
0100
0001
0010
0000
,
0100
0100
1000
0010
0100
0100
0010
1000
,
0001
1000
0000
0010
0100
0000
0001
1000
0000
0010
0100
0001
1000
0100
0010
0001
,
1000
0001
0010
0100
1000
0000
1100
0000
,
1000
0100
0001
0100
1100
0000
0101
0000
,
1001
0000
1000
0100
0000
0000
1000
0000
0000
0010
0000
0000
0100
0000
0001
1000
,
0000
0000
0100
0000
0000
0010
0000
0000
0001
0000
1000
0000
0010
0000
0000
0000
,
0100
0000
0001
0010
0000
0000
0100
0000
0000
0010
0000
0000
0001
0000
1000
0001
,
0000
0000
0100
0000
0000
0001
0000
0000
1000
0000
0001
0000
0020
0000
0000
0000
,
0130
0000
1000
0010
0000
0000
0100
0000
0000
0010
0000
0000
1000
0000
0001
1000
,
0000
0000
0001
0000
0000
0010
0000
0000
0100
0000
1000
0001
0000
0000
1000
0000
,
2010
0000
3000
0201
0000
0300
0021
0000
,
0030
2100
0000
3000
1001
0000
0110
0000
,
2001
0001
0001
3001
,
1000
0001
0010
0100
1000
0000
0001
0000
,
1001
1010
0011
1010
,
0011
1010
0011
0110
,
1001
0101
1100
0101
,
1100
0000
1000
0000
0000
0001
0000
0000
2000
0000
0000
0000
3002
0000
0000
0000
,
1003
0000
0000
0000
0001
0100
0001
0000
0000
0000
1000
0010
1000
0000
0000
0000
,
0001
0100
0001
0000
0000
0000
1000
0010
1000
0000
0000
0000
1001
0000
0000
0000
,
1100
0000
0000
0000
1000
0100
1000
0000
0000
0000
0010
0001
0010
0000
0000
0000
,
1000
0100
1000
0000
0000
0000
0010
0001
0010
0000
0000
0000
0001
1000
0010
0100
,
0001
0000
0000
0000
1000
0001
1000
0000
0000
0000
0010
0100
0010
0000
0000
0000
,
1000
0001
1000
0000
0000
0000
0100
0010
0100
0000
0010
0000
0010
0000
0000
0000
,
1001
0110
1001
0000
0001
0020
0000
0130
,
2000
0000
3010
0200
0000
0300
1001
0000
,
1000
0100
1000
0010
,
0100
0001
0010
0100
,
0010
0001
0100
0010
,
1000
0000
0000
0000
0001
0000
0000
0000
0010
0000
0000
0000
0001
0000
0100
0001
,
0010
0000
0100
0000
1000
0001
0000
1000
0001
0000
0010
0100
0000
0010
0100
0000
,
0010
0100
0000
0010
0100
0000
0001
0100
0000
0001
1000
0000
1000
0000
0010
1000
,
0100
0000
0010
0000
0001
1000
0000
0001
1000
0000
0100
0010
0000
0100
0010
0000
,
0100
1000
0000
0100
0010
0000
0001
1000
0000
0010
1000
0000
1001
0000
0000
0000
,
0001
0100
1000
0000
1100
0000
1000
0100
,
0001
0010
1000
0010
0001
0000
1001
0000
,
0001
0010
1000
0000
1010
0000
1000
0010
,
0001
0100
1000
0100
0001
0000
1000
1000
,
0001
0000
0001
0010
0100
0000
0100
0000
0010
0000
0010
0001
1000
0001
0000
1000
,
0001
0000
1000
0001
0000
1000
0001
0000
1000
0000
0000
0000
0101
0000
0000
0000
,
0001
0010
1000
0000
1010
0000
1000
0010
,
0001
0100
0010
0000
1001
0000
0021
0000
,
0000
0000
0000
0000
,
0000
0000
0130
1000
0201
0000
0310
0000
,
1000
0000
0000
0000
0001
0000
0000
0100
0000
0000
0010
0000
0000
1000
0000
0000
,
0100
0000
0000
0010
0000
0000
0001
0000
0020
0000
0000
0000
0130
0000
0000
0000
,
1100
0000
0000
0000
1000
0000
0000
0001
0000
0000
0100
0000
0000
0001
0000
0000
,
0010
0000
0000
0100
0000
0000
1000
0000
0020
0000
0000
0000
0130
0000
0000
0000
,
1001
0000
0000
0000
0001
0000
0001
1000
0000
1000
0010
0000
0010
0100
0000
0001
,
0010
0000
0010
0100
0000
0000
1000
0000
0020
0000
0000
0000
0130
0000
0000
0000
,
1001
0000
0101
0000
0001
0012
0000
0013
,
0120
0000
0130
2100
0000
0000
3010
0000
,
0100
0001
0010
0000
0100
0000
1000
0100
,
0010
0001
1000
0000
0001
0000
1001
0000
,
1000
0100
0010
0000
0100
0000
1000
0001
,
0100
0001
0010
0100
1000
0000
1001
0000
,
0001
0010
0100
0000
0010
0000
0001
0100
,
0010
1000
0001
0010
0100
0000
0010
0000
,
0010
0001
0100
0000
0100
0010
1000
0001
,
0010
0100
1100
0000
0000
0000
0000
0000
;

//--------------- dance-single - Radioactive ----------------
#NOTES:
     dance-single:
     Radioactive:
     Challenge:
     16:
     0,0,0,0,0:
0000
0000
0000
0000
,
0000
0000
0000
0000
,
0000
0000
0000
0000
,
0000
0000
0000
0000
,
2001
0010
0001
0010
,
3001
0001
0001
0001
1000
0000
0001
0010
,
0000
0000
0001
0100
0010
0000
1000
0000
,
0001
0100
1000
0010
0001
0000
1001
0000
,
0101
0000
0000
0000
1010
0000
0000
0000
2100
0000
0000
0000
0000
3000
0201
0000
,
0000
0000
0000
0300
0021
0000
0000
0000
0000
0030
1002
0000
0000
0000
0000
0003
,
1001
0000
0000
0000
1001
0000
0000
0000
0201
0000
0000
0000
0000
0000
0300
1020
,
0000
0000
0000
0000
0030
0201
0000
0000
0000
0000
0300
1002
0000
0000
0000
0000
,
1003
0000
0000
0000
0011
0000
0000
0000
1200
0000
0000
0000
0000
0300
2010
0000
,
0000
0000
0000
3000
0201
0000
0000
0000
0000
0300
2001
0000
0000
0000
0000
0000
,
3001
0100
0001
1000
2001
0000
3000
0202
,
0000
0000
0000
0303
1020
0000
0000
0000
1030
0000
0100
0000
0010
0000
0001
0000
,
1100
0000
1000
0001
0100
0000
0001
0000
0010
0000
0100
1000
0001
0000
0100
0000
,
0010
0000
1000
0010
0100
0000
0001
0000
1000
0000
0001
0010
0100
0000
1000
0001
,
1001
0000
0001
0100
0010
0000
1000
0000
0001
0000
0010
0100
1000
0000
0100
0000
,
1000
0000
0001
1000
0010
0000
0100
0000
0001
0000
0010
0001
1000
0000
0100
0000
,
0110
0010
0011
0001
0101
0100
1001
0001
,
1000
0100
0000
0010
0001
0000
1000
0100
0000
0010
0001
1000
0100
0010
0001
1000
,
0001
1000
0001
0100
0001
0000
0011
0000
,
1000
0010
0001
0100
1000
0000
1001
0000
,
1010
0000
1000
1000
0000
0000
0001
0000
0000
1000
0000
0000
0010
0000
0100
0100
,
0000
0000
0010
0000
0000
1000
0000
0000
0001
0000
0001
0000
0001
0000
0000
0000
,
0010
0000
0001
0001
0000
0000
0010
0000
0000
0001
0000
0000
0100
0000
0010
0010
,
0000
0000
0100
0000
0000
0010
0000
0000
1000
0000
1000
0000
0201
0000
0000
0000
,
0310
0000
1000
1000
0000
0000
0100
0000
0000
0010
0000
0000
0001
0000
0100
0100
,
0000
0000
0010
0000
0000
1000
0000
0000
0100
0000
0010
0010
0000
0000
0001
0000
,
0022
0000
0000
0000
0000
0033
2200
0000
0000
0000
0000
3300
0220
0000
0000
0000
,
0000
0330
2002
0000
0000
0000
0003
0000
3001
0000
0100
0000
0010
0100
0001
1000
,
0001
0000
0010
0100
0000
0100
1000
0010
0000
0100
0001
0000
1000
0010
0000
1000
,
0001
1000
0001
1000
0001
1000
0001
1000
0001
0010
0100
1000
0002
0000
0000
0000
,
1003
0000
0000
0000
0201
0000
0000
1300
0200
0000
0000
0301
0200
0000
0000
1300
,
0200
0000
0000
0301
0200
0000
0000
1300
0200
0000
0000
0300
0220
0000
0000
0330
,
2002
0000
0000
3003
0021
0000
0000
1030
0020
0000
0000
0031
0020
0000
0000
0030
,
1010
0000
0021
0030
0000
0000
0001
0000
1002
0000
0000
0000
4000
0000
0003
0000
,
3001
0000
0001
110M
0000
1000
M101
0000
,
0001
110M
0000
1000
M101
0010
MMMM
0000
,
2001
0000
3001
101M
0000
1000
M011
0000
,
0001
0000
101M
0000
0000
0000
1000
0000
1001
0000
0001
0000
1000
0010
0100
0001
,
1000
0000
0100
1M01
0000
0010
10M1
0000
,
0100
1M01
0000
0010
10M1
1100
0101
0000
,
1001
M11M
2001
0000
3001
0201
0000
0310
,
2001
0000
0000
0000
3100
0000
1200
0000
0000
0000
0000
0000
0310
0000
0001
0100
,
0001
1000
0001
0000
1000
0001
0000
0010
0100
0000
1000
0010
0000
0100
0001
0000
,
0010
0100
0000
1000
0100
0000
0010
0001
0000
0100
0001
0000
1000
0000
0100
0010
,
0100
1000
0001
0000
0100
0001
0000
0010
0100
0000
1000
0100
0000
0010
0001
0000
,
0100
0010
0000
1000
0001
0000
0010
0100
0000
0100
1000
0000
1001
0000
0001
0100
,
1000
0100
0001
0000
1000
0010
0000
0010
0001
0000
0001
0010
0000
0010
1000
0000
,
1000
0010
0000
0010
0001
0000
0001
0010
0000
0010
1000
0000
1001
0000
1000
0100
,
0001
0100
1000
0000
1000
0100
0000
0100
0001
0000
0001
0100
0000
0100
1000
0000
,
1000
0100
0000
0100
0001
0000
0001
1000
0000
0100
1000
0000
1001
0000
0001
1000
,
0001
0000
1000
0000
0100
0000
0010
0001
0010
0000
0001
0000
1000
0000
0010
0100
,
0010
0000
0100
0000
0001
0000
1000
0100
1000
0000
0010
0100
0110
0000
0001
1000
,
0001
0000
1000
0000
0100
0000
0010
0001
0010
0000
0100
0000
1000
0000
0010
0100
,
0010
0000
0100
0000
0001
0000
1000
0001
1000
0001
1000
0000
1001
0000
1001
0000
,
0110
0000
0001
1000
1001
0000
1001
0000
0110
0000
1000
0001
1000
0010
0000
0010
,
0001
0000
0001
0010
0000
0010
1000
0000
0001
0100
0010
1000
0100
0000
0000
0000
,
0010
0100
1000
0000
1001
0000
1000
0100
,
0001
0000
0010
0000
1000
0000
0000
0000
1001
0000
0000
0000
0101
0000
0100
0001
,
0100
0010
1000
0000
0010
1000
0000
0001
0100
0000
0010
1000
0000
0001
0100
0000
,
0010
1000
0000
0001
0100
0000
0010
0000
1001
0000
0110
0000
1001
0000
0000
0000
,
0210
0000
0300
0000
0101
0000
0000
0011
0000
0000
1100
0000
0000
1010
0000
0000
,
1001
0000
0000
0011
0000
0000
0100
0000
MMMM
0000
0000
0000
1001
0000
0000
0000
,
0110
0000
0000
0000
1010
0000
0000
0101
0000
0000
0011
0000
0000
0101
0000
0000
,
0011
0000
0000
0101
0000
0000
4000
0000
0040
0000
0000
3030
0101
0000
0000
0000
,
1001
0000
0000
0000
1010
0000
1000
0010
0000
0100
0001
0000
0010
0100
0000
0010
,
0001
0000
0100
0010
0000
1000
0001
0000
0010
0000
0100
0000
2200
0000
0000
3300
,
0022
0000
0000
0033
2100
0000
0000
0000
0000
3000
0102
0000
0000
0000
0000
0003
,
1020
0000
0000
0000
0000
0030
2001
0000
0000
0000
0000
0000
3001
0000
0000
0000
,
0010
0000
0100
0000
1000
0000
0000
0001
0100
0000
0001
0000
1000
0000
0000
0100
,
1000
0001
0100
0001
1000
0000
0001
0000
,
1000
0000
0010
0000
0100
0000
0000
0000
0001
0000
0010
0000
0100
0000
0000
0010
,
0001
0100
0010
1000
0001
0000
1100
0000
,
0100
0000
1000
0000
0010
0000
0000
0000
0100
0000
0010
0000
1000
0000
0000
0010
,
0100
0000
0001
0000
0010
0000
0000
0100
0010
0000
0000
0000
0100
0000
0000
0000
,
1000
0001
0100
0000
0010
1000
0001
0000
,
0010
0100
1001
0000
0000
0000
0000
0000
;
