#TITLE:TOUR DE FRANCE (feat. Sascha);
#SUBTITLE:;
#ARTIST:80KIDZ;
#TITLETRANSLIT:;
#SUBTITLETRANSLIT:;
#ARTISTTRANSLIT:;
#GENRE:;
#CREDIT:;
#MUSIC:TOUR DE FRANCE (feat. Sascha).ogg;
#BANNER:;
#BACKGROUND:;
#CDTITLE:;
#SAMPLESTART:52.518;
#SAMPLELENGTH:15.001;
#SELECTABLE:YES;
#OFFSET:-0.013;
#BPMS:0.000=127.989;
#STOPS:;
#BGCHANGES:;
#FGCHANGES:;

//--------------- dance-single - Pandemonium X ----------------
#NOTES:
     dance-single:
     Pandemonium X:
     Beginner:
     2:
     0,0,0,0,0:
0000
0000
0000
0000
,
0000
0000
0000
0000
,
0000
0000
0000
0000
,
0000
0000
0000
0000
,
0001
0000
1000
0000
,
0001
0001
0001
0000
,
1000
0000
0001
0000
,
1000
1000
1000
0000
,
0010
0000
0100
0000
,
0010
0010
0010
0000
,
0100
0000
0010
0000
,
0100
0100
0100
0000
,
0001
0000
0000
0000
,
1000
0000
0000
0000
,
0100
0000
0000
0000
,
0001
0000
0000
0000
,
0100
0000
0000
0000
,
1000
0000
0000
0000
,
0010
0000
0000
0000
,
0100
0000
0000
0000
,
0001
0000
1000
0000
,
0001
0000
1000
0000
,
0001
0000
1000
0000
,
0001
0000
1000
0000
,
0010
0010
0010
0000
,
0100
0100
0100
0000
,
0001
0001
0001
0000
,
1000
1000
1000
0000
,
0110
0000
0000
0000
,
0100
0000
0000
0000
,
0010
0000
0000
0000
,
1000
0000
0000
0000
,
0010
0000
0000
0000
,
0100
0000
0000
0000
,
0001
0000
0000
0000
,
1000
0000
0000
0000
,
0010
0000
0000
0000
,
0100
0000
0000
0000
,
1001
0000
0000
0000
,
0000
0000
0000
0000
,
0010
0000
0000
0000
,
0100
0000
0000
0000
,
0001
0000
0000
0000
,
1000
0000
0000
0000
,
0100
0000
0000
0000
,
0010
0000
0000
0000
,
0100
0000
0000
0000
,
1000
0000
0000
0000
,
0001
0000
0000
0000
,
1000
0000
0010
0000
,
0100
0000
0000
0000
,
0010
0000
1000
0000
,
0100
0000
0000
0000
,
0010
0000
0001
0000
,
1000
0000
0000
0000
,
0010
0000
0100
0000
,
0001
0000
0000
0000
,
1000
0000
0001
0000
,
1000
0000
0000
0000
,
0010
0000
0100
0000
,
0010
0000
0000
0000
;

//--------------- dance-single - Pandemonium X ----------------
#NOTES:
     dance-single:
     Pandemonium X:
     Easy:
     4:
     0,0,0,0,0:
0000
0000
0000
0000
,
0000
0000
0000
0000
,
0000
0000
0000
0000
,
0000
0000
0000
0000
,
0001
0001
0001
0000
,
1000
1000
1000
0000
,
0010
0010
0010
0000
,
0100
0100
0100
0000
,
0001
0100
0001
0000
,
1000
0010
1000
0000
,
0100
0010
0100
0000
,
0010
0010
0010
0000
,
0001
0000
1000
0000
,
0010
0000
1000
0000
,
0100
0000
0010
0000
,
0100
0000
1000
0000
,
0001
0000
0100
0000
,
0010
0000
1000
0000
,
0100
0000
0010
0000
,
0001
0000
0010
0000
,
0200
0000
0000
0300
,
2000
0000
0000
3000
,
0020
0000
0000
0030
,
0200
0000
0000
0300
,
0001
1000
0020
0030
,
1000
0001
0200
0300
,
0001
0010
0200
0300
,
0010
0100
2000
3001
,
0100
0010
1000
0001
,
0000
1000
0100
0010
,
0000
0100
1000
0001
,
0000
1000
0010
0100
,
0000
1000
0100
0001
,
0000
0010
0100
1000
,
0000
0100
0010
0001
,
0000
0010
0001
0100
,
0000
0010
0000
0010
,
0000
0010
0000
0010
,
0000
0000
0000
0000
,
0000
0000
0000
0000
,
1000
0000
0001
0000
,
0010
0000
0001
0100
,
0010
0000
1000
0000
,
0100
0000
0010
0100
,
1000
0000
0001
0000
,
0100
0000
0010
0100
,
0001
0000
1000
0000
,
0100
0000
1000
0010
,
0100
0001
0002
0003
,
0010
0100
0010
0001
,
1000
0010
0020
0030
,
0100
0010
1000
0001
,
1000
0010
0020
0030
,
0100
0001
0010
0100
,
1000
0001
0002
0003
,
0100
0001
0010
0100
,
1000
0001
0000
1000
,
0000
0010
0000
0100
,
0000
0001
0000
1000
,
0000
0100
0000
0020
,
0000
0000
0000
0000
,
0000
0030
0000
0000
0000
0000
0000
0000
;

//--------------- dance-single - Pandemonium X ----------------
#NOTES:
     dance-single:
     Pandemonium X:
     Medium:
     8:
     0,0,0,0,0:
0000
0000
0000
0000
,
0000
0000
0000
0000
,
0000
0000
0000
0000
,
0000
0000
0000
0000
,
0011
0011
0011
0000
,
1100
0000
1100
0000
1100
0000
0001
1000
,
1001
1001
1001
0000
,
1010
0000
1010
0000
1010
0000
1000
0010
,
0110
0110
0110
0000
,
0101
0000
0101
0000
0101
0000
0001
0010
,
0011
0011
0011
0000
,
1001
0110
1001
0000
,
0001
0100
0010
1000
,
1100
1000
0010
0100
,
0101
0001
0010
0100
,
1100
0000
0100
0000
1000
0000
0010
0100
,
0001
1000
0001
0010
,
0110
0010
0001
1000
,
1010
1000
0010
0100
,
0001
0000
0000
1000
0000
0000
0001
0000
0000
0100
0000
0000
0010
0000
0000
1000
,
0001
0010
0200
0300
,
0010
0100
2000
3000
,
0010
0100
0002
0003
,
1000
0001
0020
0030
,
0100
1000
0020
0130
,
0010
1000
0002
0013
,
0100
0010
0200
1300
,
0010
0100
0001
1010
,
1000
0000
0100
0000
1000
0000
0010
0100
,
0001
0000
0010
0000
0100
0000
1000
0100
,
0001
0000
0100
0000
1000
0000
0010
0100
,
0001
0000
1000
0000
0001
0000
0010
0100
,
1000
0000
0100
0000
0001
0000
0100
1000
,
0010
0000
0100
0000
0001
0000
0100
0001
,
1000
0000
0100
0000
0010
0000
0100
1000
,
0010
0001
0010
0100
,
0001
1000
0100
1000
,
0001
0100
0001
1000
,
0000
0000
0000
0010
0000
0000
0010
0000
0000
0010
0000
0000
0010
0000
0000
0010
,
0000
0000
0000
0000
,
1000
0000
0100
0000
0010
0001
0010
0000
,
0001
0000
0100
0000
0010
0100
0010
1000
,
0010
0000
0100
0000
0001
1000
0001
0000
,
1000
0000
0100
0000
0010
0001
0010
0100
,
0010
0000
0001
0000
0100
0010
0100
0000
,
0010
0000
1000
0000
0001
0100
0001
0100
,
0010
0000
0100
0000
0010
1000
0010
1000
,
0100
0000
0010
0000
0001
0010
0001
0000
,
1000
0000
0000
0001
0000
0000
0100
0000
0100
0000
0000
0000
0000
0000
0000
0000
,
0010
0000
0000
1000
0000
0000
0100
0000
0010
0000
0000
0000
0011
0000
0000
0000
,
0001
0000
0000
0010
0000
0000
0100
0000
0100
0000
0000
0000
0000
0000
0000
0000
,
0010
0000
0000
0001
0000
0000
1000
0000
0010
0000
0000
0000
0101
0000
0000
0000
,
0001
0000
0000
1000
0000
0000
0010
0000
0010
0000
0000
0000
0000
0000
0000
0000
,
0100
0000
0000
0010
0000
0000
1000
0000
0100
0000
0000
0000
0011
0000
0000
0000
,
0001
0000
0000
1000
0000
0000
0100
0000
0100
0000
0000
0000
0000
0000
0000
0000
,
0010
0000
0000
0100
0000
0000
1000
0000
0010
0000
0000
0000
0101
0000
0000
0000
,
0001
1000
0010
1000
,
0001
0100
0001
0010
,
0100
0010
0001
1000
,
0010
0000
0100
0000
0001
0000
1000
0020
,
0000
0000
0000
0000
,
0000
0000
0000
0030
0000
0000
0000
0000
0000
0000
0000
0000
0000
0000
0000
0000
;

//--------------- dance-single - Pandemonium X ----------------
#NOTES:
     dance-single:
     Pandemonium X:
     Hard:
     11:
     0,0,0,0,0:
0000
0000
0000
0000
,
0000
0000
0000
0000
,
0000
0000
0000
0000
,
0000
0000
0000
0000
,
1001
0011
1001
0001
,
1010
0000
0110
0000
1010
0000
0010
1000
,
1100
0110
0011
0001
,
0101
0000
0011
0000
1100
0000
0001
0100
,
0110
1010
0110
0010
,
0101
0000
0011
0000
1001
0000
0001
0100
,
0101
0000
1100
0000
0011
0000
0001
1000
,
0010
0010
0010
0000
,
0000
0000
0000
1000
0000
0000
1000
0000
0000
0001
0000
0000
0001
0000
0000
0010
,
0000
0000
0000
0100
0000
0000
0100
0000
0000
1000
0000
0000
0010
0000
0000
0100
,
0000
0000
0000
0010
0000
0000
0010
0000
0000
1000
0000
0000
0001
0000
0000
0001
,
0000
0000
0000
0010
0000
0000
0010
0000
0000
0100
0000
0000
0010
0000
0000
0001
,
0000
0000
0000
1000
0000
0000
1000
0000
0000
0010
0000
0000
0100
0000
0000
0001
,
0000
0000
0000
0010
0000
0000
0010
0000
0000
0100
0000
0000
1000
0000
0000
0001
,
0000
0000
0000
0100
0000
0000
0100
0000
0000
0010
0000
0000
1000
0000
0000
0001
,
0000
0000
0000
0010
0000
0100
0010
0000
0100
0010
0000
0100
0010
0000
0100
1000
,
0002
0000
0000
2003
0000
0000
3010
0000
0200
0000
0000
0301
0000
0000
0000
0000
,
0020
0000
0000
0230
0000
0000
1300
0000
0002
0000
0000
0103
0000
0000
0000
0000
,
0020
0000
0000
2030
0000
0000
3100
0000
2000
0000
0000
3001
0000
0000
0000
0000
,
0200
0000
0000
0302
0000
0000
0013
0000
0200
0000
0000
0310
0000
0000
0000
0000
,
0001
0010
0000
0001
0010
0000
0000
0000
0001
0000
0000
0000
0100
0000
0000
0000
,
0010
1000
0000
0010
1000
0000
0000
0000
0100
0000
0000
0000
1000
0000
0000
0000
,
0001
1000
0000
1000
0010
0000
0000
0000
0100
0000
0000
0000
0010
0000
0000
0000
,
1000
0100
0000
0100
0010
0000
0000
0000
0002
0000
0000
0000
0013
0000
0000
0000
,
0201
0000
0000
0001
0000
0000
0001
0000
0000
0001
0000
0000
0301
0000
0000
0011
,
0000
0000
0000
1200
0000
0000
1000
0000
0000
1000
0000
0000
1300
0000
0000
1001
,
0000
0000
0000
1020
0000
0000
1000
0000
0000
1000
0000
0000
1030
0000
0000
1100
,
0000
0000
0000
0012
0000
0000
0010
0000
0000
0010
0000
0000
0013
0000
0000
1100
,
0000
0000
0000
1002
0000
0000
0100
0000
0000
1000
0000
0000
0103
0000
0000
1010
,
0000
0000
0000
2100
0000
0000
0001
0000
0000
0100
0000
0000
3001
0000
0000
0101
,
0000
0000
0000
0021
0000
0000
0100
0000
0000
0001
0000
0000
0130
0000
0000
1100
,
0000
0000
0000
1020
0000
0000
1000
0000
0000
0100
0000
0000
1030
0000
0000
1001
,
0000
0000
0000
0001
0000
0000
0010
0000
0000
0100
0000
0000
1000
0000
0000
1001
,
0000
0000
0000
1000
0000
0000
0100
0000
0000
0010
0000
0000
0001
0000
0000
1001
,
0000
0000
0000
0001
0000
1000
0001
0000
0001
1000
0000
1000
0001
0000
0001
0100
,
0000
0000
0000
2020
0000
0000
0000
0000
0000
0000
0000
0000
3030
0000
0000
0000
,
1000
0000
0100
0000
0010
0100
1000
0001
,
0100
0000
0001
0000
0010
0001
0100
0010
,
1000
0000
0001
0000
0010
0001
1000
0100
,
0010
0000
0001
0000
0010
0001
0100
0001
,
1000
0001
1000
0000
0001
0100
1000
0100
,
0001
1000
0001
0000
1000
0100
0001
0100
,
1000
0010
1000
0000
0010
0100
0001
0010
,
0100
0010
0001
0000
1000
0100
0010
0100
,
1000
0000
0001
0100
0000
0001
0010
0000
0020
0000
0000
0000
0030
0000
0000
0000
,
0100
0000
1000
0100
0000
0100
1000
0000
0001
0000
0100
0000
0001
0000
1000
0000
,
0001
0000
0010
0001
0000
0010
0100
0000
0200
0000
0000
0000
0300
0000
0000
0000
,
0010
0000
0001
0010
0000
0001
0100
0000
0010
0000
0100
0000
0001
0000
0010
0000
,
0100
0000
1000
0100
0000
0010
0100
0000
0200
0000
0000
0000
0300
0000
0000
0000
,
0010
0000
0001
0010
0000
0001
0100
0000
0010
0000
0010
0000
1000
0000
0001
0000
,
0010
0000
0100
0010
0000
0001
1000
0000
2000
0000
0000
0000
3000
0000
0000
0000
,
0010
0000
1000
0010
0000
0100
0010
0000
0100
0000
0100
0000
0001
0000
0010
0000
,
0100
0000
0000
1000
0000
0001
0200
0000
0000
0000
0000
0000
0300
0000
0000
0000
,
0010
0000
0000
0100
0000
0010
1000
0000
0100
0000
0010
0000
0001
0000
0010
0000
,
0100
0000
0000
0010
0000
0001
2000
0000
0000
0000
0000
0000
3000
0000
0000
0000
,
0001
0000
0000
0100
0000
0010
1000
0000
0001
0000
0010
0000
0100
0000
1000
0000
,
0020
0000
0000
0000
,
0000
0030
0000
0000
;

//--------------- dance-single - Pandemonium X ----------------
#NOTES:
     dance-single:
     Pandemonium X:
     Challenge:
     13:
     0,0,0,0,0:
0000
0000
0000
0000
,
0000
0000
0000
0000
,
0000
0000
0000
0000
,
0000
0000
0000
0000
,
0101
0011
1100
MMMM
,
0011
0000
1010
0000
0011
0000
1010
1000
,
1001
0101
0011
MMMM
,
0101
0000
1010
0000
1100
0000
1010
1000
,
1001
0101
1100
MMMM
,
0101
0000
1001
0000
1010
0000
0101
0001
,
1001
0011
1100
MMMM
,
0001
0001
0001
0000
,
0000
0000
0000
1000
0000
0000
1000
0000
0000
1000
0000
1000
0001
0000
0000
0010
,
0000
0000
0000
0100
0000
0000
0100
0000
0000
0100
0000
0100
0010
0000
0000
0001
,
0000
0000
0000
0010
0000
0000
0010
0000
0000
0010
0000
0100
1000
0000
0000
0001
,
0000
0000
0000
0100
0000
0000
0100
0000
0000
0100
0000
0100
0010
0000
0000
0010
,
0000
0000
0000
1000
0000
0000
0010
0000
0000
0100
0000
0001
0010
0000
0000
0110
,
0000
0000
0000
0100
0000
0000
1000
0000
0000
0001
0000
0100
0001
0000
0000
0011
,
0000
0000
0000
0001
0000
0000
0010
0000
0000
0100
0000
1000
0100
0000
0000
1001
,
0000
0000
0000
0001
0000
1000
0010
0000
0100
0001
0000
1000
0010
0000
0100
0001
,
0010
0100
0000
0100
1000
0000
0100
1000
0020
0000
0000
0130
0000
0000
0000
0000
,
0001
0010
0000
0010
0100
0000
0010
0100
2000
0000
0000
3001
0000
0000
0000
0000
,
0010
0100
0000
0100
0010
0000
0100
0010
0002
0000
0000
0103
0000
0000
0000
0000
,
0010
0100
0000
0010
1000
0000
0100
0010
0002
0000
0000
0103
0000
0010
0100
0001
,
1000
1000
0000
0001
0001
0000
1000
0001
0200
0000
0000
0310
0000
0000
0000
0000
,
0100
0100
0000
0010
0010
0000
0100
0001
2000
0000
0000
3001
0000
0000
0000
0000
,
0010
0010
0000
0001
0001
0000
0001
0010
0002
0000
0000
1003
0000
0000
0000
0000
,
0100
0100
0000
1000
1000
0000
1000
0100
0010
0000
0000
0000
MMMM
0000
0000
0000
,
0001
0000
1000
0010
0000
M010
0001
0000
0001
0010
0000
001M
1000
0000
1000
0001
,
0000
0000
0001
0100
0000
010M
1000
0000
1000
0100
0000
M100
0001
0000
0001
1000
,
0000
0000
0001
0010
0000
001M
1000
0000
1000
0010
0000
M010
0001
0000
0001
1000
,
0000
0000
1000
0100
0000
M100
0001
0000
0001
0100
0000
010M
1000
0000
1000
0001
,
0000
0000
0010
0010
0000
0001
0001
0000
0100
0100
0000
0010
0010
0000
1000
0001
,
0000
0000
1000
1000
0000
0100
0100
0000
0010
0010
0000
0100
0100
0000
1000
0100
,
0000
0000
1000
1000
0000
0010
0010
0000
0100
0100
0000
0001
0001
0000
0010
0010
,
0000
0000
0100
0100
0000
0010
0010
0000
0001
0001
0000
1000
1000
0000
0001
1000
,
0000
0000
0000
0010
0000
0000
1000
0000
0000
0100
0000
0000
0010
0000
0001
0100
,
0000
0000
0000
0010
0000
0000
0100
0000
0000
0001
0000
0000
1000
0000
0001
0100
,
0000
0000
0000
0010
0000
0010
0100
0000
0000
0010
0000
0000
0010
0000
0010
0100
,
0000
0000
0000
0000
0000
0000
0000
0000
0000
0020
0000
0000
2030
0000
0000
3000
0002
0000
0000
0000
0003
0000
0000
0000
0000
0000
0000
0000
0000
0000
0000
0000
0000
0000
0000
0000
0000
0000
0000
0000
0000
0000
0000
0000
0000
0000
0000
0000
,
1000
0100
0010
0001
0100
0100
0001
0001
,
0010
1000
0010
0100
1000
1000
0100
0100
,
0010
0001
0100
0010
1000
1000
0001
0001
,
0010
0001
0100
0010
0001
0010
0100
0001
,
1000
0001
0010
1000
0010
0100
0010
0001
,
1000
0100
0001
0100
1000
0010
0100
0001
,
0100
0010
1000
0001
0010
1000
0010
0100
,
0010
0001
0100
1000
0100
0010
1000
0001
,
0010
0000
0001
0100
0000
0100
0010
0000
1000
0000
0000
0000
MMMM
0000
0000
0000
,
1000
0000
0001
0010
0000
0010
0100
0000
1000
0000
0100
0000
1000
0010
0100
0000
,
0010
0000
1000
0001
0000
0001
0010
0000
0100
0000
0000
0000
MMMM
0000
0000
0000
,
0001
0000
0010
0001
0000
1000
0100
0000
1000
0000
0010
0000
0100
0010
1000
0000
,
0001
0000
1000
0010
0000
0100
0001
0000
0010
0000
0000
0000
MMMM
0000
0000
0000
,
0010
0000
0001
0010
0000
0010
0100
0000
0010
0000
0001
0000
1000
0001
0100
0000
,
0010
0000
1000
0010
0000
0010
0100
0000
0001
0000
0000
0000
MMMM
0000
0000
0000
,
1000
0000
0010
0100
0000
0100
0001
0000
0100
0000
0010
0000
1000
0001
1000
0000
,
1001
0000
1000
0010
0000
M010
0001
0000
0000
0000
0000
0000
0000
0000
0000
0000
,
0001
0000
0001
0010
0000
001M
1000
0000
0001
0000
1000
0000
0001
1000
0001
0000
,
1000
0000
1000
0100
0000
M100
0001
0000
0000
0000
0000
0000
0000
0000
0000
0000
,
0001
0000
0001
0100
0000
010M
1000
0000
0001
0000
1000
0000
0010
0100
0002
0000
,
0000
0000
0000
0000
,
0000
0003
0000
0000
0000
0000
0000
0000
;
