#TITLE:THE CANNONBALLER;
#SUBTITLE:;
#ARTIST:L.E.D. feat. YURiCa/花たん;
#TITLETRANSLIT:;
#SUBTITLETRANSLIT:;
#ARTISTTRANSLIT:;
#GENRE:;
#CREDIT:;
#BANNER:THE CANNONBALLER.png;
#BACKGROUND:THE CANNONBALLER-bg.png;
#LYRICSPATH:;
#CDTITLE:cdtitle.png;
#MUSIC:THE CANNONBALLER.ogg;
#OFFSET:1.700000;
#SAMPLESTART:50.006001;
#SAMPLELENGTH:11.824000;
#LASTBEATHINT:1.983333;
#SELECTABLE:YES;
#BPMS:0.000000=170.000000
;
#STOPS:
;
#BGCHANGES:7.500=THE CANNONBALLER.mp4=1.000=0=0=0=StretchNoLoop====,
99999=-nosongbg-=1.000=0=0=0 // don't automatically add -songbackground-
;
#KEYSOUNDS:;
#ATTACKS:;

//---------------dance-single - Pandemonium X----------------
#NOTES:
     dance-single:
     Pandemonium X:
     Beginner:
     5:
     0.163098,0.375348,0.073185,0.000000,0.000000,156.000000,146.000000,10.000000,0.000000,0.000000,0.000000,0.163098,0.375348,0.073185,0.000000,0.000000,156.000000,146.000000,10.000000,0.000000,0.000000,0.000000:
// measure 0
0000
0000
0000
0000
,  // measure 1
0000
0000
0000
0000
,  // measure 2
0000
0000
0000
0000
,  // measure 3
0000
0000
0000
0000
,  // measure 4
0000
0000
0000
0000
,  // measure 5
0000
0000
0000
0000
,  // measure 6
0000
0000
0000
0000
,  // measure 7
0001
0000
0000
0000
,  // measure 8
1000
0000
0001
0000
,  // measure 9
0100
0000
0000
0000
0000
0000
0000
0010
,  // measure 10
0000
0000
0000
0000
,  // measure 11
0100
0000
0000
0000
,  // measure 12
0001
0000
0000
0000
,  // measure 13
0010
0000
0000
0000
,  // measure 14
0000
0000
0000
0000
,  // measure 15
0100
0000
0000
0000
,  // measure 16
0010
0000
0001
0000
,  // measure 17
1000
0000
0000
0000
,  // measure 18
0001
0001
1000
1000
,  // measure 19
1001
0000
0000
0000
,  // measure 20
0010
0000
0100
0000
,  // measure 21
0001
0001
0001
0000
,  // measure 22
0000
0000
0000
0000
,  // measure 23
1000
0000
0000
0000
,  // measure 24
0010
0000
0100
0000
,  // measure 25
0001
0000
0000
0000
,  // measure 26
1000
0000
0001
0000
,  // measure 27
0100
0100
0100
0000
,  // measure 28
0010
0010
0010
0000
,  // measure 29
1000
0000
0001
0000
,  // measure 30
1000
0001
0000
0000
,  // measure 31
0100
0100
0100
0000
,  // measure 32
0010
0010
0010
0000
,  // measure 33
0000
1001
0000
0110
,  // measure 34
1001
0001
1000
0010
,  // measure 35
0100
0001
0000
0000
,  // measure 36
1001
0000
0000
0000
,  // measure 37
0001
0000
1000
0000
,  // measure 38
0010
0000
0000
0000
,  // measure 39
1000
0000
0001
0000
,  // measure 40
0100
0000
0000
0000
,  // measure 41
0010
0000
0010
0000
,  // measure 42
0010
0000
0000
0000
,  // measure 43
1000
0000
0001
0000
,  // measure 44
0010
0010
0000
0000
,  // measure 45
0100
0000
1000
0000
,  // measure 46
0001
0001
0000
0000
,  // measure 47
1000
0000
0010
0000
,  // measure 48
0100
0100
0000
0000
,  // measure 49
0010
0000
0100
0000
,  // measure 50
0001
0000
0000
0000
,  // measure 51
0010
0000
0100
0000
,  // measure 52
1000
0000
0001
0000
,  // measure 53
0110
0110
0000
0000
,  // measure 54
0000
0000
0000
0000
,  // measure 55
1000
0000
0000
0000
,  // measure 56
0001
0000
1000
0000
,  // measure 57
0100
0000
0000
0000
,  // measure 58
0010
0000
0001
0001
,  // measure 59
1000
0000
0001
0000
,  // measure 60
0100
0000
0010
0000
,  // measure 61
1001
0000
0000
0000
,  // measure 62
0000
0000
1000
0000
,  // measure 63
0001
0000
0000
0000
,  // measure 64
0000
0000
0010
0000
,  // measure 65
0100
0000
1000
0000
,  // measure 66
0010
0000
0100
0000
,  // measure 67
0001
0000
0000
1000
0000
1000
0000
1000
,  // measure 68
0000
0000
0000
0000
,  // measure 69
0001
0000
1000
0000
,  // measure 70
0100
0000
0000
0000
,  // measure 71
0010
0000
0001
0000
,  // measure 72
0100
0000
0000
0000
,  // measure 73
0010
0000
1000
0000
,  // measure 74
0001
0000
0000
0000
,  // measure 75
0010
0000
0001
0000
,  // measure 76
1000
1000
0000
0000
,  // measure 77
0100
0000
1000
0000
,  // measure 78
0010
0010
0000
0000
,  // measure 79
0100
0000
0001
0000
,  // measure 80
0010
0010
0000
0000
,  // measure 81
0100
0000
0000
0000
,  // measure 82
1000
0000
0000
0000
,  // measure 83
0001
0000
0100
0000
,  // measure 84
0010
0000
1000
0001
,  // measure 85
0110
0000
0000
0000
,  // measure 86
0000
0000
0000
0000
,  // measure 87
0001
0000
0000
0000
,  // measure 88
1000
0000
0001
0000
,  // measure 89
0010
0000
0000
0000
,  // measure 90
0100
0000
1000
0000
,  // measure 91
0010
0000
0000
0000
0000
0000
0000
0100
,  // measure 92
0000
0000
0010
0010
,  // measure 93
0000
1001
0000
0000
;

//---------------dance-single - Blinded_No_More----------------
#NOTES:
     dance-single:
     BlindedVanguard573:
     Easy:
     8:
     0.364880,0.375348,0.087822,0.014637,0.000000,349.000000,337.000000,12.000000,2.000000,0.000000,0.000000,0.364880,0.375348,0.087822,0.014637,0.000000,349.000000,337.000000,12.000000,2.000000,0.000000,0.000000:
0000
0000
0000
0000
,
0000
0000
0000
0000
,
0000
0000
0000
0000
,
0000
0000
0000
0000
,
0000
0000
0000
0000
,
0000
0000
0000
0000
,
0000
0000
0000
0000
,
1000
1000
0001
0100
,
0010
0100
0001
1000
,
0100
0100
0010
0100
,
1000
0001
0100
0010
,
1000
0100
0001
0100
,
1000
0100
0010
0001
,
1000
0001
0001
0000
,
0100
0010
0100
0010
,
1000
0010
0100
0001
,
1000
0100
0010
0001
,
1000
1000
0010
0010
,
0100
0100
0001
0001
,
1000
0010
0001
0010
,
1000
0010
0100
0001
,
1000
0001
0001
0000
,
0010
0100
0010
0100
,
1000
0100
0010
0001
,
1000
0010
0100
0001
,
1000
1000
0100
0100
,
0010
0010
0001
0001
,
1000
0010
0001
0000
,
1000
0100
0001
0000
,
1000
0100
0010
0001
,
1000
1000
0001
0000
,
1000
0100
0001
0000
,
1000
0010
0001
0000
,
0010
1001
0100
1001
,
1000
0100
0010
0001
,
1000
1000
0010
0010
,
0100
0000
0000
1001
0000
0000
0000
0000
,
0001
0100
1000
0100
,
0010
0100
0001
0001
,
1000
0100
0001
0100
,
0010
0100
1000
1000
,
0001
0010
1000
1000
,
0001
0100
1000
1000
,
0001
0000
0100
0000
0010
0000
1000
1000
,
0000
0010
0000
0100
0100
0000
1001
0000
,
1000
0010
0001
0010
,
0100
0010
1000
1000
,
0001
0010
1000
0010
,
0100
0010
0001
0001
,
1000
0100
0001
0001
,
1000
0010
0001
0001
,
1000
0000
0010
0000
0100
0000
0001
0001
,
0000
1000
1000
0000
0001
0000
1001
0000
,
1000
0100
0010
0001
,
0010
0100
1000
1001
,
1000
0010
0100
0001
,
0100
0010
1000
1001
,
0001
0010
1000
0010
,
0100
1000
0001
1001
,
1000
0010
0001
0010
,
0100
0001
1000
1001
,
2000
0100
0000
0100
,
0000
0100
3000
0001
,
0200
0010
0000
0010
,
0000
0010
0300
0100
,
0001
0001
0001
0001
,
1000
1000
1000
1000
,
0001
0000
0010
0010
0000
0100
0000
1000
,
0000
0000
0000
1001
,
0001
0100
1000
0100
,
0010
0100
0001
0001
,
1000
0100
0001
0100
,
0010
0100
1000
1000
,
0001
0010
1000
1000
,
0001
0100
1000
1000
,
0001
0000
0100
0000
0010
0000
1000
1000
,
0000
0010
0000
0100
0100
0000
0001
0000
,
1000
0010
0001
0010
,
0100
0010
1000
1000
,
0001
0010
1000
0010
,
0100
0010
0001
0001
,
1000
0100
0001
0001
,
1000
0010
0001
0001
,
1000
0000
0010
0000
0100
0000
0001
1000
,
0001
0010
0100
1001
,
1000
0010
0001
0010
,
0100
0000
0001
0000
1000
0100
1000
0000
,
0001
0100
1000
0100
,
0001
1000
0001
0000
0010
0000
1100
0000
,
1000
0010
0001
0010
,
0100
0000
0001
0000
1000
0010
1000
0000
,
0001
0010
1000
0010
,
0100
1000
0001
0100
,
0010
0010
0010
0000
0000
0000
0000
0000
;

//---------------dance-single - Pandemonium X----------------
#NOTES:
     dance-single:
     Pandemonium X:
     Medium:
     11:
     0.440156,0.648328,0.285422,0.146370,0.051230,421.000000,382.000000,39.000000,20.000000,0.000000,0.000000,0.440156,0.648328,0.285422,0.146370,0.051230,421.000000,382.000000,39.000000,20.000000,0.000000,0.000000:
0000
0000
0000
0000
,
0000
0000
0000
0000
,
0000
0000
0000
0000
,
0000
0000
0000
0000
,
0000
0000
0000
0000
,
0000
0000
0000
0000
,
0000
0000
0000
0000
,
0001
0000
0000
0000
0100
0000
0000
0000
0001
0000
0000
0010
0000
0000
0100
0000
,
0000
0010
0001
0100
0010
0000
1000
0000
,
0001
0000
1000
0000
0001
0000
1000
1100
,
0000
0100
1000
1000
0100
0000
1000
0000
,
0010
1000
0001
0010
,
1000
0010
0001
0100
,
0010
0000
1000
0002
0000
0000
1000
0000
,
1000
0000
0100
0000
0010
0000
1000
1000
,
1003
0100
1000
0010
,
0001
1000
1100
0001
,
1001
1000
0001
0010
,
0011
0000
0000
0001
0010
0000
0000
0010
0100
0000
0000
0100
1000
0000
0000
1000
,
0010
0001
0010
1000
,
0001
0010
0100
0010
,
0100
0000
1000
0020
0000
0000
1000
0000
,
0100
0000
0100
0000
1000
0000
1000
1000
,
1030
0001
0010
1000
,
0011
0001
0101
0100
,
0110
1000
0002
0000
0000
0000
0000
0000
,
1003
0100
0010
0001
,
1000
0000
0000
0000
0001
0000
0000
0000
0100
0000
0000
0100
0000
0000
0100
0000
,
0001
0000
0000
0000
1000
0000
0000
0000
0010
0000
0000
0010
0000
0000
0010
0000
,
1000
0000
0001
0000
0010
0000
0100
1000
,
0000
1000
0020
0000
0000
0000
0030
0010
,
0100
0000
0000
0010
0000
0000
1001
0000
0000
0000
0000
0000
0000
0000
1000
0000
,
0001
0000
0000
0010
0000
0000
1100
0000
0000
0000
0000
0000
0000
0000
0000
0000
,
1000
0011
0001
1010
,
0101
0011
1100
1001
,
1001
0001
0100
0010
1000
0001
0100
0010
,
1001
0000
0000
1001
0000
0000
1001
0000
0000
0000
0000
0000
0000
0000
0000
0000
,
0001
0000
0100
0000
0010
0000
1000
0100
,
0000
0100
0001
0000
0000
0000
1000
0000
,
0001
0000
1000
0000
0001
0000
0010
0001
,
0000
0201
0000
0000
0300
0000
0010
0000
,
1000
0000
0001
0010
0000
0011
0000
2200
,
0000
0000
0000
3300
0000
0000
0100
1000
,
0010
0000
0100
0001
0000
0011
0000
1100
,
0000
0001
1000
0000
0000
0001
1000
0010
,
0100
0000
0001
0000
1000
0000
0001
0100
,
0000
0100
1000
0000
0000
0000
0100
0000
,
1000
0000
0010
0000
0100
0000
0001
0100
,
0000
1020
0000
0000
0030
0000
0100
0001
,
1000
0000
0001
0010
0000
0011
0000
0202
,
0000
0000
0000
0000
0303
0000
0001
0100
,
0010
0000
1000
0001
0000
0010
0000
0100
,
0000
1000
0100
0100
1000
0010
0100
0001
,
0000
1000
0002
0000
0010
0000
0010
0000
,
0103
0010
1000
0001
,
0010
1000
0010
0001
,
0100
0000
0000
0000
0010
0000
0000
0000
1000
0000
0000
1000
0000
0000
1000
0000
,
0001
0010
1000
0010
,
0001
0000
0100
0000
0001
0100
0001
0100
,
0001
0000
0100
0000
0010
0000
1000
0001
,
0000
1000
1000
1000
0001
0000
0010
0000
,
0100
1000
0100
1000
,
0001
0010
0001
0010
,
0001
0100
0001
0100
,
0010
1000
0010
1000
,
0001
0010
1000
0010
,
0001
0100
1000
0100
,
0001
0000
0110
0110
0000
1001
0000
0220
,
0000
0000
0000
0000
0330
1000
0001
0001
,
1000
0000
0001
0000
0100
0000
0001
0010
,
0000
0010
1000
0000
0000
0000
0001
0000
,
0100
0000
0001
0000
1000
0000
0001
0100
,
0000
2010
0000
0000
3000
0000
0001
1000
,
0100
0000
0010
0001
0000
0011
0000
2200
,
0000
0000
0000
0000
3300
0000
0100
1000
,
0010
0000
0100
0001
0000
0101
0000
0011
,
0000
0001
0001
0000
0000
0010
0100
1000
,
0001
0000
0100
0000
0001
0000
1000
0100
,
0000
0100
0001
0000
0000
0000
1000
0000
,
0001
0000
0010
0000
0001
0000
0100
0001
,
0000
0021
0000
0000
0030
0000
0100
1000
,
0001
0000
0100
0001
0000
0011
0000
1002
,
0000
0000
0000
0000
0003
0000
1000
0001
,
0100
0000
0001
0100
0000
0010
0000
1000
,
0000
0001
0010
1000
0010
0001
1000
0200
,
1000
1000
0010
0010
,
1000
0000
1300
0000
0100
0010
0001
1000
,
0010
0000
0100
0000
0001
0000
1000
0001
,
0000
0000
0010
0000
0100
0000
1000
0000
0001
0000
0000
0001
0000
0000
0001
0000
,
0100
0000
0000
0000
0001
0000
0000
0000
0010
0000
0000
0001
0000
0000
0100
0000
,
0000
0010
1000
0000
0001
0010
0100
1000
,
0001
0000
1000
0000
0001
0000
0100
0001
,
0000
0000
0010
0000
0100
0000
0100
0000
1000
0000
0000
0001
0000
0000
0100
0000
,
0020
1030
0000
0000
;

//---------------dance-single - Blinded_No_More----------------
#NOTES:
     dance-single:
     BlindedVanguard573:
     Hard:
     16:
     0.747533,0.855350,0.270785,0.468384,0.380562,715.000000,678.000000,37.000000,64.000000,0.000000,0.000000,0.747533,0.855350,0.270785,0.468384,0.380562,715.000000,678.000000,37.000000,64.000000,0.000000,0.000000:
0000
0000
0000
0000
,
0000
0000
0000
0000
,
0000
0000
0000
0000
,
0000
0000
0000
0000
,
0000
0000
0000
0000
,
0000
0000
0000
0000
,
0000
0000
0000
0000
,
1000
0000
0001
0100
0001
0000
1000
0100
2000
0000
0000
0010
0000
0000
3001
0000
,
0000
1000
0010
0000
1000
0000
0001
0000
1000
0000
0100
0000
0001
0000
0100
0000
,
1000
0000
0001
0010
0001
0000
1000
0010
1000
0000
0001
0010
0000
0001
2000
0000
,
0000
0100
0100
3100
1000
0010
0001
0010
,
2000
0100
0000
0010
0000
0100
0000
3001
,
1000
0100
0001
0100
0100
0010
0001
1000
,
0002
0000
0100
2003
0000
3100
0001
0100
,
1000
0010
0100
0010
0001
0010
0100
0010
,
1000
0100
0010
0001
0001
0010
0100
1000
,
0002
0000
0100
0100
0000
1000
0000
0013
,
0001
0100
0010
1000
0001
1000
0010
0100
,
0001
0000
1000
0100
1000
0000
0001
0010
0001
0000
1000
0010
1000
0000
0001
0100
,
0002
0100
0000
0010
0000
0100
0000
1003
,
0001
0100
1000
0100
0100
0010
1000
0001
,
2000
0000
0100
3002
0000
0103
1000
0100
,
0001
0010
0100
0010
1000
0010
0100
0010
,
0001
0100
0010
1000
1000
0010
0100
0001
,
2000
0000
3100
0010
0001
0001
1000
1000
,
0001
0100
0010
1000
0001
1000
0100
0010
,
0001
0000
0100
0000
0010
0000
1000
0000
0001
0000
0010
0000
0100
1000
0100
1000
,
0001
0000
0000
0001
0100
0000
0020
0000
0100
0000
0000
0000
0031
0000
0010
0000
,
1000
0000
0000
1000
0100
0000
0020
0000
0100
0000
0000
0000
1030
0000
0000
0000
,
1020
0000
0032
0000
2003
0000
0100
3200
,
0000
0000
0310
0000
0020
0000
0000
0000
0001
0000
0000
0100
0000
0000
0031
0000
,
1000
0000
0000
1000
0010
0000
0200
0000
0010
0000
0000
0000
1300
0000
0100
0000
,
0001
0000
0000
0001
0010
0000
0200
0000
0010
0000
0000
0000
0301
0000
0000
0000
,
0100
1000
1010
0000
0100
0001
0011
0000
,
1100
0000
0000
0000
1001
0000
0000
0000
0101
0000
0000
0110
0000
0000
1010
0000
,
1000
0000
0100
0000
0010
0000
0100
0000
0001
0000
0100
0000
1000
0000
0001
0100
,
0010
0000
0000
0110
0000
0000
1001
0000
0000
0000
1000
0000
0001
0100
0001
0100
,
0002
0010
1003
2000
0010
3001
0002
0100
,
1003
2000
0100
3001
1000
0100
0010
0001
,
2000
0100
3001
0002
0100
1003
0001
1000
,
0002
0000
0000
0010
0000
0013
0000
0001
2000
0000
0000
0010
0000
3010
0000
1000
,
0001
0010
0100
0001
1000
0010
0001
1000
,
0001
0100
0010
0001
1000
0100
0010
1000
,
1010
0010
0100
0001
1000
0100
0110
0110
,
0000
0000
0011
0000
0011
0000
0011
0000
0001
0000
1000
0100
0000
1000
0000
0001
,
2000
0010
0100
3002
0010
0100
2003
0010
,
0100
3002
0010
0103
0001
0010
1000
0010
,
0002
0100
0010
2003
0100
0010
3002
1003
,
0002
0000
0000
0100
0000
1003
0000
0001
2000
0000
0000
0100
0000
3001
0000
1000
,
0001
0100
0010
0001
1000
0100
0010
1000
,
0001
0010
0100
0001
1000
0010
0100
1000
,
0020
0000
0100
0000
0100
0000
0100
0000
0100
0000
0100
0000
0130
0000
0100
0010
,
0000
0000
1010
0000
1010
0000
1010
0000
1000
0000
0100
0001
0000
1000
0000
0010
,
0001
0000
1000
0100
1000
0000
0001
0100
0002
0000
0000
0010
0000
0000
1003
0000
,
0000
0001
0010
0100
1000
0010
0001
0010
,
1000
0000
0001
0100
0001
0000
1000
0010
1000
0000
0001
1000
0000
0001
1000
0000
,
0010
0100
0010
0000
1000
0000
0001
0000
1000
0000
1000
0100
0000
0100
0010
0000
,
0001
0000
1000
0010
1000
0000
0001
0010
0002
0000
0000
0100
0000
0000
1003
0000
,
0000
0001
0100
0000
0001
0000
1000
0000
0001
0000
0100
0000
1000
0000
0100
0000
,
0001
0000
1000
0010
1000
0000
0001
0010
0001
0000
1000
0010
0000
1000
0002
0000
,
0000
0100
0100
0103
0001
0010
1000
0010
,
0002
0010
0000
0100
0000
0010
0000
0100
,
0000
1000
0000
0103
0000
0001
0010
0100
,
2000
0010
0000
0100
0000
0010
0000
0100
,
0000
0001
0000
3100
0000
1000
0010
0100
,
0001
0001
0010
0010
0100
0100
1000
1000
,
0001
0001
0100
0100
0010
0010
1000
1000
,
1010
0000
0101
0101
0000
0011
0000
2200
,
0000
0000
3300
0000
0000
0000
0000
0000
0000
0000
1000
0000
0001
1000
0001
1000
,
0002
0100
1003
2000
0100
3001
0002
0010
,
1003
2000
0010
3001
1000
0010
0100
0001
,
2000
0010
3001
0002
0010
1003
0001
1000
,
0002
0000
0000
0100
0000
0103
0000
0001
2000
0000
0000
0100
0000
3100
0000
1000
,
0001
0100
0010
0001
1000
0100
0001
1000
,
0001
0010
0100
0001
1000
0010
0100
1000
,
1100
0100
0010
0001
1000
0010
0110
0110
,
0000
0000
0101
0000
0101
0000
0101
0000
0001
0000
1000
0010
0000
1000
0000
0001
,
2000
0100
0010
3002
0100
0010
2003
0100
,
0010
3002
0100
0013
0001
0100
1000
0100
,
0002
0010
0100
2003
0010
0100
3002
1003
,
0002
0000
0000
0010
0000
1003
0000
0001
2000
0000
0000
0010
0000
3001
0000
1000
,
0001
0010
0100
0001
1000
0010
0100
1000
,
0001
0100
0010
0001
1000
0100
0010
1000
,
0200
0000
0010
0000
0010
0000
0010
0000
0010
0000
0010
0000
0310
0000
0010
0100
,
0010
0000
0001
0000
1000
0000
0010
0000
0100
0001
0100
0001
1000
0100
1000
0100
,
1000
0000
0001
0010
0100
0000
0100
0010
0001
0000
0000
0011
0000
0000
2100
0000
,
0000
0010
0100
3010
1000
0100
0001
0100
,
1000
0000
0010
0100
0001
0000
0001
0100
0010
0000
1000
0001
0000
0001
1000
0000
,
0100
0010
0001
0000
0001
0000
0001
0000
1000
0000
1000
0010
0000
0010
0100
0000
,
0001
0000
1000
0010
0100
0000
0100
0010
1000
0000
0000
1010
0000
0000
0101
0000
,
0001
1000
0001
0000
0001
0000
0001
0000
1000
0100
0010
0000
0001
0010
0100
0000
,
1000
0000
0010
0000
0001
0000
1000
0000
0100
0000
0001
0000
0010
0000
0100
1000
,
0000
0000
1001
0000
1001
0000
1001
0000
0001
0000
0100
0010
0000
0010
0100
0000
,
0001
0010
0100
1000
0002
0000
0000
0000
0003
0000
0000
0000
0000
0000
0000
0000
;

//---------------dance-single - Pandemonium X----------------
#NOTES:
     dance-single:
     Pandemonium X:
     Challenge:
     17:
     0.825945,1.060634,0.351288,0.161007,0.753806,790.000000,742.000000,48.000000,22.000000,24.000000,0.000000,0.825945,1.060634,0.351288,0.161007,0.753806,790.000000,742.000000,48.000000,22.000000,24.000000,0.000000:
0000
0000
0000
0000
,
0000
0000
0000
0000
,
0000
0000
0000
0000
,
0000
0000
0000
0000
,
0000
0000
0000
0000
,
0000
0000
0000
0000
,
0000
0000
0000
0000
,
0001
0000
1000
0100
1000
0000
0001
0100
0001
0000
0010
0000
0000
0000
0210
0000
,
0000
0000
1300
0000
1000
0000
1000
0000
0001
0010
0001
0010
0100
1000
0100
1000
,
0001
0000
1000
0001
1000
0000
0001
0100
0001
0000
0001
0000
1000
0010
0100
0000
,
0000
0000
0110
0000
0110
0000
0110
0000
0100
0001
0100
0010
1000
0010
1000
0001
,
0100
0001
0000
0010
0000
1000
0000
0010
,
0000
0001
0000
0010
0000
0100
0010
0100
,
1000
0000
1000
0020
0000
0130
0010
1000
,
0001
0001
1000
1000
0010
0010
0100
0100
,
0001
0010
0100
1000
0010
0100
1000
0100
,
0010
0000
1000
0001
0000
0010
0000
0100
,
0000
1000
0002
0000
0000
0000
0000
0000
,
0103
0000
0100
0010
1000
0000
1000
0001
0010
0000
0010
0100
1000
0000
1000
0100
,
0010
0001
0000
0100
0000
1000
0000
0100
,
0000
0010
0000
1000
0000
0001
0010
0100
,
0010
0000
0001
0200
0000
0310
1000
0001
,
0010
0010
0100
0100
1000
1000
0001
0001
,
1000
0100
0010
1000
0010
0001
1000
0010
,
0100
0000
0010
1000
0001
0010
1000
0010
,
0000
0001
2000
0000
0000
0000
0000
0000
,
3001
0000
0000
0000
0100
0000
0000
0000
0010
0000
0000
0000
1000
0000
0001
1000
,
0001
0000
0010
0001
0010
0000
0010
0100
0010
0000
0100
1000
0000
1000
0010
0000
,
0100
0000
0001
0100
0001
0000
0001
1000
0001
0000
0010
0100
0000
0100
1000
0000
,
0010
0000
1000
0010
1000
0000
1000
0001
1000
0000
0001
0010
0000
0100
1000
0000
,
0001
0000
0100
0010
0000
0010
0000
1000
0001
0000
0010
0100
0000
0100
0000
1000
,
0001
0000
1000
0001
1000
0000
1000
0100
1000
0000
0000
0100
0000
0000
0010
0000
,
0001
0000
0100
0010
0100
0000
0100
0001
0100
0000
0000
0001
0000
0000
1000
0000
,
0010
0101
0001
1100
,
1010
0000
0000
0000
1001
0000
0000
0000
0101
0000
0000
0011
0000
0000
1001
0000
,
1100
0000
0100
0000
0010
0000
0010
0000
0001
0010
0100
1000
0001
0010
0100
1000
,
0010
0000
0000
0000
0000
0000
0000
0000
0000
0110
0000
0000
0000
0000
0000
0000
0000
0000
0110
0000
0000
0000
0000
0000
0000
0000
0000
0000
0000
0000
1000
0000
0000
0000
0000
0000
0001
0000
1000
0000
0001
0000
1000
0000
0000
0001
0000
0000
,
1000
0100
0010
0001
0100
0000
0010
0001
,
0000
0010
2000
0000
3000
0001
0010
0001
,
1000
0001
0010
0100
0010
0000
0100
1000
,
2100
0000
0000
0001
0000
0001
0000
3001
2000
0000
0000
0010
0000
0010
0000
3010
,
0100
0010
0100
0001
0100
0000
0001
1000
0001
0100
0001
0000
1000
0001
1000
0000
,
0001
0010
0001
0100
0010
0000
0100
0010
0100
0010
1000
0000
0100
0000
0010
0000
,
0001
0010
0001
1000
0001
0000
1000
0010
1000
0001
1000
0000
1001
0000
0001
0100
,
0000
0000
0110
0000
1010
0000
1001
0000
0011
0000
0001
0010
0000
0100
0000
1000
,
0001
0100
0010
1000
0100
0000
1000
0002
,
0000
1003
1001
0000
0000
0001
0010
0100
,
1000
0100
0010
0001
0010
0000
0001
0200
,
0010
0000
0000
0010
0000
0310
0000
0010
2000
0000
0000
0001
0000
0001
0000
3001
,
0100
0010
1000
0001
0010
0000
0100
0010
0001
1000
0001
0000
1000
0100
1000
0000
,
0001
0100
0001
1000
0010
0000
1000
0100
0010
0100
1000
0000
0001
1000
0001
0000
,
0100
0000
0100
0000
0001
0000
0001
0000
0010
0000
0010
0000
0100
0000
0100
0010
,
0000
0000
0000
0000
0000
0000
0011
0000
0000
0000
0000
0000
1100
0000
0000
0000
0000
0000
0001
0000
0000
0000
0000
0000
1001
0000
0000
0000
0000
0000
1000
0000
0001
0000
1000
0000
0001
0000
0000
1000
0000
0000
0000
0000
0000
0010
0000
0000
,
0100
0000
0100
0001
0010
0000
0100
1000
0010
0000
1000
0000
0000
0000
0201
0000
,
0000
0010
0010
0310
1000
0001
0010
0100
,
0010
0000
0001
0010
0100
0000
0010
0001
1000
0000
0001
0100
0001
0100
0010
0000
,
0000
0100
0010
0000
1000
0000
0001
0000
1000
0000
0001
0010
0000
0010
1000
0000
,
1001
0000
1000
0001
0010
0000
0001
0100
0010
0000
0000
0100
0000
0000
0201
0000
,
0000
0310
1000
0000
1000
0000
1000
0000
0001
0100
0010
1000
0001
0100
0010
1000
,
0001
0000
1000
0100
0001
0000
0100
1000
0010
0000
0100
0001
1000
0100
1000
0000
,
0000
0000
0101
0000
0011
0000
0110
0000
1000
0100
0010
0001
0010
0100
0010
0001
,
1000
0100
0001
0100
,
0010
0001
0100
0010
,
1000
0010
0001
0010
,
0100
0001
1000
0001
,
1000
1000
0001
0001
0100
0100
0010
0010
,
1000
1000
0010
0010
0100
0100
0001
0001
,
0101
0000
0011
1100
0000
0101
0000
1001
,
0000
0000
0000
0000
0000
0000
MMMM
0000
0000
MMMM
0000
0000
MMMM
0000
0000
MMMM
0000
0000
MMMM
0000
0000
MMMM
0000
0000
0000
0000
0000
0000
0000
0000
1000
0000
0000
0000
0000
0000
0001
0000
1000
0000
0001
0000
1000
0000
0000
0001
0000
0000
,
1000
0100
0001
0100
0010
0000
0001
0200
,
0000
0001
0301
0000
0000
0100
1000
0100
,
0010
1000
0001
0010
0100
0000
0010
0001
,
2000
0000
0000
0010
0000
0010
0000
3010
0200
0000
0000
0001
0000
0001
0000
0301
,
1000
0100
0010
0100
1000
0000
0001
0010
0100
0010
0001
0000
1000
0001
1000
0000
,
0001
0010
0100
0010
0001
0000
1000
0100
0010
0100
1000
0000
0001
1000
0001
0000
,
0100
0010
1000
0001
0010
0000
0100
0010
0001
1000
0001
0000
1000
0000
1010
0000
,
0000
0000
0101
0000
1010
0000
1100
0000
0110
0000
0100
0010
0000
0011
0000
0100
,
1000
0010
0100
1000
0100
0000
0010
2000
,
0000
0001
3001
0000
0000
0010
1000
0010
,
0001
0010
0100
0010
0001
0000
0100
0010
,
2000
0000
0000
0100
0000
0100
0000
3100
0020
0000
0000
0001
0000
0001
0000
0031
,
1000
0100
0001
0100
1000
0000
0001
1000
0010
0001
0010
0000
0100
0001
1000
0000
,
0001
0100
1000
0100
0001
0000
1000
0001
0010
0100
0010
0000
0100
0010
0001
0000
,
1000
0000
1000
0000
0001
0000
0001
0000
0100
0000
0100
0000
0010
0000
1001
1000
,
0001
0000
0000
0100
0000
0000
0010
0000
0000
1000
0000
0000
0001
0000
0000
0010
0000
0000
0001
0000
0000
1000
0000
0000
0010
0000
1000
0000
0010
0000
1000
0000
0000
0010
0000
0000
0100
0000
0001
0000
0100
0000
0001
0000
0000
1000
0000
0000
,
0010
0000
0010
1000
0100
0000
0010
0001
0100
0000
0001
0000
0000
0000
1020
0000
,
0000
0100
0100
0130
0001
1000
0100
0010
,
0100
0000
1000
0100
0010
0000
0100
1000
0001
0000
1000
0010
1000
0010
0100
0000
,
0000
0010
0100
0000
0001
0000
1000
0000
0001
0000
1000
0100
0000
0100
0001
0000
,
1001
0000
0001
1000
0100
0000
1000
0010
0100
0000
0000
0010
0000
0000
1020
0000
,
0000
0130
0001
0000
0001
0000
0001
0000
1000
0010
0100
0001
1000
0010
0100
0001
,
1000
0000
0001
0010
1000
0000
0010
0001
0100
0000
0010
1000
0001
0010
0001
1000
,
0000
0000
1010
0000
1100
0000
0110
0000
0001
0010
0100
1000
0100
0010
0100
1000
,
0001
1000
0001
1000
0001
1000
0020
0000
0000
0000
0000
0000
0030
0000
0000
0000
0000
0000
0000
0000
0000
0000
0000
0000
;
