#TITLE:TECHNOPHOBIA;
#SUBTITLE:;
#ARTIST:BEMANI Sound Team "HuΣeR";
#TITLETRANSLIT:;
#SUBTITLETRANSLIT:;
#ARTISTTRANSLIT:;
#GENRE:;
#CREDIT:;
#BANNER:TECHNOPHOBIA.png;
#BACKGROUND:TECHNOPHOBIA-bg.png;
#LYRICSPATH:;
#CDTITLE:;
#MUSIC:TECHNOPHOBIA.ogg;
#OFFSET:0.534000;
#SAMPLESTART:40.511002;
#SAMPLELENGTH:12.475000;
#SELECTABLE:YES;
#BPMS:0.000000=152.000000
;
#STOPS:
;
#BGCHANGES:4.000=TECHNOPHOBIA.mp4=1.000=0=0=1=====,
99999=-nosongbg-=1.000=0=0=0 // don't automatically add -songbackground-
;
#KEYSOUNDS:;
#ATTACKS:;

//---------------dance-single - ----------------
#NOTES:
     dance-single:
     Pandemonium X:
     Beginner:
     5:
     0.177522,0.298758,0.081634,0.000000,0.000000,137.000000,128.000000,9.000000,0.000000,0.000000,0.000000,0.177522,0.298758,0.081634,0.000000,0.000000,137.000000,128.000000,9.000000,0.000000,0.000000,0.000000:
// measure 0
0000
0000
0000
0000
,  // measure 1
0000
0000
0000
0000
,  // measure 2
0001
0000
0000
0000
,  // measure 3
1000
0000
0000
0000
,  // measure 4
0001
0000
0000
0000
,  // measure 5
1000
0000
0000
0000
,  // measure 6
0010
0000
0100
0000
,  // measure 7
0010
0000
1000
0000
,  // measure 8
0010
0000
0100
0000
,  // measure 9
1001
0000
0000
0000
,  // measure 10
0001
0000
0000
0000
,  // measure 11
1000
0000
0000
0000
,  // measure 12
0100
0000
0000
0000
,  // measure 13
0010
0000
0100
0000
,  // measure 14
1000
0000
0000
0000
,  // measure 15
0001
0000
0000
0000
,  // measure 16
0100
0000
0000
0000
,  // measure 17
0010
0000
0100
0000
,  // measure 18
1001
0000
0001
0000
,  // measure 19
1000
0000
0001
0000
,  // measure 20
1000
0000
0001
0000
,  // measure 21
1000
1000
1000
0000
,  // measure 22
0001
0000
1000
0000
,  // measure 23
0001
0000
1000
0000
,  // measure 24
0001
0000
1000
0000
,  // measure 25
0001
0001
0001
0000
,  // measure 26
1000
0000
0010
0010
,  // measure 27
0000
0000
0100
0100
,  // measure 28
0010
0010
0010
0000
,  // measure 29
0010
0010
0000
0010
,  // measure 30
0100
0000
0100
0100
,  // measure 31
0000
0000
0100
0100
,  // measure 32
0001
0001
0001
0000
,  // measure 33
1000
1000
0000
1001
,  // measure 34
0001
0000
0000
0000
,  // measure 35
0100
0000
0000
0000
,  // measure 36
0010
0000
0000
0000
,  // measure 37
1000
1000
1000
0000
,  // measure 38
0001
0000
0000
0000
,  // measure 39
1000
0000
0000
0000
,  // measure 40
0010
0000
0000
0000
,  // measure 41
0110
0000
0000
1001
,  // measure 42
0001
0000
1000
0000
,  // measure 43
0010
0000
1000
0000
,  // measure 44
0100
0000
0010
0000
,  // measure 45
0001
0001
0001
0001
,  // measure 46
0010
0000
0001
0000
,  // measure 47
1000
0000
0100
0000
,  // measure 48
1000
0000
0001
0000
,  // measure 49
1001
0110
1001
0000
,  // measure 50
0001
0000
1000
0001
,  // measure 51
1000
0000
0001
1000
,  // measure 52
0010
0010
0010
0000
,  // measure 53
0010
0010
0000
0010
,  // measure 54
0100
0100
0010
0010
,  // measure 55
1000
1000
0001
0001
,  // measure 56
1000
0100
0010
0001
,  // measure 57
1000
0001
0100
0010
,  // measure 58
1001
0000
0000
0000
,  // measure 59
0001
0000
0000
0000
,  // measure 60
1000
0000
0000
0000
,  // measure 61
0100
0000
0000
0000
,  // measure 62
0010
0000
0000
0000
,  // measure 63
0001
0000
0000
0000
,  // measure 64
0100
0000
0000
0000
,  // measure 65
0010
0000
0000
0000
0000
0000
0000
0100
;

//---------------dance-single - ----------------
#NOTES:
     dance-single:
     Pandemonium X:
     Easy:
     8:
     0.351156,0.537765,0.244902,0.326537,0.000000,271.000000,244.000000,27.000000,36.000000,0.000000,0.000000,0.351156,0.537765,0.244902,0.326537,0.000000,271.000000,244.000000,27.000000,36.000000,0.000000,0.000000:
0000
0000
0000
0000
,
0000
0000
0000
0000
,
0001
0001
0001
0000
,
1000
1000
1000
0000
,
0001
0001
0001
0000
,
1000
1000
1000
0000
,
0001
0100
0020
0230
,
0301
1000
0200
0320
,
0130
1000
0020
0230
,
0002
0000
0000
0303
,
1010
1000
0001
0010
,
0001
1000
0010
1000
,
0001
0100
0001
1000
,
0100
0001
0100
1000
,
0001
1000
0010
1000
,
0001
0010
0100
0010
,
0001
1000
0010
1000
,
2200
0000
0000
0000
0000
0000
0000
3300
,
0000
1000
0001
0000
0000
1000
0001
0000
,
0000
1000
0001
0000
0000
1000
0001
0000
,
0000
1000
0001
0000
0000
1000
0001
0000
,
0000
1000
0000
1000
0000
1000
1001
0000
,
0000
0001
1000
0000
0000
0001
1000
0000
,
0000
0001
1000
0000
0000
0001
1000
0000
,
0000
0001
1000
0000
0000
0001
1000
0000
,
1001
0110
2002
3003
,
0001
0100
0020
2030
,
3100
0010
0002
0023
,
0031
0100
0010
1000
0001
0000
0001
0100
,
0010
1000
0001
0000
1000
0000
0001
0000
,
0010
0001
0200
0320
,
1030
0001
0200
0320
,
1030
0010
0100
0001
1000
0000
0001
0100
,
0010
1000
0001
0000
0010
0000
0100
0000
,
1001
0001
0001
0001
,
1000
1000
1000
1000
,
0010
0010
0010
0010
,
0200
0320
0200
0330
,
0010
2000
0000
3000
,
0001
0020
0000
0030
,
0100
2000
0000
3000
,
0022
0000
0000
0033
,
0000
0001
0100
0000
0000
0010
1000
0000
,
0000
0001
0100
0000
0000
0010
1000
0000
,
0000
0001
0100
0000
0000
0010
1000
0000
,
0000
0001
0000
0100
0000
0010
1000
0000
,
0000
1000
0100
0000
0000
0010
0001
0000
,
0000
1000
0100
0000
0000
0010
0001
0000
,
2000
3002
0203
0320
,
0130
0110
2002
3003
,
0001
1000
0100
0010
,
0100
1000
0001
0100
,
0001
0010
0100
1000
0001
0000
1000
0100
,
0010
0001
1000
0000
0010
0000
1001
0000
,
0101
0101
1010
1010
,
1100
1100
0011
0011
,
1001
0101
1001
1100
,
1001
1001
1001
0002
,
0013
0010
0010
0010
,
0100
0100
0100
0100
,
1000
1000
1000
1000
,
0001
0001
0001
0001
,
1000
0001
0010
0001
,
0100
0010
1000
0100
,
0010
0001
0100
0010
,
2002
0000
0000
0000
0000
0000
3003
0010
;

//---------------dance-single - ----------------
#NOTES:
     dance-single:
     Pandemonium X:
     Medium:
     11:
     0.457410,0.537765,0.371889,0.435382,0.004535,353.000000,312.000000,41.000000,48.000000,0.000000,0.000000,0.457410,0.537765,0.371889,0.435382,0.004535,353.000000,312.000000,41.000000,48.000000,0.000000,0.000000:
0000
0000
0000
0000
,
0000
0000
0000
0000
,
1000
1000
1000
1000
,
0010
0010
0010
0010
,
0100
0100
0100
0100
,
0020
1030
0002
0103
,
0010
0000
0100
0001
2000
0000
3200
0000
,
0310
0000
0100
1000
0002
0000
0023
0000
,
0130
0000
0010
0001
2000
0000
3002
0000
,
0203
0000
0000
0000
0320
0000
0000
0000
2030
0000
0000
0000
3001
0000
1000
0001
,
1000
0000
0001
0000
1000
0001
0100
0001
,
0010
0000
0100
0000
0010
0001
1000
0010
,
1000
0000
0100
0000
1000
0010
1000
0100
,
0010
0001
0010
0000
0100
1000
0100
0000
,
1000
0000
0010
0000
0100
0001
0010
0100
,
0010
0000
0100
0000
1000
0001
1000
0010
,
1000
0000
0010
0000
0100
0001
0010
0100
,
2002
0000
0000
0000
0000
0000
0000
3003
,
0000
0001
0101
0000
0000
1000
1100
0000
,
0000
0001
0101
0000
0000
1000
1100
0000
,
0000
0001
0101
0000
0000
1000
1100
0000
,
0000
0101
0000
1001
0000
1000
1100
0000
,
0000
1000
1010
0000
0000
0001
0011
0000
,
0000
1000
1010
0000
0000
0001
0011
0000
,
0000
1000
1010
0000
0000
0001
0011
0000
,
1001
1010
0102
0023
,
0130
0000
0010
0001
0200
0000
0320
0000
,
1030
0000
0100
1000
0002
0000
0203
0000
,
0301
0010
1000
0010
0001
0000
0001
0100
,
1000
0100
0001
0000
1001
0000
0110
0000
,
0101
0000
1000
0010
0200
0000
0302
0000
,
0013
0000
0100
0010
0002
0000
2003
0000
,
3001
0100
1000
0100
0001
0000
0001
0010
,
1000
0010
0001
0000
1001
0000
0110
0000
,
0001
0001
0001
0001
,
1000
1000
1000
1000
,
0010
0010
0010
0010
,
0200
0320
2030
3000
,
0001
1000
0200
0000
0010
0000
0310
0000
,
0100
1000
0020
0000
0100
0000
0130
0000
,
0010
1000
0200
0000
0010
0000
0310
0000
,
2002
0000
0000
3003
,
0001
1000
1010
0000
1000
0001
0011
0000
,
0001
1000
1010
0000
1000
0001
0011
0000
,
0001
1000
1100
0000
1000
0001
0101
0000
,
0000
1010
0000
0101
0000
0001
1001
0000
,
1000
0001
0011
0000
0001
1000
1010
0000
,
1000
0001
0101
0000
0001
1000
1100
0000
,
2000
0000
3200
0000
0320
0000
0031
1000
,
1002
2003
3002
0003
,
2000
0000
3020
0000
0130
0010
1000
0001
,
0020
0000
0230
0000
0310
0001
1000
0000
,
0001
0100
1000
0100
0001
0000
1000
0100
,
0001
0100
1000
0000
0001
0000
1001
0000
,
0001
0100
0001
0000
0100
0010
0100
0000
,
0010
1000
0010
0000
1000
0001
1000
0000
,
0001
0100
0010
1000
0001
0100
0010
1000
,
0001
0010
0100
1000
0001
0010
0200
0000
,
1300
1000
1000
1000
,
0001
0001
0001
0001
,
0100
0100
0100
0100
,
0010
0010
0010
0010
,
1000
0001
0020
0230
,
0310
0001
2000
3002
,
0103
0001
0020
0230
,
1000
0000
1000
0000
1000
0000
1300
1001
;

//---------------dance-single - ----------------
#NOTES:
     dance-single:
     Pandemonium X:
     Hard:
     13:
     0.514425,0.717360,0.317466,0.489805,0.099775,397.000000,362.000000,35.000000,54.000000,0.000000,0.000000,0.514425,0.717360,0.317466,0.489805,0.099775,397.000000,362.000000,35.000000,54.000000,0.000000,0.000000:
0000
0000
0000
0000
,
0000
0000
0000
0000
,
1000
1000
1000
1000
,
0001
0001
0001
0001
,
0100
0100
0100
0100
,
0010
0010
0010
0010
,
0100
0000
0010
1000
0002
0000
0023
0000
,
0130
0000
0010
0001
2000
0000
3020
0000
,
0130
0000
0010
0100
0002
0000
2003
0000
,
0020
0000
0000
3030
,
1001
1000
0001
0010
1000
0010
0001
0000
,
1000
0001
1000
0100
0001
0100
1000
0000
,
0001
0100
0010
0001
0010
0100
0001
0001
,
1000
0010
0100
1000
0100
0010
1000
0001
,
1001
0001
0010
0100
1000
1000
1000
0000
,
0100
1000
0010
0100
0001
0001
0001
0000
,
0010
0100
0010
0001
0100
0100
0100
0000
,
0002
0000
0000
0000
0000
0000
0203
0000
0000
0000
0000
0000
0310
0000
0000
1000
0000
0000
0001
0000
0000
2002
3003
0000
,
1000
0100
0110
0000
0010
0001
0011
0000
,
0001
0100
0110
0000
0010
1000
1010
0000
,
1000
0001
1001
0000
0001
0010
0011
0000
,
0000
1100
0000
0011
0000
1000
1100
0000
,
0001
0100
0110
0000
0010
1000
1001
0000
,
0001
0010
0110
0000
0100
1000
1010
0000
,
0001
0100
0001
0100
0010
1000
0010
1000
,
0002
0203
2300
3020
,
0031
0000
1000
0001
0020
0000
0230
0000
,
1300
0000
0100
1000
0020
0000
0230
0000
,
0301
0100
1000
0010
0001
0000
1000
0100
,
0001
0010
1000
0000
0001
0000
1001
0000
,
0001
0000
0100
0010
2000
0000
3200
0000
,
0310
0000
0001
0010
0200
0000
2300
0000
,
3001
0100
1000
0010
0001
0000
1000
0100
,
0001
0000
0000
0000
0010
0000
0000
0000
2000
0000
0000
0000
0000
0000
0000
0000
0001
0000
0000
0000
0000
0000
0000
0000
3001
0000
0000
0000
2002
3003
0000
0000
,
1000
1000
0001
0001
,
0100
0100
0010
0010
,
1000
1000
0010
0010
,
0200
0302
0023
0030
,
0100
0010
0002
0000
0100
0000
0013
0000
,
0100
1000
0020
0000
0100
0000
1030
0000
,
0100
0001
2000
0000
0100
0000
3010
0000
,
2002
0000
0000
3003
,
0001
0100
1010
0000
1000
0100
0011
0000
,
0001
0100
1010
0000
1000
0100
0011
0000
,
0001
0100
0001
0100
0010
1000
0001
0010
,
0001
0010
0100
1000
0001
0100
1001
0000
,
1000
0010
0101
0000
0001
0010
1100
0000
,
1000
0010
0101
0000
0001
0010
1100
0000
,
0002
0203
2300
3020
,
0032
0000
0000
0000
0000
0000
0000
0000
0000
0000
0000
0000
0000
0000
0000
0000
0000
0000
0000
0000
0000
0003
0000
0000
2001
0000
0000
0000
0000
0000
0000
0000
0000
0000
0000
0000
0000
0000
0000
0000
0000
0000
0000
0000
3000
0000
0000
0000
1002
0000
0000
0000
0000
0000
0000
0000
0000
0000
0000
0000
0000
0000
0000
0000
0000
0000
0000
0000
0003
0000
0000
0000
0000
0000
0000
0000
0000
0000
0000
0000
0000
0000
0000
0000
0000
0000
0000
0000
0000
0000
0000
0000
0000
0000
0000
0000
,
1020
0000
0130
0001
0010
0010
0100
0010
,
0021
0000
0130
0100
1000
0001
1000
1000
,
0001
0100
1000
0010
0001
0000
1000
0100
,
0001
0010
1000
0000
0110
0000
1001
0000
,
1001
0000
0001
0100
0001
0000
0100
0010
0100
0000
0010
1000
0010
0000
1000
0000
,
0001
0000
1000
0100
1000
0000
0100
0010
0100
0000
0010
0001
0010
0000
0001
0000
,
1000
0000
0001
0100
0001
0000
0100
0010
0100
0000
0010
1000
0010
0000
1000
0001
,
1000
0100
0010
0001
0100
0010
0100
0001
0010
0200
0000
0000
,
1300
1000
0001
0001
,
0100
0100
0010
0010
,
1000
1000
0001
0001
,
0010
0010
0100
0100
,
0010
0000
0001
0100
0020
0000
2030
0000
,
3001
0000
1000
0100
0020
0000
0230
0000
,
0310
0000
0001
0100
0020
0000
2030
0000
,
3002
0000
0000
0000
0000
0000
0000
0000
0203
0000
0000
0000
0000
0000
0000
0000
0320
0000
0000
0000
0000
0000
0000
0000
0000
0000
0000
0000
0200
0330
0000
0000
;

//---------------dance-single - ----------------
#NOTES:
     dance-single:
     Pandemonium X:
     Challenge:
     15:
     0.704904,0.985902,0.226761,0.226761,0.526087,544.000000,519.000000,25.000000,25.000000,20.000000,0.000000,0.704904,0.985902,0.226761,0.226761,0.526087,544.000000,519.000000,25.000000,25.000000,20.000000,0.000000:
0000
0000
0000
0000
,
0000
0000
0000
0000
,
0001
0001
1000
1000
,
0010
0010
0100
0100
,
0001
0001
1000
1000
,
0100
0010
0100
0010
0100
0010
0001
1000
,
0001
0000
0000
1000
0010
0000
0100
0000
0002
0000
0000
0000
0023
0000
0000
0000
,
0130
0000
0000
0010
0001
0000
1000
0000
0020
0000
0000
0000
2030
0000
0000
0000
,
3001
0000
0000
1000
0100
0000
0010
0000
0002
0000
0000
0000
0203
0000
0000
0000
,
0310
0000
1000
0000
0001
1000
0010
1000
0001
0000
1000
0000
0100
0000
0100
1000
,
0001
0000
0010
0001
0010
0000
0100
0000
0010
0000
0001
0000
1000
0000
0010
0000
,
0100
0000
0010
1000
0010
0000
0100
0000
0001
0000
1000
0000
0100
0000
0010
0000
,
0001
0000
0100
0001
0100
0000
0010
0000
1000
0000
0001
0000
0010
0000
0100
0000
,
1000
0000
0010
1000
0010
0000
1000
0000
0001
0100
0001
0000
0100
0000
0010
1000
,
0001
0000
0010
0001
0010
0000
0010
0100
0010
0000
0100
0000
1000
0000
0001
0000
,
1000
0000
0010
1000
0010
0000
0010
0100
0010
0000
0100
0000
0001
0000
1000
0000
,
0100
0000
0010
0001
0010
0000
0010
0100
0010
0000
0001
0000
0010
0000
0100
0000
,
1000
0000
0001
0000
1000
0010
0000
0100
0001
0000
0010
0000
0001
0000
MMMM
0000
,
1001
0000
0001
0000
1000
0000
0100
0000
0010
0001
0010
0000
0100
0000
1000
0000
,
0010
0100
0010
0000
1000
0000
0001
0000
0100
0001
0100
0000
0010
0000
1000
0000
,
0001
0010
0001
0000
0010
0000
0100
0000
0010
0100
0010
0000
0100
0000
1000
0000
,
0001
0010
0100
0000
0010
0100
1000
0000
0100
0010
0001
0000
1001
0000
0000
0000
,
1000
0100
0010
0000
0100
0000
0010
0000
0001
0010
0100
0000
0010
0000
0001
0000
,
1000
0010
0100
0000
0001
0000
1000
0000
0001
0100
0010
0000
1000
0000
0001
0000
,
0010
0001
1000
0000
0010
0000
0100
0000
0001
1000
0010
0000
0100
0000
0001
0000
,
1000
MMMM
2002
3003
,
1000
0000
0001
0100
1000
0000
0100
0000
0002
0000
0000
0000
0023
0000
0000
0000
,
0031
0000
0001
0010
1000
0000
0010
0000
0002
0000
0000
0000
0013
0000
0001
0000
,
1000
0100
0001
0010
1000
0001
1000
0001
,
0100
1000
0010
0001
1000
0010
0100
0001
,
1000
0000
1000
0100
0001
0000
0100
0000
2100
0000
0000
0000
3020
0000
0000
0000
,
1030
0000
1000
0010
0001
0000
0010
0000
1020
0000
0000
0000
0130
0000
0010
0000
,
1000
0100
0001
0010
1000
0001
1000
0001
,
0100
1000
0010
0001
1000
0001
0000
MMMM
,
0011
0000
0000
0001
0010
0000
0000
0010
0100
0000
0000
0100
1000
0000
0000
1000
,
0010
0000
0000
0010
0100
0000
0000
0100
0001
0000
0000
0001
1000
0000
0001
0000
,
0010
0000
0000
0010
0100
0000
0000
0100
1000
0000
0000
1000
0010
0000
0000
0010
,
0400
0004
0000
0000
0000
0000
0303
0000
,
1000
0100
0040
0001
0000
0100
0000
0031
,
1000
0001
0400
0010
0000
0001
0000
0310
,
1000
0100
0040
0100
0000
0001
0000
0130
,
1000
0001
1000
0010
1000
0001
MMMM
0000
,
1000
0100
0010
0000
0011
0000
0000
0000
0001
0010
0100
0000
1100
0000
0000
0000
,
1000
0010
0100
0000
0101
0000
0000
0000
0001
1000
0010
0000
1010
0000
0000
0000
,
0001
0010
0100
0000
0110
0000
0000
0000
0100
1000
0010
0000
0101
0000
0000
0000
,
0001
1000
0010
0000
1000
0001
0010
0000
0001
1000
0010
0000
1001
0000
0000
0000
,
1000
0100
0010
0000
0011
0000
0000
0000
0001
0100
0010
0000
1010
0000
0000
0000
,
0001
0100
0010
0000
1010
0000
0000
0000
1000
0100
0010
0000
1100
0000
0000
0000
,
2001
0000
3010
0000
0100
0100
0010
0100
,
2004
0000
0000
3003
4002
0000
0000
3003
2004
0000
0000
3003
0000
0000
0000
0000
,
1000
0000
0100
1000
0010
0000
0100
0001
0010
0000
0100
0000
0010
0000
0010
0000
,
0001
0000
1000
0001
0100
0000
0001
1000
0100
0000
0010
0000
0100
0000
0100
0000
,
1000
0100
0001
0010
1000
0001
0001
0100
,
1000
0000
0010
0000
0001
0000
1000
0000
0001
1000
0001
0000
0110
0000
0000
0000
,
1000
0100
0010
0001
0010
0100
1000
0100
0010
0001
0010
0100
1000
0100
0010
0001
,
0010
0100
1000
0100
0010
0001
0010
0100
1000
0100
0010
0001
0010
0100
1000
0100
,
0010
0001
0010
0100
1000
0100
0010
0001
0010
0100
1000
0100
0010
0001
0010
0100
,
1000
0000
0000
0100
0000
0000
0010
0000
0000
0100
0000
0000
1000
0000
0000
0001
0000
0000
0010
0000
0000
0100
0000
0000
1000
0000
0000
0001
0000
0000
0010
0000
0000
0100
0000
0000
1000
0000
0000
0000
0001
0000
0000
0000
1000
0000
0000
0000
,
0001
0000
0000
0001
1000
0000
0000
1000
0100
0000
0000
0100
0010
0000
0000
0010
,
0001
0000
0000
0001
0100
0000
0000
0100
0010
0000
0000
0010
1000
0000
0000
1000
,
0001
0000
0000
0001
0010
0000
0000
0010
0100
0000
0000
0100
1000
0000
0000
1000
,
0002
0203
0320
2030
,
3001
0010
0001
0001
0100
0010
1000
0001
,
1000
0010
1000
1000
0010
0100
0001
1000
,
0100
0010
0001
0001
0010
0100
1000
0001
,
4002
0000
0000
3003
2004
0000
0000
3003
4002
0000
0000
0000
3003
0000
MMMM
0000
;
